Ошибка

Тор / Thor (Кеннет Брэна) [2011 г., Фэнтези, боевик, драма, приключения, Blu-ray Remux]

Ответить на тему
 
Автор Сообщение

4liver

Пол: Пол:Муж

Стаж: 7 лет 5 месяцев

Сообщений: 1778

Рейтинг

post 09-Сен-2011 13:03 0[+]

[Цитировать] 


Год выпуска: 2011
Страна: США
Жанр: Фэнтези, боевик, драма, приключения
Продолжительность: 01:54:50
Перевод: Профессиональный (полное дублирование) [Лицензия]
Язык субтитров: Русские, Украинские, Английские (Полные, Полные SDH), Английские (На комментарии).
Режиссер:
  • Кеннет Брэна

В ролях:
  • Натали Портман, Энтони Хопкинс, Крис Хемсворт, Том Хиддлстон, Стеллан Скарсгард, Кэт Деннингс, Кларк Грегг, Идрис Эльба, Колм Фиор, Рэй Стивенсон

Описание: Эпическое приключение происходит как на нашей планете Земля, так и в вымышленном королевстве богов Асгарде. В центре истории - Могучий Тор, сильный, но высокомерный воин, чьи безрассудные поступки возрождают древнюю войну в Асгарде. Тора отправляют в ссылку на Землю, лишают сил и заставляют жить среди обычных людей в качестве наказания...

Качество: Blu-ray Remux
Формат: MKV
Видео кодек: AVC
Аудио кодек: AC3, DTS, DTS-HD MA
Видео: NTSC 23.976, 1920x1080, ~29,7 Mbps
Аудио:
1) Russian Dolby Digital Audio 5.1 / 48 kHz / 640 kbps / 16-bit
2) English DTS-HD Master Audio 7.1 / 48 kHz / 4928 kbps / 24-bit (DTS Core: 5.1-ES / 48 kHz / 1509 kbps / 24-bit)
3) English Dolby Digital Audio 2.0 / 48 kHz / 224 kbps
General
Unique ID : 233009780019997108957686869956329953140 (0xAF4C0D1FDEEB700C9F6B0A46F3435774)
Complete name : D:\Thor\Thor.mkv
Format : Matroska
Format version : Version 2
File size : 26.3 GiB
Duration : 1h 54mn
Overall bit rate : 32.8 Mbps
Encoded date : UTC 2011-09-09 07:32:38
Writing application : mkvmerge v4.9.1 ('Ich will') built on Jul 11 2011 23:53:15
Writing library : libebml v1.2.1 + libmatroska v1.1.1

Video
ID : 1
Format : AVC
Format/Info : Advanced Video Codec
Format profile : High@L4.1
Format settings, CABAC : Yes
Format settings, ReFrames : 4 frames
Format settings, GOP : M=1, N=6
Codec ID : V_MPEG4/ISO/AVC
Duration : 1h 54mn
Bit rate mode : Variable
Bit rate : 29.7 Mbps
Maximum bit rate : 32.0 Mbps
Width : 1 920 pixels
Height : 1 080 pixels
Display aspect ratio : 16:9
Frame rate : 23.976 fps
Color space : YUV
Chroma subsampling : 4:2:0
Bit depth : 8 bits
Scan type : Progressive
Bits/(Pixel*Frame) : 0.597
Stream size : 23.8 GiB (90%)
Title : Thor

Audio #1
ID : 2
Format : DTS
Format/Info : Digital Theater Systems
Format profile : MA / Core
Codec ID : A_DTS
Duration : 1h 54mn
Bit rate mode : Variable
Bit rate : 1 606 Kbps / 1 510 Kbps
Channel(s) : 8 channels / 6 channels
Channel positions : Front: L C R, Side: L R, Back: L R, LFE / Front: L C R, Side: L R, LFE
Sampling rate : 48.0 KHz
Bit depth : 24 bits
Compression mode : Lossless / Lossy
Title : DTS-HD MA 7.1
Language : English

Audio #2
ID : 3
Format : AC-3
Format/Info : Audio Coding 3
Mode extension : CM (complete main)
Codec ID : A_AC3
Duration : 1h 54mn
Bit rate mode : Constant
Bit rate : 640 Kbps
Channel(s) : 6 channels
Channel positions : Front: L C R, Side: L R, LFE
Sampling rate : 48.0 KHz
Bit depth : 16 bits
Compression mode : Lossy
Stream size : 526 MiB (2%)
Title : Dub.Rus.AC3@640kbps
Language : Russian

Audio #3
ID : 4
Format : AC-3
Format/Info : Audio Coding 3
Mode extension : CM (complete main)
Codec ID : A_AC3
Duration : 1h 54mn
Bit rate mode : Constant
Bit rate : 224 Kbps
Channel(s) : 2 channels
Channel positions : Front: L R
Sampling rate : 48.0 KHz
Bit depth : 16 bits
Compression mode : Lossy
Stream size : 184 MiB (1%)
Title : Eng.Commentary.AC3@224kbps
Language : English

Text #1
ID : 5
Format : UTF-8
Codec ID : S_TEXT/UTF8
Codec ID/Info : UTF-8 Plain Text
Title : Rus.Full
Language : Russian

Text #2
ID : 6
Format : UTF-8
Codec ID : S_TEXT/UTF8
Codec ID/Info : UTF-8 Plain Text
Title : Ukr.Full
Language : Ukrainian

Text #3
ID : 7
Format : UTF-8
Codec ID : S_TEXT/UTF8
Codec ID/Info : UTF-8 Plain Text
Title : Eng.Full
Language : English

Text #4
ID : 8
Format : UTF-8
Codec ID : S_TEXT/UTF8
Codec ID/Info : UTF-8 Plain Text
Title : Eng.Full.SDH
Language : English

Text #5
ID : 9
Format : UTF-8
Codec ID : S_TEXT/UTF8
Codec ID/Info : UTF-8 Plain Text
Title : Eng.Commentary
Language : English
info [Профиль]  [ЛС] 

culture

Стаж: 7 лет 7 месяцев

Сообщений: 42

Рейтинг

post 09-Сен-2011 13:30 (спустя 26 минут) [-]0[+]

[Цитировать] 

русскую дорогу можно отдельно???
info [Профиль]  [ЛС] 

post 10-Окт-2011 08:28 (спустя 1 месяц) [-]0[+]

Топик был перенесен из форума DVD, HD DVD, Blu-ray, HD Rips в форум Зарубежное кино | HD Rips

Panky
 

post 25-Июн-2014 10:39 (спустя 2 года 9 месяцев) [-]0[+]

Топик был перенесен из форума Зарубежное кино | HD Rips в форум Зарубежное кино | HD DVD и Blu-ray

L
 
Показать сообщения:    
Ответить на тему

Текущее время: 05-Дек 12:34

Часовой пояс: GMT + 4



Вы не можете начинать темы
Вы не можете отвечать на сообщения
Вы не можете редактировать свои сообщения
Вы не можете удалять свои сообщения
Вы не можете голосовать в опросах
Вы не можете прикреплять файлы к сообщениям
Вы не можете скачивать файлы