Ошибка

До окончания фрилича осталось:


Форсаж 5 / Fast Five (Джастин Лин) [2011 г., Боевик, триллер, драма, криминал, Blu-ray Remux]

Ответить на тему
 
Автор Сообщение

4liver

Пол: Пол:Муж

Стаж: 7 лет 5 месяцев

Сообщений: 1778

Рейтинг

post 19-Авг-2011 01:58 4[+]

[Цитировать] 

pic="http://s002.youpic.su/pictures/1313611200/7269b42700570b6fe756911063eeb08a.jpg"

Год выпуска: 2011
Страна: США, Канада
Жанр: боевик, триллер, драма, криминал
Продолжительность: 02:10:21
Перевод: Профессиональный (полное дублирование)
Язык субтитров: Русские (Форсированные), Русские ( На комментарии ), Английские (Форсированные), Английские (На комментарии), Английские (Полные).
Режиссер:
  • Джастин Лин

В ролях:
  • Вин Дизель, Пол Уокер, Джордана Брюстер, Тайриз Гибсон, Лудакрис, Эльза Патаки, Галь Гадот, Тего Калдерон, Дон Омар, Мэтт Шульце

Описание: Бывший полицейский Брайан О`Коннер вместе с бывалым лихачом Домиником Торетто совсем немного увлеклись жизнью вне закона. После того, как Брайан и Миа Торетто освободили Доминика, они не рискуют долго задерживаться на одном месте, так как являются желанной целью порядком недовольных копов.
Сохранены оригинальные чаптеры как на Blu-ray.


Качество: Blu-ray Remux
Формат: MKV
Видео кодек: AVC
Аудио кодек: AC3, DTS, DTS-HD MA
Видео: NTSC 23.976, 1920x1080, ~21510 Kbps
Аудио:
1) DTS Audio Russian 768 kbps 5.1 / 48 kHz / 768 kbps / 24-bit
2) DTS-HD Master Audio English 3987 kbps 5.1 / 48 kHz / 3987 kbps / 24-bit (DTS Core: 5.1 / 48 kHz / 1509 kbps / 24-bit)
3) Dolby Digital Audio English 192 kbps 2.0 / 48 kHz / 192 kbps / DN -4dB / Dolby Surround [Commentary]
General
Unique ID : 197675483110742562494459101472108345630 (0x94B6E9C8BF73B59CB55D7FFC1518791E)
Complete name : D:\Новая папка\4ast 4ive.mkv
Format : Matroska
Format version : Version 2
File size : 24.1 GiB
Duration : 2h 10mn
Overall bit rate : 26.5 Mbps
Encoded date : UTC 2011-08-18 20:39:19
Writing application : mkvmerge v4.9.1 ('Ich will') built on Jul 11 2011 23:53:15
Writing library : libebml v1.2.1 + libmatroska v1.1.1

Video
ID : 1
Format : AVC
Format/Info : Advanced Video Codec
Format profile : High@L4.1
Format settings, CABAC : Yes
Format settings, ReFrames : 4 frames
Codec ID : V_MPEG4/ISO/AVC
Duration : 2h 10mn
Bit rate mode : Variable
Bit rate : 23.4 Mbps
Maximum bit rate : 30.0 Mbps
Width : 1 920 pixels
Height : 1 080 pixels
Display aspect ratio : 16:9
Frame rate : 23.976 fps
Color space : YUV
Chroma subsampling : 4:2:0
Bit depth : 8 bits
Scan type : Progressive
Bits/(Pixel*Frame) : 0.471
Stream size : 21.3 GiB (88%)
Title : Fast Five
Color primaries : BT.709-5, BT.1361, IEC 61966-2-4, SMPTE RP177
Transfer characteristics : BT.709-5, BT.1361
Matrix coefficients : BT.709-5, BT.1361, IEC 61966-2-4 709, SMPTE RP177

Audio #1
ID : 2
Format : DTS
Format/Info : Digital Theater Systems
Codec ID : A_DTS
Duration : 2h 10mn
Bit rate mode : Constant
Bit rate : 755 Kbps
Channel(s) : 6 channels
Channel positions : Front: L C R, Side: L R, LFE
Sampling rate : 48.0 KHz
Bit depth : 24 bits
Compression mode : Lossy
Stream size : 703 MiB (3%)
Title : Ru.DTS@756kbps
Language : Russian

Audio #2
ID : 3
Format : DTS
Format/Info : Digital Theater Systems
Format profile : MA / Core
Codec ID : A_DTS
Duration : 2h 10mn
Bit rate mode : Variable
Bit rate : 1 576 Kbps / 1 510 Kbps
Channel(s) : 6 channels
Channel positions : Front: L C R, Side: L R, LFE
Sampling rate : 48.0 KHz
Bit depth : 24 bits
Compression mode : Lossless / Lossy
Title : Eng.DTS-HD
Language : English

Audio #3
ID : 4
Format : AC-3
Format/Info : Audio Coding 3
Format profile : Dolby Digital
Mode extension : CM (complete main)
Codec ID : A_AC3
Duration : 2h 10mn
Bit rate mode : Constant
Bit rate : 192 Kbps
Channel(s) : 2 channels
Channel positions : Front: L R
Sampling rate : 48.0 KHz
Bit depth : 16 bits
Compression mode : Lossy
Stream size : 179 MiB (1%)
Title : Eng.AC3@192kbps.Commentary
Language : English

Text #1
ID : 5
Format : PGS
Muxing mode : zlib
Codec ID : S_HDMV/PGS
Codec ID/Info : The same subtitle format used on BDs/HD-DVDs
Title : Ru.Forced
Language : Russian

Text #2
ID : 6
Format : PGS
Muxing mode : zlib
Codec ID : S_HDMV/PGS
Codec ID/Info : The same subtitle format used on BDs/HD-DVDs
Title : Ru.Commentary
Language : Russian

Text #3
ID : 7
Format : PGS
Muxing mode : zlib
Codec ID : S_HDMV/PGS
Codec ID/Info : The same subtitle format used on BDs/HD-DVDs
Title : Eng.Forced
Language : English

Text #4
ID : 8
Format : PGS
Muxing mode : zlib
Codec ID : S_HDMV/PGS
Codec ID/Info : The same subtitle format used on BDs/HD-DVDs
Title : Eng.Full
Language : English

Text #5
ID : 9
Format : PGS
Muxing mode : zlib
Codec ID : S_HDMV/PGS
Codec ID/Info : The same subtitle format used on BDs/HD-DVDs
Title : Eng.Commentary
Language : English

Menu
00:00:00.000 : :Chapter 1
00:07:45.715 : :Chapter 2
00:17:29.465 : :Chapter 3
00:23:01.838 : :Chapter 4
00:28:21.574 : :Chapter 5
00:34:55.635 : :Chapter 6
00:40:46.318 : :Chapter 7
00:48:41.585 : :Chapter 8
00:55:20.317 : :Chapter 9
01:03:09.952 : :Chapter 10
01:10:44.657 : :Chapter 11
01:18:25.867 : :Chapter 12
01:22:36.201 : :Chapter 13
01:27:58.731 : :Chapter 14
01:31:53.424 : :Chapter 15
01:39:13.322 : :Chapter 16
01:47:00.747 : :Chapter 17
01:54:50.133 : :Chapter 18
01:59:15.231 : :Chapter 19
02:03:24.396 : :Chapter 20
02:10:21.021 : :Chapter 21
info [Профиль]  [ЛС] 

4liver

Пол: Пол:Муж

Стаж: 7 лет 5 месяцев

Сообщений: 1778

Рейтинг

post 19-Авг-2011 02:00 (спустя 2 минуты) [-]0[+]

[Цитировать] 

Добавлю обязательно русские полные сабы/укр. дорогу, при появлении таковых.
Для удобства релиз в mkv.

_________________
я ем котиков / http://steamcommunity.com/id/4liver/
info [Профиль]  [ЛС] 

dedox

Пол: Пол:Муж

Стаж: 7 лет 7 месяцев

Сообщений: 42

Рейтинг

post 19-Авг-2011 03:09 (спустя 1 час 9 минут) [-]0[+]

[Цитировать] 

Золота я так понял не будет?
info [Профиль]  [ЛС] 

Pahan

Пол: Пол:Муж

Стаж: 6 лет 2 месяца

Сообщений: 922

Предупреждений: 3

Россия
Рейтинг

post 19-Авг-2011 04:50 (спустя 1 час 40 минут) [-]1[+]

[Цитировать] 

dedox
Как проверят, будет тебе золото.
info [Профиль]  [ЛС] 

xVitaLx

Пол: Пол:Муж

Стаж: 6 лет 7 месяцев

Сообщений: 184

Предупреждений: 2

Россия
Рейтинг

post 19-Авг-2011 08:26 (спустя 3 часа) [-]0[+]

[Цитировать] 

Спасибо за золото, а главное за mkv, т.к. собрался конвертить на PSP, а xvid4psp avi со звуком конвертить напрочь отказывается, получается немое кино!
info [Профиль]  [ЛС] 

Driver

Пол: Пол:Муж

Стаж: 6 лет 2 месяца

Сообщений: 2259

Россия
Рейтинг

post 19-Авг-2011 08:35 (спустя 9 минут) [-]0[+]

[Цитировать] 

xVitaLx Ты бы еще для телефона переконвертировал... Катаюсь по полу от смеха

_________________
PS3 Slim 320Gb (Rogero CFW 4.30 2.00) | Xbox360 Arcade 250 Gb LT+2.0 | Win 7 Ultimate x64 SP-1|Intel Core i5 750 (3.8GHz)|ASUS P7P55D-E PRO|4x2 Гб DDR3-1333 DDR3 SDRAM OCZ|GigaByte GeForce GTX 670 2048MB (320.49 WHQL)|5.5Tb+4.5Tb external|Thermaltake Element V|FSP Epsilon 800W Hi-Fi:Quadral Quintas 6000 5.0 Black + Yamaha RX-v571 Black + Dune HD Duo + 3D LED Samsung UE46 ES8000S
info [Профиль]  [ЛС] 

xVitaLx

Пол: Пол:Муж

Стаж: 6 лет 7 месяцев

Сообщений: 184

Предупреждений: 2

Россия
Рейтинг

post 19-Авг-2011 10:06 (спустя 1 час 30 минут) [-]0[+]

[Цитировать] 

Driver7487 И что здесь такого смешного? PSP прекрасная платформа для просмотра фильмов, большой экран... Ваш смех не обоснован!
info [Профиль]  [ЛС] 

trypanos

Пол: Пол:Муж

Стаж: 6 лет 2 месяца

Сообщений: 6

Россия
Рейтинг

post 19-Авг-2011 11:34 (спустя 1 час 27 минут) [-]0[+]

[Цитировать] 

Ну вероятно автор имел в виду, что источник для такого маленького эрана можно было бы взять и поменьше)
info [Профиль]  [ЛС] 

PSP USER

Пол: Пол:Муж

Стаж: 6 лет

Сообщений: 89

Россия
Рейтинг

post 19-Авг-2011 15:21 (спустя 3 часа) [-]1[+]

[Цитировать] 

Странно... скорость скачки остановилась на 10 кб/с
info [Профиль]  [ЛС] 

vadimus008

Пол: Пол:Муж

Стаж: 7 лет 2 месяца

Сообщений: 164

Россия
Рейтинг

post 19-Авг-2011 19:27 (спустя 4 часа) [-]-1[+]

[Цитировать] 

ФИЛЬМ НИЧЕ ПОСМОТРЕТЬ МОЖНО !РАЗДАЮ НА ДАННЫЙ МОМЕНТ 10 МБ\СЕК!!!!!УЖЕ РАЗДАЛ 36ГБ!!! kolob_123 kolob_123 kolob_123

_________________
AMD FX 8150 3.6Ghz@4.2Ghz
8Gb Ram Corsair Vengeance DDR3 4x2 dual channel
NVidia GTX580 Palit 3072Mb DDR5
Мать:ASUS SABERTOOH 990 FX HDD:750Gb +500Gb
Б\П:Chiftec 850W Корпус:COOLER MASTER
CM 690-2 Adwanced +водянка на процессор и видеокарту
windows 7 ultimate x64
info [Профиль]  [ЛС] 

DIMONMEGABIT

Пол: Пол:Муж

Стаж: 6 лет 9 месяцев

Сообщений: 41

Россия
Рейтинг

post 26-Авг-2011 14:23 (спустя 6 дней) [-]0[+]

[Цитировать] 

всё я кочаю!
info [Профиль]  [ЛС] 

post 10-Окт-2011 08:28 (спустя 1 месяц 14 дней) [-]0[+]

Топик был перенесен из форума DVD, HD DVD, Blu-ray, HD Rips в форум Зарубежное кино | HD Rips

Panky
 

post 25-Июн-2014 10:39 (спустя 2 года 9 месяцев) [-]0[+]

Топик был перенесен из форума Зарубежное кино | HD Rips в форум Зарубежное кино | HD DVD и Blu-ray

L
 
Показать сообщения:    
Ответить на тему

Текущее время: 10-Дек 05:13

Часовой пояс: GMT + 4



Вы не можете начинать темы
Вы не можете отвечать на сообщения
Вы не можете редактировать свои сообщения
Вы не можете удалять свои сообщения
Вы не можете голосовать в опросах
Вы не можете прикреплять файлы к сообщениям
Вы не можете скачивать файлы