Ошибка

Госик / Gosick [TV][1-24 из 24][2011][Детектив, Драма, Комедия, Романтика][HDTV][720p][Любительский(JAP)]

Ответить на тему
 
Автор Сообщение

lithium_cfk

Пол: Пол:Муж

Стаж: 5 лет 5 месяцев

Сообщений: 42

Рейтинг

post 10-Авг-2011 13:28 1[+]

[Цитировать] 

pic="http://s002.youpic.su/pictures/1312920000/5174d765335a8f55145c25b62a6b59d9.jpg"
Госик
Gosick | ―ゴシック―

Год выпуска: 2011
Страна: Япония
Жанр: Детектив, Драма, Комедия, Романтика
Тип: TV
Продолжительность: 25 мин.
Перевод: Любительский (многоголосный, закадровый) NIKITOS, Venera, Azazel, Viki, BalFor
Субтитры: Нет
Источник:
Студия:
Режиссер: Намба Хитоси
Автор оригинала: Сакураба Кадзуки
Средний балл: 9.1 из 10

Описание:
В княжестве Совилль, притаившемся в центре альтернативной Европы 20-х годов, царит затишье после Первой мировой. Простые люди зарабатывают на хлеб, элита ищет развлечений, а в широко известной академии Св. Маргариты обучаются отпрыски знатных фамилий. Именно в эту школу из союзной Японии переводится Кадзуя Кудзё, младший сын из семьи потомственных военных. От местных учеников, склонных к мистицизму и суевериям, черноглазый пришелец сразу же получает прозвище «ангел смерти» и статус отверженного. Пытаясь развеять грусть-тоску, в огромной башне школьной библиотеки Кадзуя внезапно встречает очаровательную девочку с золотыми волосами в костюме «готической лолиты». Удивительно, но новая знакомая уже давно его ждала!

Как оказалось, Викторика, внебрачная дочь местного аристократа, фактически заточена в академии как в золотой клетке. Единственным развлечением для ее острого ума были визиты сводного брата Гревиля де Блуа, от нечего делать пошедшего в полицию и с помощью девочки прослывшего чуть ли не гением. Но с появлением Кадзуи обстоятельства изменились. Викторика почувствовала вкус свободы и радость от возможности лично распутывать криминальные головоломки. Теперь против нового великого детектива и ее верного спутника бессильны любые ухищрения одиночек и тайных обществ, в какие бы одежды они ни рядились!

Качество: HDTV | Хардсаб: Отсутствует | Формат: MP4
Видео кодек: AVC
Видео: 1280х720 (16:9), 23.976 fps, ~1900 kbps
Аудио:
1. RU - AAC, 48,0 KHz, 2 channels (Front: L R), 192 kbps
2. JP - AAC, 48,0 KHz, 2 channels (Front: L R), 192 kbps
Трансляция: c 08.01.2011 по 02.07.2011
01. Чёрный жнец встречает Золотую фею
02. Души мертвецов поднимают корабль со дна
03. «Зайцы» дают обещание с наступлением рассвета
04. Внезапное появление золотого волоса
05. Загадочное привидение на заброшенном складе
06. Серая волчица призывает собрата
07. Божественное откровение на празднике летнего солнцестояния
08. Вой, доносящийся из королевства прошлого
09. Голубые розы цветут в магазине людоеда
10. Простуженная девочка мечтает о своём упрямом друге
11. Валик красноречиво говорит о любви
12. Стрекот цикад раздается в летние дни
13. Глупец выбирает себе защитника
14. Сварливая барышня бранит вонючего тритона
15. Взаимопонимание двух монстров
16. Падшая Мария следит за тобой
17. Шкатулка в спиральном лабиринте
18. Царство лжи в чёрном поезде
19. Жизнь в розовом цвете под белым снегом
20. Призрак «Фантома» указывает путь
21. Рождественские колокола подгоняют время
22. Радостные рождественские песни за окном
23. Шах и мат в игре пепельными шахматами
24. Глядя в бесконечность через плечо жнеца
D:\ANIME\[AniFilm]_Gosick_TV_[SHIZA]\[AniFilm]_Gosick_TV_[24_of_24]_[Rus_Jap]_[SHIZA].mp4
General
Complete name : D:\ANIME\[AniFilm]_Gosick_TV_[SHIZA]\[AniFilm]_Gosick_TV_[24_of_24]_[Rus_Jap]_[SHIZA].mp4
Format : MPEG-4
Format profile : Base Media
Codec ID : isom
File size : 392 MiB
Duration : 24mn 25s
Overall bit rate : 2 243 Kbps
Encoded date : UTC 2011-08-08 12:08:53
Tagged date : UTC 2011-08-08 12:08:53
Writing application : Yamb 2.1.0.0 [http://yamb.unite-video.com]
Video #1
ID : 1
Format : AVC
Format/Info : Advanced Video Codec
Format profile : High@L4.1
Format settings, CABAC : Yes
Format settings, ReFrames : 4 frames
Codec ID : avc1
Codec ID/Info : Advanced Video Coding
Duration : 24mn 25s
Bit rate mode : Variable
Bit rate : 1 858 Kbps
Maximum bit rate : 9 079 Kbps
Width : 1 280 pixels
Height : 720 pixels
Display aspect ratio : 16:9
Frame rate mode : Constant
Frame rate : 23.976 fps
Resolution : 24 bits
Colorimetry : 4:2:0
Scan type : Progressive
Bits/(Pixel*Frame) : 0.084
Stream size : 324 MiB (83%)
Title : www.AniFilm.TV
Writing library : x264 core 115 r1936 7a9e08d
Encoding settings : cabac=1 / ref=4 / deblock=1:-1:-1 / analyse=0x3:0x113 / me=umh / subme=9 / psy=1 / psy_rd=0.60:0.20 / mixed_ref=1 / me_range=32 / chroma_me=1 / trellis=2 / 8x8dct=1 / cqm=0 / deadzone=21,11 / fast_pskip=0 / chroma_qp_offset=-3 / threads=6 / sliced_threads=0 / nr=0 / decimate=0 / interlaced=0 / bluray_compat=0 / constrained_intra=0 / bframes=3 / b_pyramid=0 / b_adapt=2 / b_bias=0 / direct=3 / weightb=1 / open_gop=0 / weightp=2 / keyint=240 / keyint_min=1 / scenecut=50 / intra_refresh=0 / rc=crf / mbtree=0 / crf=20.0 / qcomp=0.60 / qpmin=0 / qpmax=28 / qpstep=8 / ip_ratio=1.40 / pb_ratio=1.30 / aq=1:0.50
Encoded date : UTC 2011-07-01 17:00:04
Tagged date : UTC 2011-08-08 12:09:38
colour_primaries : BT.709-5, BT.1361, IEC 61966-2-4, SMPTE RP177
transfer_characteristics : BT.709-5, BT.1361
matrix_coefficients : BT.709-5, BT.1361, IEC 61966-2-4 709, SMPTE RP177
Audio #2
ID : 2
Format : AAC
Format/Info : Advanced Audio Codec
Format version : Version 4
Format profile : LC
Format settings, SBR : No
Codec ID : 40
Duration : 24mn 25s
Bit rate mode : Variable
Bit rate : 192 Kbps
Maximum bit rate : 253 Kbps
Channel(s) : 2 channels
Channel positions : L R
Sampling rate : 48.0 KHz
Resolution : 16 bits
Stream size : 33.5 MiB (9%)
Title : SHIZA
Language : Russian
Encoded date : UTC 2011-08-08 12:09:33
Tagged date : UTC 2011-08-08 12:09:38
Audio #3
ID : 3
Format : AAC
Format/Info : Advanced Audio Codec
Format version : Version 4
Format profile : LC
Format settings, SBR : No
Codec ID : 40
Duration : 24mn 25s
Bit rate mode : Variable
Bit rate : 192 Kbps
Maximum bit rate : 197 Kbps
Channel(s) : 2 channels
Channel positions : L R
Sampling rate : 48.0 KHz
Resolution : 16 bits
Stream size : 32.9 MiB (8%)
Title : JAP Original
Language : Japanese
Encoded date : UTC 2011-08-08 12:09:34
Tagged date : UTC 2011-08-08 12:09:38
Комментарий:
Монументальный проект!
Мы пилили его чуть более полугода.
Очень старались ради вас.
Приятного просмотра.
От всей шизанутой души!!!
info [Профиль]  [ЛС] 

SerardN7

Пол: Пол:Муж

Стаж: 5 лет 4 месяца

Сообщений: 196

Украина
Рейтинг

post 10-Авг-2011 13:41 (спустя 13 минут) [-]0[+]

[Цитировать] 

Можете сделать в HWP пожалуйста

_________________
info [Профиль]  [ЛС] 

ANtreides

Пол: Пол:Муж

Стаж: 7 лет 4 месяца

Сообщений: 1014

Рейтинг

post 10-Авг-2011 14:40 (спустя 58 минут) [-]0[+]

[Цитировать] 

Максимальный размер постера - 650 пикс. по большей стороне. А тут 900.

_________________
#animeguild@irc.rizon.net - IRC-канал
Skype-чат: skype:?chat&blob=Fpw4DvF7BTW8dbxvERGaqNQ7VqD4b8pF8CTJrNOzBuLdyR1dsY2xvVM8J3Y8y7nxeJRh
Приглашаем всех желающих.
info [Профиль]  [ЛС] 

post 10-Авг-2011 17:15 (спустя 2 часа 35 минут) [-]0[+]

Топик был перенесен из форума HD Rips в форум Аниме (Основной)

ANtreides
 

SmileX

Стаж: 5 лет 5 месяцев

Сообщений: 98

Япония
Рейтинг

post 10-Авг-2011 18:24 (спустя 3 часа) [-]0[+]

[Цитировать] 

Спасибо, заценим!

_________________
info [Профиль]  [ЛС] 

Razgildai

Пол: Пол:Муж

Стаж: 7 лет 2 месяца

Сообщений: 114

Япония
Рейтинг

post 11-Авг-2011 02:09 (спустя 7 часов) [-]0[+]

[Цитировать] 

Мне анимеха понравилась))) классная)

_________________
info [Профиль]  [ЛС] 

HANNIBAL LECTER

Пол: Пол:Муж

Стаж: 7 лет 7 месяцев

Сообщений: 42

Россия
Рейтинг

post 16-Авг-2011 01:34 (спустя 4 дня) [-]0[+]

[Цитировать] 

Интересное аниме и озвучка супер.
info [Профиль]  [ЛС] 

Ritsu

Пол: Пол:Муж

Стаж: 5 лет 5 месяцев

Сообщений: 856

Австралия
Рейтинг

post 18-Сен-2011 18:38 (спустя 1 месяц 2 дня) [-]0[+]

[Цитировать] 

Интересно, надо будет глянуть Улыбаюсь

_________________
Флудите вместе с Рицу и будет вам счастье! ^__^

"...Зажжем рок в этой дыре!.."
info [Профиль]  [ЛС] 

KoMaTo3

Пол: Пол:Муж

Стаж: 6 лет 9 месяцев

Сообщений: 126

Россия
Рейтинг

post 05-Ноя-2011 00:49 (спустя 1 месяц 16 дней) [-]0[+]

[Цитировать] 

Начинал смотреть с другой озвучкой, но это понравилась больше.... Шиза - молодцом, ребята, приятно слушать anime_46
P.S. Сама анимеха тоже радует, хотя только первых 10 серий засмотрел, дальше хз как обернётся...

_________________
Я не грустный, я трезвый
info [Профиль]  [ЛС] 
Показать сообщения:    
Ответить на тему

Текущее время: 07-Дек 14:45

Часовой пояс: GMT + 4



Вы не можете начинать темы
Вы не можете отвечать на сообщения
Вы не можете редактировать свои сообщения
Вы не можете удалять свои сообщения
Вы не можете голосовать в опросах
Вы не можете прикреплять файлы к сообщениям
Вы не можете скачивать файлы