Ошибка

Ариэтти из страны лилипутов / Добывайка Ариэтти / Karigurashi no Arrietty / The Borrower Arrietty [Movie][2010][приключения, сказка][BDRip][1080p][Профессиональный (JAP+SUB)]

Ответить на тему
 
Автор Сообщение

Sunny17

Пол: Пол:Жен

Стаж: 7 лет 3 месяца

Сообщений: 733

Россия
Рейтинг

post 27-Июл-2011 03:30 1[+]

[Цитировать] 

Ариэтти из страны лилипутов | Добывайка Ариэтти | Karigurashi no Arrietty | The Borrower Arrietty


Премьера: 17.07.2010
Страна:
Жанр: приключения, сказка
Тип: полнометражный фильм
Продолжительность: 01:34:07

Режиссер: Ёнэбаяси Хиромаса / Yonebayashi Hiromasa / 米林宏昌
Автор оригинала: Мэри Нортон / Mary Norton
Студия:

Перевод:
  • Профессиональный (полное дублирование) [Лицензия / Велес]
  • Профессиональный (двухголосый, закадровый) [BBC Spb & LHS]
  • Профессиональный (одноголосый, закадровый) [Ю. Сербин]
Субтитры:
  • Русские (встроенные) [Blu-ray]
  • Русские (встроенные) [BBC Saint-Petersburg]
  • Русские (встроенные) [Gabriel Hounds]
  • Русские (встроенные) [Advantage]
  • Английские (встроенные)

Описание: История маленьких людей, которые живут рядом с нами, одалживая вещи по чуть-чуть. Их существование хранится в секрете. Но юная Ариэти нарушает запрет. Ее обнаруживает 12 летний Шо, и они становятся лучшими друзьями.
© AlterEgo, World Art

Качество: BDRip, 1080p [Yousei-Raws]
Хардсаб: Отсутствует
Формат: MKV
Видео: AVC, 1920х1080 (16:9), 23.976 fps, ~9150 kbps
Аудио:
  • - DTS, 48,0 KHz, 6 channels (Front: L C R, Side: L R, LFE), ~755 kbps [Лицензия / Велес]
  • - DTS, 48,0 KHz, 6 channels (Front: L C R, Side: L R, LFE), ~1510 kbps [BBC Spb & LHS]
  • - DTS, 48,0 KHz, 6 channels (Front: L C R, Side: L R, LFE), ~755 kbps [Сербин Юрий]
  • - DTS, 48,0 KHz, 6 channels (Front: L C R, Side: L R, LFE), ~1510 kbps

http://tapochek.net/viewtopic.php?t=73281 - наличие русской озвучки
http://tapochek.net/viewtopic.php?t=86624 - там 720р, тут 1080р
General
Unique ID : 202289286682324381871711627137125386490 (0x982F7FDCF0901B0B845B85768E3F08FA)
Complete name : D:\Karigurashi no Arrietty\Karigurashi no Arrietty.mkv
Format : Matroska
Format version : Version 2
File size : 9.01 GiB
Duration : 1h 34mn
Overall bit rate : 13.7 Mbps
Movie name : Karigurashi no Arrietty BD
Encoded date : UTC 2011-12-14 13:11:15
Writing application : mkvmerge v5.1.0 ('And so it goes') built on Nov 28 2011 23:58:28
Writing library : libebml v1.2.3 + libmatroska v1.3.0
Attachment : Yes / Yes / Yes / Yes / Yes / Yes / Yes / Yes

Video
ID : 1
Format : AVC
Format/Info : Advanced Video Codec
Format profile : High@L4.1
Format settings, CABAC : Yes
Format settings, ReFrames : 4 frames
Codec ID : V_MPEG4/ISO/AVC
Duration : 1h 34mn
Bit rate : 9 156 Kbps
Width : 1 920 pixels
Height : 1 080 pixels
Display aspect ratio : 16:9
Frame rate : 23.976 fps
Color space : YUV
Chroma subsampling : 4:2:0
Bit depth : 8 bits
Scan type : Progressive
Bits/(Pixel*Frame) : 0.184
Stream size : 5.85 GiB (65%)
Title : BDrip by Yousei
Writing library : x264 core 114 r1913 5fd3dce
Encoding settings : cabac=1 / ref=4 / deblock=1:-2:-2 / analyse=0x3:0x133 / me=umh / subme=9 / psy=1 / psy_rd=0.70:0.00 / mixed_ref=1 / me_range=24 / chroma_me=1 / trellis=2 / 8x8dct=1 / cqm=0 / deadzone=21,11 / fast_pskip=1 / chroma_qp_offset=-2 / threads=12 / sliced_threads=0 / nr=0 / decimate=0 / interlaced=0 / constrained_intra=0 / bframes=8 / b_pyramid=2 / b_adapt=2 / b_bias=0 / direct=3 / weightb=1 / open_gop=0 / weightp=2 / keyint=250 / keyint_min=23 / scenecut=40 / intra_refresh=0 / rc_lookahead=40 / rc=2pass / mbtree=0 / bitrate=9156 / ratetol=1.0 / qcomp=0.60 / qpmin=9 / qpmax=22 / qpstep=4 / cplxblur=20.0 / qblur=0.5 / vbv_maxrate=40000 / vbv_bufsize=62500 / nal_hrd=none / ip_ratio=1.40 / pb_ratio=1.30 / aq=1:0.90
Default : Yes
Forced : No

Audio #1
ID : 2
Format : DTS
Format/Info : Digital Theater Systems
Codec ID : A_DTS
Duration : 1h 34mn
Bit rate mode : Constant
Bit rate : 755 Kbps
Channel(s) : 6 channels
Channel positions : Front: L C R, Side: L R, LFE
Sampling rate : 48.0 KHz
Bit depth : 24 bits
Compression mode : Lossy
Stream size : 508 MiB (6%)
Title : Dub
Language : Russian
Default : Yes
Forced : No

Audio #2
ID : 3
Format : DTS
Format/Info : Digital Theater Systems
Codec ID : A_DTS
Duration : 1h 34mn
Bit rate mode : Constant
Bit rate : 1 510 Kbps
Channel(s) : 6 channels
Channel positions : Front: L C R, Side: L R, LFE
Sampling rate : 48.0 KHz
Bit depth : 24 bits
Compression mode : Lossy
Stream size : 1 016 MiB (11%)
Title : BBC Spb & LHS
Language : Russian
Default : No
Forced : No

Audio #3
ID : 4
Format : DTS
Format/Info : Digital Theater Systems
Codec ID : A_DTS
Duration : 1h 34mn
Bit rate mode : Constant
Bit rate : 755 Kbps
Channel(s) : 6 channels
Channel positions : Front: L C R, Side: L R, LFE
Sampling rate : 48.0 KHz
Bit depth : 24 bits
Compression mode : Lossy
Stream size : 508 MiB (6%)
Title : AVO Сербин Юрий
Language : Russian
Default : No
Forced : No

Audio #4
ID : 5
Format : DTS
Format/Info : Digital Theater Systems
Codec ID : A_DTS
Duration : 1h 34mn
Bit rate mode : Constant
Bit rate : 1 510 Kbps
Channel(s) : 6 channels
Channel positions : Front: L C R, Side: L R, LFE
Sampling rate : 48.0 KHz
Bit depth : 24 bits
Compression mode : Lossy
Delay relative to video : 25ms
Stream size : 1 016 MiB (11%)
Title : Original
Language : Japanese
Default : No
Forced : No

Text #1
ID : 6
Format : UTF-8
Codec ID : S_TEXT/UTF8
Codec ID/Info : UTF-8 Plain Text
Title : BD
Language : Russian
Default : No
Forced : No

Text #2
ID : 7
Format : UTF-8
Codec ID : S_TEXT/UTF8
Codec ID/Info : UTF-8 Plain Text
Title : BBC Saint-Petersburg
Language : Russian
Default : No
Forced : No

Text #3
ID : 8
Format : ASS
Codec ID : S_TEXT/ASS
Codec ID/Info : Advanced Sub Station Alpha
Compression mode : Lossless
Title : Gabriel Hounds
Language : Russian
Default : No
Forced : No

Text #4
ID : 9
Format : ASS
Codec ID : S_TEXT/ASS
Codec ID/Info : Advanced Sub Station Alpha
Compression mode : Lossless
Title : Advantage
Language : Russian
Default : No
Forced : No

Text #5
ID : 10
Format : ASS
Codec ID : S_TEXT/ASS
Codec ID/Info : Advanced Sub Station Alpha
Compression mode : Lossless
Title : English Subs
Language : English
Default : No
Forced : No

Menu
00:00:00.000 : en:Chapter 1
00:09:24.981 : en:Chapter 2
00:17:45.481 : en:Chapter 3
00:25:06.880 : en:Chapter 4
00:34:15.095 : en:Chapter 5
00:41:19.852 : en:Chapter 6
00:46:31.622 : en:Chapter 7
00:52:47.456 : en:Chapter 8
01:02:35.377 : en:Chapter 9
01:08:48.249 : en:Chapter 10
01:17:15.005 : en:Chapter 11
01:24:14.132 : en:Chapter 12
01:34:06.641 : en:Chapter 13

info [Профиль]  [ЛС] 

Sunny17

Пол: Пол:Жен

Стаж: 7 лет 3 месяца

Сообщений: 733

Россия
Рейтинг

post 27-Июл-2011 12:06 (спустя 8 часов) [-]1[+]

[Цитировать] 

Просьба пока не проверять и не скачивать - в раздаче нашлись проблемы.

_________________
info [Профиль]  [ЛС] 

post 27-Июл-2011 13:18 (спустя 1 час 11 минут) [-]0[+]

Топик был перенесен из форума HD Rips в форум Оформление раздач (Аниме)

ANtreides
 

post 27-Июл-2011 14:55 (спустя 2 часа 49 минут) [-]0[+]

Топик был перенесен из форума Оформление раздач (Аниме) в форум HD Rips

Sunny17
 

okinawa

Пол: Пол:Муж

Стаж: 7 лет 4 месяца

Сообщений: 409

Рейтинг

post 07-Сен-2011 15:27 (спустя 1 месяц 11 дней) [-]0[+]

[Цитировать] 

спасибо за раздачу, но можно немного больше скорости, если это возможно
info [Профиль]  [ЛС] 

Sunny17

Пол: Пол:Жен

Стаж: 7 лет 3 месяца

Сообщений: 733

Россия
Рейтинг

post 14-Дек-2011 18:53 (спустя 3 месяца 7 дней) [-]1[+]

[Цитировать] 

Раздача обновлена !!!
  • добавлен Дубляж
  • добавлен озвучка Ю. Сербин
  • добавлены субтитры [BBC Saint-Petersburg]
  • добавлены субтитры [Blu-ray]

_________________
info [Профиль]  [ЛС] 

Гильгамеш

Пол: Пол:Муж

Стаж: 5 лет 5 месяцев

Сообщений: 414

Россия
Рейтинг

post 14-Дек-2011 19:09 (спустя 15 минут) [-]0[+]

[Цитировать] 

Sunny17
Может добавишь озвучку от Anything-group? Пли-и-и-из ^__^

_________________
info [Профиль]  [ЛС] 

Sunny17

Пол: Пол:Жен

Стаж: 7 лет 3 месяца

Сообщений: 733

Россия
Рейтинг

post 14-Дек-2011 19:28 (спустя 19 минут) [-]1[+]

[Цитировать] 

Гильгамеш писал(а):

Sunny17
Может добавишь озвучку от Anything-group? Пли-и-и-из ^__^
kolob_111 Неее ... специально оставила только проф., отдельным файлом ее можно взять отсюда.

_________________
info [Профиль]  [ЛС] 

Ritsu

Пол: Пол:Муж

Стаж: 5 лет 5 месяцев

Сообщений: 856

Австралия
Рейтинг

post 15-Дек-2011 00:57 (спустя 5 часов) [-]0[+]

[Цитировать] 

Дубляж от Реанимедии чтоле? о0

_________________
Флудите вместе с Рицу и будет вам счастье! ^__^

"...Зажжем рок в этой дыре!.."
info [Профиль]  [ЛС] 

Sunny17

Пол: Пол:Жен

Стаж: 7 лет 3 месяца

Сообщений: 733

Россия
Рейтинг

post 15-Дек-2011 01:52 (спустя 54 минуты) [-]1[+]

[Цитировать] 

Ritsu писал(а):

Дубляж от Реанимедии чтоле? о0
Нет. Дубляж выполнен студией «Велес» по заказу CP Digital (указала в описании).

_________________
info [Профиль]  [ЛС] 

Ritsu

Пол: Пол:Муж

Стаж: 5 лет 5 месяцев

Сообщений: 856

Австралия
Рейтинг

post 15-Дек-2011 16:43 (спустя 14 часов) [-]0[+]

[Цитировать] 

Sunny17 писал(а):

Нет
Эх, жаль жеж =__=

_________________
Флудите вместе с Рицу и будет вам счастье! ^__^

"...Зажжем рок в этой дыре!.."
info [Профиль]  [ЛС] 
Показать сообщения:    
Ответить на тему

Текущее время: 08-Дек 04:20

Часовой пояс: GMT + 4



Вы не можете начинать темы
Вы не можете отвечать на сообщения
Вы не можете редактировать свои сообщения
Вы не можете удалять свои сообщения
Вы не можете голосовать в опросах
Вы не можете прикреплять файлы к сообщениям
Вы не можете скачивать файлы