Ошибка

Кот Саймона / Simon's Cat (15 серий) (Саймон Тофилд / Simon Tofield) [2007-2011 г., интернет-мультсериал, WEBRip]

Ответить на тему
 
Автор Сообщение

ZaRaZzZa

Пол: Пол:Муж

Стаж: 6 лет 4 месяца

Сообщений: 589

Предупреждений: 1

Украина
Рейтинг

post 15-Июл-2011 11:41 1[+]

[Цитировать] 

Кот Саймона / Simon's Cat

pic="http://i25.fastpic.ru/big/2011/0715/7c/37b7cf766d14c4d475ee03287caa897c.jpg"

Год выпуска: 2007-2011
Страна: Великобритания
Жанр: интернет-мультсериал
Перевод: Не требуется
Режиссёр: Саймон Тофилд / Simon Tofield

Описание:

  • 01. Cat Man Do / Проделки кота (1мин 37с)
    Самый первый фильм о Коте Саймона. Посмотрите как все начиналось.
  • 02. Let Me In / Впустите меня (1мин 51с)
    Навеяно тем, как кошка приходит к задней двери дома и смотрит через стекло двери. Если кошка черная и дело происходит ночью, то видны только большие зеленые глаза. )))) Каждый владелец кошки поймет, о чем этот фильм.
  • 03. TV Dinner / ТВ-обед (2мин 34с)
    Телевизор может плохо отразиться на вашем здоровье.
    RSPCA Special: Simon's Sister's Dog in: Fed Up / Специальный выпуск: Пёс сестры Саймона в: Обжорство (1мин 49с)
    Создан для кампании, проводимой Королевским обществом защиты животных "Дайте животным голос".
    Фильм обращает внимание на проблему ожирения животных.
  • 04. Fly Guy / Летающий парень (2мин 23с)
    Кот возвращается! Если вы подумали, что спать на диване безопаснее...
  • 05. Hot Spot / Горячая точка (0мин 42с)
    Этот фильм был создан в по случаю выпуска первой книги "Кот Саймона". Он оживляет один из эскизов со страниц книги.
  • 06. Snow Business (Part 1) / Снежный бизнес (Часть 1) (1мин 21с)
  • 07. Snow Business (Part 1 & 2) / Снежный бизнес (Часть 1 и 2) (2мин 18с)
    Тут нет никаких дел, кроме снежных дел. Каждый владелец кота помнит, как его кот впервые увидел снег.
  • 08. The Box / Коробка (2мин 6с)
    Пустая коробка и кот. Что может случиться?
  • 09. Cat Chat / Дружеский разговор (0мин 54с)
    Непринужденная беседа с ёжиком )))))
    Приурочена к выходу второй книги про кота Саймона. Премьера серии состоялась на amazon.co.uk.
  • 10. Lunch Break / Перерыв на обед (0мин 44с)
    Стол наедине с котом. Что может случиться?
  • 11. Santa Claws / Санта Клаус (2мин 13с)
    Любопытный кот исследует Рождество.
  • 12. Sticky Tape / Клейкая лента (0мин 58с)
    Любопытный кот попадает в затруднительно-липкое положение.
  • 13. Hop It (1мин 22с)
  • 14. Hidden Treasure (0мин 54с)

| |

Качество: WEBRip
Формат: AVI
Видео кодек: XVID
Аудио кодек: MP3
Видео: ~ 1800 Кбит/с (переменный), 720x400 (16:9) 25 fps
Аудио: 2 channel 44100Hz stereo MP3 192 кб/с

Код:

General
Complete name                    : D:\Downloads\rutracker\Simon's Cat (XviD)\01 - Cat Man Do.avi
Format                           : AVI
Format/Info                      : Audio Video Interleave
File size                        : 9.67 MiB
Duration                         : 1mn 37s
Overall bit rate                 : 835 Kbps
Writing library                  : VirtualDub-MPEG2 build 24586/release

Video
ID                               : 0
Format                           : MPEG-4 Visual
Format profile                   : Advanced Simple@L5
Format settings, BVOP            : Yes
Format settings, QPel            : No
Format settings, GMC             : No warppoints
Format settings, Matrix          : Default (H.263)
Muxing mode                      : Packed bitstream
Codec ID                         : XVID
Codec ID/Hint                    : XviD
Duration                         : 1mn 37s
Bit rate                         : 632 Kbps
Width                            : 720 pixels
Height                           : 400 pixels
Display aspect ratio             : 16:9
Frame rate                       : 24.979 fps
Original frame rate              : 24.985 fps
Color space                      : YUV
Chroma subsampling               : 4:2:0
Bit depth                        : 8 bits
Scan type                        : Progressive
Bits/(Pixel*Frame)               : 0.088
Stream size                      : 7.33 MiB (76%)
Writing library                  : XviD 1.2.1 (UTC 2008-12-04)

Audio
ID                               : 1
Format                           : MPEG Audio
Format version                   : Version 1
Format profile                   : Layer 3
Codec ID                         : 55
Codec ID/Hint                    : MP3
Duration                         : 1mn 37s
Bit rate mode                    : Constant
Bit rate                         : 192 Kbps
Channel(s)                       : 2 channels
Sampling rate                    : 44.1 KHz
Stream size                      : 2.22 MiB (23%)
Alignment                        : Split accross interleaves
Interleave, duration             : 40 ms (1.00 video frame)
Interleave, preload duration     : 500 ms
Writing library                  : LAME3.98.2ЄЄЄЄЄЄЄЄЄЄ



Раздача будет пополняться по мере выхода новых серий
info [Профиль]  [ЛС] 

Ashly

Пол: Пол:Муж

Стаж: 6 лет 7 месяцев

Сообщений: 36

Албания
Рейтинг

post 15-Июл-2011 14:24 (спустя 2 часа 43 минуты) [-]0[+]

[Цитировать] 

он клевый )
спасибо

_________________
info [Профиль]  [ЛС] 

yeahBlonde

Стаж: 6 лет 4 месяца

Сообщений: 62

Швеция
Рейтинг

post 15-Июл-2011 14:38 (спустя 14 минут) [-]0[+]

[Цитировать] 

клевый мульт, спасибо автору за сборник anime_1
info [Профиль]  [ЛС] 

Ник23

Пол: Пол:Муж

Стаж: 6 лет 8 месяцев

Сообщений: 30

Россия
Рейтинг

post 15-Июл-2011 15:02 (спустя 23 минуты) [-]0[+]

[Цитировать] 

ZaRaZzZa
А как 15 серий если их 14?
info [Профиль]  [ЛС] 

ZaRaZzZa

Пол: Пол:Муж

Стаж: 6 лет 4 месяца

Сообщений: 589

Предупреждений: 1

Украина
Рейтинг

post 15-Июл-2011 16:38 (спустя 1 час 36 минут) [-]0[+]

[Цитировать] 

Ник23
RSPCA Special. Simon's Sister's Dog in. Fed Up.avi

_________________
info [Профиль]  [ЛС] 

death7lord

Пол: Пол:Муж

Стаж: 6 лет 11 месяцев

Сообщений: 325

Россия
Рейтинг

post 15-Июл-2011 16:53 (спустя 15 минут) [-]0[+]

[Цитировать] 

Ник23
между 3й и 4й автор не выделил Про Собаку

ZaRaZzZa
спасибо) посмеялся))
info [Профиль]  [ЛС] 

АмПлИтУдА

Пол: Пол:Жен

Стаж: 5 лет 5 месяцев

Сообщений: 16

Ямайка
Рейтинг

post 30-Ноя-2011 15:45 (спустя 4 месяца 14 дней) [-]0[+]

[Цитировать] 

спасибо большое!!!! anime_63 люблю этого кота anime_25
info [Профиль]  [ЛС] 
Показать сообщения:    
Ответить на тему

Текущее время: 11-Дек 10:06

Часовой пояс: GMT + 4



Вы не можете начинать темы
Вы не можете отвечать на сообщения
Вы не можете редактировать свои сообщения
Вы не можете удалять свои сообщения
Вы не можете голосовать в опросах
Вы не можете прикреплять файлы к сообщениям
Вы не можете скачивать файлы