Ошибка

Ходячий замок / Шагающий замок Хаула / Howl's Moving Castle / Howl no Ugoku Shiro [Movie][2004][сказка, приключения, романтика, драма][HDTVRip][1080p][Профессиональный (JAP+SUB)]

Ответить на тему
 
Автор Сообщение

Sunny17

Пол: Пол:Жен

Стаж: 7 лет 3 месяца

Сообщений: 733

Россия
Рейтинг

post 03-Июл-2011 02:35 2[+]

[Цитировать] 

Ходячий замок | Шагающий замок Хаула | Howl's Moving Castle | Howl no Ugoku Shiro | ハウルの動く城


Премьера: 20.11.2004
Страна:
Жанр: сказка, приключения, романтика, драма
Тип: полнометражный фильм
Продолжительность: 01:59:19

Режиссер: Миядзаки Хаяо / Miyazaki Hayao / 宮崎駿
Автор оригинала: Диана Уинн Джонс / Diana Wynne Jones
Студия:

Перевод:
  • Профессиональный (многоголосый, закадровый)
Субтитры:
  • Русские (встроенные)
  • Английские (встроенные)

Описание: Действие фильма происходит в сказочном мире, напоминающем Европу 19-го века, где магия идёт рука об руку с техническим прогрессом. Скромная жизнь рано осиротевшей шляпницы Софи полностью изменилась, когда в окрестностях её города появился шагающий замок таинственного волшебника Хаула, известного своими "похищениями" девичьих сердец. Спасённая этим голубоглазым красавцем от приставаний двух солдафонов, она полюбила его с первого взгляда, однако волнующая прогулка с ним стоила юной шляпнице её красоты и молодости, отнятых чарами ревнивой Ведьмы из Пустоши. Шокирующее превращение из восемнадцатилетней девушки в дряхлую старуху заставило Софи покинуть родной дом и отправиться на поиски заколдовавшей её Ведьмы, чтобы та вернула ей нормальный вид. Попав по дороге внутрь шагающего замка Хаула, девушка-старушка осталась жить с хозяином и другими обитателями этого гигантского сооружения на курьих ножках, обретя в них семью, а взамен подарив им тепло и мудрость своего любящего сердца...
© Алексей Фадеев, World Art


Качество: HDTVRip, 1080p
Хардсаб: Отсутствует
Формат: MKV
Видео: AVC, 1920х1040 (16:9), 23.976 fps, 8700 kbps
Аудио:
  • - DTS, 48,0 KHz, 6 channels (Front: L C R, Side: L R, LFE), 1510 kbps
  • - DTS, 48,0 KHz, 6 channels (Front: L C R, Side: L R, LFE), 755 kbps

Общее
Уникальный идентификатор : 208041496421379336364062600784663215228 (0x9C8355B30C4D130A991851A813B2FC7C)
Полное имя : D:\Howls.Moving.Castle.2004.1080p.x264.DTS.Rus.mkv
Формат : Matroska
Размер файла : 9,14 Гбайт
Продолжительность : 1 ч. 59 м.
Общий поток : 11,0 Мбит/сек
Дата кодирования : UTC 2007-08-12 07:42:58
Программа кодирования : mkvmerge v2.0.2 ('You're My Flame') built on Jun 27 2007 15:53:08
Библиотека кодирования : libebml v0.7.7 + libmatroska v0.8.1

Видео
Идентификатор : 1
Формат : AVC
Формат/Информация : Advanced Video Codec
Профиль формата : High@L5.1
Параметр CABAC формата : Да
Параметр ReFrames формата : 11 кадров
Идентификатор кодека : V_MPEG4/ISO/AVC
Продолжительность : 1 ч. 59 м.
Битрейт : 8700 Кбит/сек
Ширина : 1920 пикс.
Высота : 1040 пикс.
Соотношение сторон : 16:9
Частота кадров : 23,976 кадр/сек
Цветовое пространство : YUV
Подвыборка цветности : 4:2:0
Битовая глубина : 8 бит
Тип развёртки : Прогрессивная
Бит/(Пиксели*Кадры) : 0.182
Размер потока : 7,07 Гбайт (77%)
Заголовок : x264 1080p
Библиотека кодирования : x264 core 55 svn-663M
Настройки программы : cabac=1 / ref=8 / deblock=1:-3:-3 / analyse=0x3:0x113 / me=umh / subme=7 / brdo=1 / mixed_ref=1 / me_range=16 / chroma_me=1 / trellis=1 / 8x8dct=1 / cqm=2 / deadzone=21,11 / chroma_qp_offset=0 / threads=3 / nr=0 / decimate=1 / mbaff=0 / bframes=5 / b_pyramid=1 / b_adapt=1 / b_bias=0 / direct=3 / wpredb=1 / bime=1 / keyint=250 / keyint_min=25 / scenecut=40(pre) / rc=2pass / bitrate=8700 / ratetol=1.0 / rceq='blurCplx^(1-qComp)' / qcomp=0.60 / qpmin=10 / qpmax=51 / qpstep=4 / cplxblur=20.0 / qblur=0.5 / ip_ratio=1.40 / pb_ratio=1.30
Язык : English

Аудио #1
Идентификатор : 2
Формат : DTS
Формат/Информация : Digital Theater Systems
Идентификатор кодека : A_DTS
Продолжительность : 1 ч. 59 м.
Вид битрейта : Постоянный
Битрейт : 1510 Кбит/сек
Каналы : 6 каналов
Расположение каналов : Front: L C R, Side: L R, LFE
Частота : 48,0 КГц
Битовая глубина : 24 бит
Метод сжатия : С потерями
Размер потока : 1,26 Гбайт (14%)
Заголовок : DTS at 1536 Kbps
Язык : Russian

Аудио #2
Идентификатор : 3
Формат : DTS
Формат/Информация : Digital Theater Systems
Идентификатор кодека : A_DTS
Продолжительность : 1 ч. 59 м.
Вид битрейта : Постоянный
Битрейт : 755 Кбит/сек
Каналы : 6 каналов
Расположение каналов : Front: L C R, Side: L R, LFE
Частота : 48,0 КГц
Битовая глубина : 24 бит
Метод сжатия : С потерями
Размер потока : 644 Мбайт (7%)
Заголовок : DTS 768kbit
Язык : Japanese

Текст #1
Идентификатор : 4
Формат : UTF-8
Идентификатор кодека : S_TEXT/UTF8
Идентификатор кодека/Информация : UTF-8 Plain Text
Заголовок : English Subs
Язык : English

Текст #2
Идентификатор : 5
Формат : UTF-8
Идентификатор кодека : S_TEXT/UTF8
Идентификатор кодека/Информация : UTF-8 Plain Text
Заголовок : Russian Subs
Язык : Russian
info [Профиль]  [ЛС] 
Показать сообщения:    
Ответить на тему

Текущее время: 06-Дек 12:17

Часовой пояс: GMT + 4



Вы не можете начинать темы
Вы не можете отвечать на сообщения
Вы не можете редактировать свои сообщения
Вы не можете удалять свои сообщения
Вы не можете голосовать в опросах
Вы не можете прикреплять файлы к сообщениям
Вы не можете скачивать файлы