Ошибка

Мой сосед Тоторо / Tonari no Totoro / My Neighbor Totoro [Movie][1988][приключения, комедия, сказка, драма][HDTVRip][720p][Профессиональный (JAP+SUB)]

Ответить на тему
 
Автор Сообщение

Sunny17

Пол: Пол:Жен

Стаж: 7 лет 3 месяца

Сообщений: 733

Россия
Рейтинг

post 02-Июл-2011 11:32 1[+]

[Цитировать] 

Мой сосед Тоторо | Tonari no Totoro | My Neighbor Totoro | となりのトトロ


Премьера: 16.04.1988
Страна:
Жанр: приключения, комедия, сказка, драма
Тип: полнометражный фильм
Продолжительность: 01:26:19

Режиссер / Автор оригинала: Миядзаки Хаяо / Miyazaki Hayao / 宮崎駿
Студия:

Перевод:
  • Профессиональный (многоголосый, закадровый) [Киномания]
  • Профессиональный (многоголосый, закадровый) [R5]
  • Профессиональный (двухголосый, закадровый) [Гланц, Казакова]
  • Авторский (одноголосый, закадровый) [Толстобров]
Субтитры:
  • Русские (встроенные) [Киномания]
  • Русские (встроенные) [А. Казанцев, А. Бреусов, С. Светличный]
  • Русские (встроенные) [R5]
  • Английские (встроенные)

Описание: Япония, пятидесятые годы прошлого века. Переехав в деревню, две маленькие сестры Сацуки (старшая) и Мэй (младшая) глубоко внутри дерева обнаружили необыкновенный, чудесный мир, населённый Тоторо, очаровательными пушистыми созданиями, с которыми у девочек сразу же завязалась дружба. Одни из них большие, другие совсем крохотные, но у всех у них огромное, доброе сердце и магические способности совершать необыкновенные вещи, наподобие полётов над горами или взращивания огромного дерева за одну ночь! Но увидеть этих существ могут лишь дети, которые им приглянутся... Подружившись с сёстрами, Тоторо не только устраивают им воздушную экскурсию по своим владениям, но и помогают Мэй повидаться с лежащей в больнице мамой.
Качество: HDTVRip, 720p
Хардсаб: Отсутствует
Формат: MKV
Видео: AVC, 1280х692 (1,850), 23.976 fps, 8864 kbps
Аудио:
  • - AC-3, 48,0 KHz, 2 channels (Front: L R), 192 kbps Киномания
  • - AC-3, 48,0 KHz, 2 channels (Front: L R), 192 kbps R5
  • - AC-3, 48,0 KHz, 2 channels (Front: L R), 448 kbps Гланц, Казакова
  • - AC-3, 48,0 KHz, 2 channels (Front: L R), 192 kbps Толстобров
  • - AC-3, 48,0 KHz, 2 channels (Front: L R), 448 kbps

Общее
Уникальный идентификатор : 218206644525514663481227210460893429052 (0xA4291232029BFB728FA132B0F8123D3C)
Полное имя : D:\Tonari no Totoro (1988) HDTV 720.mkv
Формат : Matroska
Размер файла : 6,23 Гбайт
Продолжительность : 1 ч. 26 м.
Общий поток : 10,3 Мбит/сек
Дата кодирования : UTC 2010-11-14 13:55:20
Программа кодирования : mkvmerge v4.4.0 ('Die Wiederkehr') сборка от Oct 31 2010 21:52:48
Библиотека кодирования : libebml v1.0.0 + libmatroska v1.0.0
Обложка : Yes

Видео
Идентификатор : 1
Формат : AVC
Формат/Информация : Advanced Video Codec
Профиль формата : High@L4.1
Параметр CABAC формата : Да
Параметр ReFrames формата : 8 кадров
Режим смешивания : Header stripping
Идентификатор кодека : V_MPEG4/ISO/AVC
Продолжительность : 1 ч. 26 м.
Битрейт : 8864 Кбит/сек
Ширина : 1280 пикс.
Высота : 692 пикс.
Соотношение сторон : 1,850
Частота кадров : 23,976 кадр/сек
Цветовое пространство : YUV
Подвыборка цветности : 4:2:0
Битовая глубина : 8 бит
Тип развёртки : Прогрессивная
Бит/(Пиксели*Кадры) : 0.417
Размер потока : 5,22 Гбайт (84%)
Библиотека кодирования : x264 core 104 r1683 62997d6
Настройки программы : cabac=1 / ref=8 / deblock=1:-2:-2 / analyse=0x3:0x133 / me=umh / subme=9 / psy=1 / psy_rd=0.85:0.00 / mixed_ref=1 / me_range=24 / chroma_me=1 / trellis=2 / 8x8dct=1 / cqm=0 / deadzone=21,11 / fast_pskip=1 / chroma_qp_offset=-2 / threads=3 / sliced_threads=0 / nr=0 / decimate=1 / interlaced=0 / constrained_intra=0 / bframes=9 / b_pyramid=2 / b_adapt=2 / b_bias=0 / direct=3 / weightb=1 / open_gop=0 / weightp=2 / keyint=240 / keyint_min=24 / scenecut=40 / intra_refresh=0 / rc=2pass / mbtree=0 / bitrate=8864 / ratetol=60.0 / qcomp=0.75 / qpmin=6 / qpmax=24 / qpstep=4 / cplxblur=20.0 / qblur=0.5 / ip_ratio=1.40 / pb_ratio=1.30 / aq=1:0.95
Коэффициенты матрицы : BT.709-5, BT.1361, IEC 61966-2-4 709, SMPTE RP177

Аудио #1
Идентификатор : 2
Формат : AC-3
Формат/Информация : Audio Coding 3
Расширение режима : CM (complete main)
Режим смешивания : Header stripping
Идентификатор кодека : A_AC3
Продолжительность : 1 ч. 26 м.
Вид битрейта : Постоянный
Битрейт : 448 Кбит/сек
Каналы : 2 канала
Расположение каналов : Front: L R
Частота : 48,0 КГц
Битовая глубина : 16 бит
Метод сжатия : С потерями
Задержка видео : 550 мс.
Размер потока : 277 Мбайт (4%)
Заголовок : AC3 / 2.0 / 48 kHz / 448 kbps; Гланц и Казакова
Язык : Russian

Аудио #2
Идентификатор : 3
Формат : AC-3
Формат/Информация : Audio Coding 3
Расширение режима : CM (complete main)
Режим смешивания : Header stripping
Идентификатор кодека : A_AC3
Продолжительность : 1 ч. 26 м.
Вид битрейта : Постоянный
Битрейт : 192 Кбит/сек
Каналы : 2 канала
Расположение каналов : Front: L R
Частота : 48,0 КГц
Битовая глубина : 16 бит
Метод сжатия : С потерями
Задержка видео : 550 мс.
Размер потока : 119 Мбайт (2%)
Заголовок : AC3 / 2.0 / 48 kHz / 192 kbps; Kinomania
Язык : Russian

Аудио #3
Идентификатор : 4
Формат : AC-3
Формат/Информация : Audio Coding 3
Расширение режима : CM (complete main)
Режим смешивания : Header stripping
Идентификатор кодека : A_AC3
Продолжительность : 1 ч. 26 м.
Вид битрейта : Постоянный
Битрейт : 192 Кбит/сек
Каналы : 2 канала
Расположение каналов : Front: L R
Частота : 48,0 КГц
Битовая глубина : 16 бит
Метод сжатия : С потерями
Задержка видео : 550 мс.
Размер потока : 119 Мбайт (2%)
Заголовок : AC3 / 2.0 / 48 kHz / 192 kbps; R5
Язык : Russian

Аудио #4
Идентификатор : 5
Формат : AC-3
Формат/Информация : Audio Coding 3
Расширение режима : CM (complete main)
Режим смешивания : Header stripping
Идентификатор кодека : A_AC3
Продолжительность : 1 ч. 26 м.
Вид битрейта : Постоянный
Битрейт : 192 Кбит/сек
Каналы : 2 канала
Расположение каналов : Front: L R
Частота : 48,0 КГц
Битовая глубина : 16 бит
Метод сжатия : С потерями
Задержка видео : 550 мс.
Размер потока : 119 Мбайт (2%)
Заголовок : AC3 / 2.0 / 48 kHz / 192 kbps; VO
Язык : Russian

Аудио #5
Идентификатор : 6
Формат : AC-3
Формат/Информация : Audio Coding 3
Расширение режима : CM (complete main)
Режим смешивания : Header stripping
Идентификатор кодека : A_AC3
Продолжительность : 1 ч. 26 м.
Вид битрейта : Постоянный
Битрейт : 448 Кбит/сек
Каналы : 2 канала
Расположение каналов : Front: L R
Частота : 48,0 КГц
Битовая глубина : 16 бит
Метод сжатия : С потерями
Задержка видео : 550 мс.
Размер потока : 277 Мбайт (4%)
Заголовок : AC3 / 2.0 / 48 kHz / 448 kbps; Original
Язык : Japanese

Текст #1
Идентификатор : 7
Формат : ASS
Идентификатор кодека : S_TEXT/ASS
Идентификатор кодека/Информация : Advanced Sub Station Alpha
Метод сжатия : Без потерь
Заголовок : А. Казанцев, А. Бреусов, С. Светличный
Язык : Russian

Текст #2
Идентификатор : 8
Формат : UTF-8
Идентификатор кодека : S_TEXT/UTF8
Идентификатор кодека/Информация : UTF-8 Plain Text
Заголовок : Kinomania
Язык : Russian

Текст #3
Идентификатор : 9
Формат : UTF-8
Идентификатор кодека : S_TEXT/UTF8
Идентификатор кодека/Информация : UTF-8 Plain Text
Заголовок : R5
Язык : Russian

Текст #4
Идентификатор : 10
Формат : UTF-8
Идентификатор кодека : S_TEXT/UTF8
Идентификатор кодека/Информация : UTF-8 Plain Text
Язык : English
info [Профиль]  [ЛС] 

sparin

Стаж: 6 лет 8 месяцев

Сообщений: 63

Россия
Рейтинг

post 03-Июл-2011 01:54 (спустя 14 часов) [-]0[+]

[Цитировать] 

Не всегда понимал его творчество. Но лейбл студии как-то гипнотизирует и все его персонажи тоже.

_________________
info [Профиль]  [ЛС] 

xandpaJ

Пол: Пол:Муж

Стаж: 6 лет 11 месяцев

Сообщений: 207

Предупреждений: 1

Россия
Рейтинг

post 17-Июл-2011 00:22 (спустя 13 дней) [-]0[+]

[Цитировать] 

На рутрекере жаловались на

Цитата:

Небольшой рассинхрон в 1 и 5-ой дорожке.
в этой версии.
Тут как?
info [Профиль]  [ЛС] 

Sunny17

Пол: Пол:Жен

Стаж: 7 лет 3 месяца

Сообщений: 733

Россия
Рейтинг

post 17-Июл-2011 02:43 (спустя 2 часа 21 минута) [-]2[+]

[Цитировать] 

xandpaJ писал(а):

На рутрекере жаловались на

Цитата:

Небольшой рассинхрон в 1 и 5-ой дорожке.
в этой версии.
Тут как?
Еще раз перепроверила все дорожки (на одном промежутке) - вроде все нормально, по крайней мере за два восстановления этой раздачи (после бекапа) - никто не жаловался на проблемы с рассинхроном.

_________________
info [Профиль]  [ЛС] 
Показать сообщения:    
Ответить на тему

Текущее время: 04-Дек 14:17

Часовой пояс: GMT + 4



Вы не можете начинать темы
Вы не можете отвечать на сообщения
Вы не можете редактировать свои сообщения
Вы не можете удалять свои сообщения
Вы не можете голосовать в опросах
Вы не можете прикреплять файлы к сообщениям
Вы не можете скачивать файлы