Ошибка

Принцесса Мононоке / Mononoke Hime / Princess Mononoke [Movie][1997][приключения, фэнтези, драма][DVDRip][720p][Дублированный (JAP+SUB)]

Ответить на тему
 
Автор Сообщение

Sunny17

Пол: Пол:Жен

Стаж: 7 лет 3 месяца

Сообщений: 733

Россия
Рейтинг

post 02-Июл-2011 10:27 4[+]

[Цитировать] 

Принцесса Мононокэ | Mononoke Hime | Princess Mononoke | もののけ姫


Премьера: 12.07.1997
Страна:
Жанр: приключения, фэнтези, драма
Тип: полнометражный фильм
Продолжительность: 02:13:37

Режиссер / Автор оригинала: Миядзаки Хаяо / Miyazaki Hayao / 宮崎駿
Студия:


Озвучка:
  • Дубляж | Reanimedia |
  • Профессиональная (многоголосая, закадровая) | Vest Video |
  • Профессиональная (многоголосая, закадровая) | Киномания |
  • Авторская (одноголосая, закадровая) | Толстобров |
Субтитры:
  • Русские (встроенные) | Кампай-клуб |

Описание: Средневековая Япония, середина XV века. В стране пылает междоусобная война. Молодой воин по имени Аситака из племени эмиси отправляется в лес великого божества Сисигами, чтобы очиститься от проклятия, перешедшее на него от обезумевшего Бога Кабанов. Произошло это, когда Аситака для спасения своей деревни вынужден был убить его. Необходимо торопиться, проклятье медленно, но верно убивает юного воина. На границе леса он находит поселение сталеваров, возглавляемое харизматичной Эбоси-годзэн. Вырубание леса для сталеваров – необходимый элемент производственного цикла. Им необходимо топливо. Благодаря производимому ими металлу и изготовляемому из него огнестрельному оружию они могут сохранить независимость от окружающих феодалов. Поселение Эбоси - прибежище прокаженных и беглых преступников. Людям противостоят разумные животные, населяющие леса, и их божества во главе с Богиней-волчицей и её воспитанницей - Сан, Принцессой-мононокэ ("мононокэ" по-японски - "разгневанный дух"). И те, и другие защищают свои интересы. И ни тем, ни другим просто некуда отступать. Третья сила в конфликте - шпионы императора, желающие использовать ситуацию, чтобы заполучить голову Сисигами, которая, по древней легенде, может дать бессмертие ее обладателю. Героизм и предательство, любовь и ненависть, извечная вражда и вновь зарождающееся доверие - в этом фильме есть всё.
Качество: DVDRip, 720p
Хардсаб: Отсутствует
Формат: MKV
Видео: AVC, 1280х704 (16:9), 23.976 fps, 2847 kbps
Аудио:
  • - AC-3, 48,0 KHz, 6 channels (Front: L C R, Side: L R, LFE), 256 kbps | Reanimedia |
  • - AC-3, 48,0 KHz, 6 channels (Front: L C R, Side: L R, LFE), 384 kbps | Киномания |
  • - AC-3, 48,0 KHz, 6 channels (Front: L C R, Side: L R, LFE), 448 kbps | Толстобров |
  • - MP3, 48,0 KHz, 2 channels (Front: L R), 192 kbps | Vest Video |
  • - AC-3, 48,0 KHz, 6 channels (Front: L C R, Side: L R, LFE), 448 kbps

http://tapochek.net/viewtopic.php?t=62054 (DVDRip) - лучшее качество видео, лучший звук (яп. дорожка), наличие многоголосой и авторской озвучки
Сравнение

http://tapochek.net/viewtopic.php?t=18714 (DVDRip) - (не могу сравнить, не открываются скриншоты), наличие оригинальной дорожки (яп.), наличие дубляжа, многоголосой (Vest Video) и авторской озвучки, наличие русских субтитров
Принцесса Мононоке.mkv
Format : Matroska
Format version : Version 2
File size : 4.36 GiB
Duration : 2h 13mn
Overall bit rate : 4 666 Kbps
Encoded date : UTC 2012-04-03 09:43:53
Writing application : mkvmerge v5.4.0 ('Piper') built on Mar 10 2012 13:34:39
Writing library : libebml v1.2.3 + libmatroska v1.3.0

Video
ID : 1
Format : AVC
Format/Info : Advanced Video Codec
Format profile : High@L5.0
Format settings, CABAC : Yes
Format settings, ReFrames : 16 frames
Codec ID : V_MPEG4/ISO/AVC
Duration : 2h 13mn
Bit rate : 2 845 Kbps
Width : 1 280 pixels
Height : 704 pixels
Display aspect ratio : 16:9
Frame rate : 23.976 fps
Color space : YUV
Chroma subsampling : 4:2:0
Bit depth : 8 bits
Scan type : Progressive
Bits/(Pixel*Frame) : 0.132
Stream size : 2.66 GiB (61%)
Writing library : x264 core 75 r1251kMod e553a4c
Encoding settings : cabac=1 / ref=16 / deblock=1:-1:-1 / analyse=0x3:0x133 / me=umh / subme=10 / psy=1 / psy_rd=1.0:0.0 / mixed_ref=1 / me_range=24 / chroma_me=1 / trellis=2 / 8x8dct=1 / cqm=0 / deadzone=21,11 / chroma_qp_offset=-2 / threads=3 / nr=0 / decimate=1 / mbaff=0 / bframes=4 / b_pyramid=0 / b_adapt=2 / b_bias=0 / direct=3 / wpredb=1 / keyint=250 / keyint_min=25 / scenecut=40 / rc_lookahead=40 / rc=crf / mbtree=1 / crf=18.0000 / qcomp=0.60 / qpmin=10 / qpmax=51 / qpstep=4 / ip_ratio=1.40 / aq=1:1.00
Default : Yes
Forced : No

Audio #1
ID : 2
Format : AC-3
Format/Info : Audio Coding 3
Mode extension : CM (complete main)
Codec ID : A_AC3
Duration : 2h 13mn
Bit rate mode : Constant
Bit rate : 256 Kbps
Channel(s) : 6 channels
Channel positions : Front: L C R, Side: L R, LFE
Sampling rate : 48.0 KHz
Bit depth : 16 bits
Compression mode : Lossy
Stream size : 245 MiB (5%)
Title : Дублированный - Reanimedia
Language : Russian
Default : No
Forced : No

Audio #2
ID : 3
Format : AC-3
Format/Info : Audio Coding 3
Mode extension : CM (complete main)
Codec ID : A_AC3
Duration : 2h 13mn
Bit rate mode : Constant
Bit rate : 384 Kbps
Channel(s) : 6 channels
Channel positions : Front: L C R, Side: L R, LFE
Sampling rate : 48.0 KHz
Bit depth : 16 bits
Compression mode : Lossy
Delay relative to video : 14s 346ms
Stream size : 367 MiB (8%)
Title : Многоголосый (закадровый) - Киномания
Language : Russian
Default : No
Forced : No

Audio #3
ID : 4
Format : MPEG Audio
Format version : Version 1
Format profile : Layer 3
Codec ID : A_MPEG/L3
Codec ID/Hint : MP3
Duration : 2h 13mn
Bit rate mode : Constant
Bit rate : 192 Kbps
Channel(s) : 2 channels
Sampling rate : 48.0 KHz
Compression mode : Lossy
Stream size : 184 MiB (4%)
Title : Многоголосый (закадровый) - Vest Video (лиц.VHS)
Writing library : LAME3.98.4
Language : Russian
Default : No
Forced : No

Audio #4
ID : 5
Format : AC-3
Format/Info : Audio Coding 3
Mode extension : CM (complete main)
Codec ID : A_AC3
Duration : 2h 13mn
Bit rate mode : Constant
Bit rate : 448 Kbps
Channel(s) : 6 channels
Channel positions : Front: L C R, Side: L R, LFE
Sampling rate : 48.0 KHz
Bit depth : 16 bits
Compression mode : Lossy
Delay relative to video : 14s 340ms
Stream size : 428 MiB (10%)
Title : Одноголосый (закадровый) - Толстобров
Language : Russian
Default : No
Forced : No

Audio #5
ID : 6
Format : AC-3
Format/Info : Audio Coding 3
Mode extension : CM (complete main)
Codec ID : A_AC3
Duration : 2h 13mn
Bit rate mode : Constant
Bit rate : 448 Kbps
Channel(s) : 6 channels
Channel positions : Front: L C R, Side: L R, LFE
Sampling rate : 48.0 KHz
Bit depth : 16 bits
Compression mode : Lossy
Delay relative to video : 14s 359ms
Stream size : 428 MiB (10%)
Title : Оригинал
Language : Japanese
Default : No
Forced : No

Text
ID : 7
Format : VobSub
Muxing mode : zlib
Codec ID : S_VOBSUB
Codec ID/Info : The same subtitle format used on DVDs
Title : Кампай-клуб
Language : Russian
Default : No
Forced : No
info [Профиль]  [ЛС] 

Sunny17

Пол: Пол:Жен

Стаж: 7 лет 3 месяца

Сообщений: 733

Россия
Рейтинг

post 03-Апр-2012 14:00 (спустя 9 месяцев 1 день) [-]1[+]

[Цитировать] 

Обновление:
  • Озвучка:
    • Профессиональная (многоголосая, закадровая) | Vest Video |


Огромная благодарность Liebherr за аудиодорожку и помощь в её тайме kolob_117 kolob_117 kolob_117

_________________
info [Профиль]  [ЛС] 

marcuspolo

Пол: Пол:Муж

Стаж: 7 лет 1 месяц

Сообщений: 338

Россия
Рейтинг

post 03-Апр-2012 15:17 (спустя 1 час 17 минут) [-]3[+]

[Цитировать] 

Мультфильм потрясающий
anime_19
info [Профиль]  [ЛС] 

Forsaken 707

Пол: Пол:Муж

Стаж: 6 лет 8 месяцев

Сообщений: 98

Россия
Рейтинг

post 03-Апр-2012 16:55 (спустя 1 час 37 минут) [-]0[+]

[Цитировать] 

апскейл?

_________________
info [Профиль]  [ЛС] 

Mark Renton

Пол: Пол:Муж

Стаж: 7 лет 6 месяцев

Сообщений: 332

Великобритания
Рейтинг

post 03-Апр-2012 18:12 (спустя 1 час 17 минут) [-]2[+]

[Цитировать] 

Бест у Миядзаки.

_________________
Ты не становишься моложе, Марк. Мир меняется. Музыка меняется, даже наркотики меняются. Нельзя же сидеть целыми днями дома — и мечтать о героине и Зигги Попе.
— Игги Поп.
— Без разницы. Всё равно он уже умер.
— Игги Поп не умер, в прошлом году Томми ходил на его концерт... (с)
info [Профиль]  [ЛС] 
Показать сообщения:    
Ответить на тему

Текущее время: 03-Дек 06:24

Часовой пояс: GMT + 4



Вы не можете начинать темы
Вы не можете отвечать на сообщения
Вы не можете редактировать свои сообщения
Вы не можете удалять свои сообщения
Вы не можете голосовать в опросах
Вы не можете прикреплять файлы к сообщениям
Вы не можете скачивать файлы