Ошибка

До окончания фрилича осталось:


(Discovery Channel) Сексуальная жизнь древних: Египет / Sex Lives of the Ancients: Egypt [2003 г., документальный, DVDRip]

Ответить на тему
 
Автор Сообщение

Captain

Пол: Пол:Муж

Стаж: 6 лет 6 месяцев

Сообщений: 932

Россия
Рейтинг

post 12-Фев-2011 19:53 0[+]

[Цитировать] 


Сексуальная жизнь древних: Египет
Sex Lives of the Ancients: Egypt

Год выпуска: 2003
Страна:
Жанр: Документальный фильм
Продолжительность: 00:44:53.440
Перевод: Профессиональный (многоголосый, закадровый)
Русские субтитры: нет
Режиссер:
    Гари Джонстоун (Gary Johnstone)

Описание: Из далеких эпох до нас дошли рассказы о любви и романтических приключениях богов и героев, властителей и простолюдинов. Теперь, благодаря открытиям антропологов и уникальным реконструкциям, мы можем узнать подробности яркой и необычной сексуальной жизни наших предков.
Издревле известно, что фараоны и царицы Древнего Египта утоляли свои сексуальные желания изощренно и с безудержной страстью. Легенды рисуют нам захватывающие сцены любви в чертогах роскошных дворцов. Но не только правители Египта были искусными любовниками. Эксперты обнаружили свидетельства того, что сексуальная лихорадка охватывала все сословия Древнего Египта.

Качество: DVDRip //источник DVD5//
Формат: AVI
Видео кодек: XviD
Аудио кодек: AC3
Видео: XviD, 1 786 Kbps, 720 x 432, 1.667, 25.000 fps
Аудио:
    AC-3, 2 channels, 2/0, 192 Kbps, 48.0 KHz, Russian
    AC-3, 2 channels, 2/0, 192 Kbps, 48.0 KHz, English
General
Complete name : C:\Времененное на раздачи по BitTorrent's сетям\Познавательные\Сексуальная жизнь древних - Египет.avi
Format : AVI
Format/Info : Audio Video Interleave
File size : 700 MiB
Duration : 44mn 53s
Overall bit rate : 2 180 Kbps
Writing application : VirtualDubMod 1.5.4.1 (build 2178/release)
Writing library : VirtualDubMod build 2178/release

Video
ID : 0
Format : MPEG-4 Visual
Format profile : Advanced Simple@L5
Format settings, BVOP : 1
Format settings, QPel : No
Format settings, GMC : No warppoints
Format settings, Matrix : Default (H.263)
Muxing mode : Packed bitstream
Codec ID : XVID
Codec ID/Hint : XviD
Duration : 44mn 53s
Bit rate : 1 786 Kbps
Width : 720 pixels
Height : 432 pixels
Display aspect ratio : 1.667
Frame rate : 25.000 fps
Color space : YUV
Chroma subsampling : 4:2:0
Bit depth : 8 bits
Scan type : Progressive
Compression mode : Lossy
Bits/(Pixel*Frame) : 0.230
Stream size : 573 MiB (82%)
Writing library : XviD 1.1.0 (UTC 2005-11-22)

Audio #1
ID : 1
Format : AC-3
Format/Info : Audio Coding 3
Mode extension : CM (complete main)
Codec ID : 2000
Duration : 44mn 53s
Bit rate mode : Constant
Bit rate : 192 Kbps
Channel(s) : 2 channels
Channel positions : Front: L R
Sampling rate : 48.0 KHz
Bit depth : 16 bits
Compression mode : Lossy
Stream size : 61.6 MiB (9%)
Alignment : Split accross interleaves
Interleave, duration : 80 ms (2.00 video frames)
Interleave, preload duration : 500 ms
Language : Russian

Audio #2
ID : 2
Format : AC-3
Format/Info : Audio Coding 3
Mode extension : CM (complete main)
Codec ID : 2000
Duration : 44mn 53s
Bit rate mode : Constant
Bit rate : 192 Kbps
Channel(s) : 2 channels
Channel positions : Front: L R
Sampling rate : 48.0 KHz
Bit depth : 16 bits
Compression mode : Lossy
Stream size : 61.6 MiB (9%)
Alignment : Split accross interleaves
Interleave, duration : 80 ms (2.00 video frames)
Interleave, preload duration : 500 ms
Language : English
Скачать видеосэмпл
info [Профиль]  [ЛС] 

post 12-Фев-2011 19:55 (спустя 1 минута) [-]0[+]

Топик был перенесен из форума Оформление раздач (Кинематограф) в форум Документальные фильмы и телепередачи

KWG
 
Показать сообщения:    
Ответить на тему

Текущее время: 10-Дек 18:50

Часовой пояс: GMT + 4



Вы не можете начинать темы
Вы не можете отвечать на сообщения
Вы не можете редактировать свои сообщения
Вы не можете удалять свои сообщения
Вы не можете голосовать в опросах
Вы не можете прикреплять файлы к сообщениям
Вы не можете скачивать файлы