Ошибка

До окончания фрилича осталось:


Донни Дарко / Donnie Darko (Ричард Келли / Richard Kelly) [2004 г., Триллер, драма, мистика, BDRip] (Режиссёрская версия / Director's cut) [720p / DVD5 / DXVA] MVO + Original + Sub (rus, eng)

Ответить на тему
 
Автор Сообщение

scvorec

Пол: Пол:Муж

Стаж: 6 лет 9 месяцев

Сообщений: 84

Россия
Рейтинг

post 26-Янв-2011 18:14 1[+]

[Цитировать] 

Донни Дарко / Donnie Darko


Год выпуска: 2004
Страна: США
Жанр: Триллер, драма, мистика
Продолжительность: 02:13:51
Перевод: Профессиональный (многоголосный, закадровый)
Субтитры: русские, английские
Режиссер: Ричард Келли / Richard Kelly
В ролях: Джейк Гилленхол, Холмс Осборн, Мэгги Гилленхол, Дейви Чейз, Мэри МакДоннелл, Дрю Бэрримор, Джеймс Дюволл, Артур Таксиер, Патрик Суэйзи, Марк Хоффман, Дэвид Ст. Джеймс.
Описание: К своим 16 годам старшеклассник Донни уже знает, что такое смерть. После несчастного случая, едва не стоившего ему жизни, Донни открывает в себе способности изменять время и судьбу. Перемены, случившиеся с ним, пугают всех, кто его окружает — родителей, сестер, учителей, друзей, любимую девушку.
Доп. информация:
IMDb: 8.30 (211 869) Top 250: #129
Бюджет: $6 000 000
Сборы в США: $1 270 522

Качество: BDRip
Формат: MKV
Видео кодек: х264
Аудио кодек: AC3
Видео: 1280x544, 23.976 fps, x264, 3709.42 kbit/s
Аудио1: Русский DD 5.1 48 KHz 448 kbps[MVO]
Аудио2: Английский DD 5.1 48 KHz 448 kbps[Original]
Субтитры №1: Russian; UTF-8
Субтитры №2: English; UTF-8

Video
ID : 1
Format : AVC
Format/Info : Advanced Video Codec
Format profile : High@L4.1
Format settings, CABAC : Yes
Format settings, ReFrames : 11 frames
Muxing mode : Container profile=Unknown@4.1
Codec ID : V_MPEG4/ISO/AVC
Duration : 2h 13mn
Bit rate : 3 620 Kbps
Width : 1 280 pixels
Height : 544 pixels
Display aspect ratio : 2.35:1
Frame rate : 23.976 fps
Color space : YUV
Chroma subsampling : 4:2:0
Bit depth : 8 bits
Scan type : Progressive
Bits/(Pixel*Frame) : 0.217
Stream size : 3.38 GiB (79%)
Title : Donnie Darko[Director's Cut]
Writing library : x264 core 105 r1732 2b04482
Encoding settings : cabac=1 / ref=11 / deblock=1:-2:-2 / analyse=0x3:0x133 / me=umh / subme=9 / psy=1 / psy_rd=1.10:0.00 / mixed_ref=1 / me_range=64 / chroma_me=1 / trellis=2 / 8x8dct=1 / cqm=0 / deadzone=21,11 / fast_pskip=0 / chroma_qp_offset=-2 / threads=9 / sliced_threads=0 / nr=0 / decimate=1 / interlaced=0 / constrained_intra=0 / bframes=16 / b_pyramid=2 / b_adapt=2 / b_bias=0 / direct=3 / weightb=1 / open_gop=0 / weightp=2 / keyint=250 / keyint_min=23 / scenecut=40 / intra_refresh=0 / rc_lookahead=60 / rc=crf / mbtree=0 / crf=18.0 / qcomp=0.60 / qpmin=10 / qpmax=51 / qpstep=4 / vbv_maxrate=50000 / vbv_bufsize=62500 / crf_max=0.0 / ip_ratio=1.40 / pb_ratio=1.30 / aq=1:1.10 / nal_hrd=none
Language : English
Color primaries : BT.709-5, BT.1361, IEC 61966-2-4, SMPTE RP177
Transfer characteristics : BT.709-5, BT.1361
Matrix coefficients : BT.709-5, BT.1361, IEC 61966-2-4 709, SMPTE RP177

Audio #1
ID : 2
Format : AC-3
Format/Info : Audio Coding 3
Mode extension : CM (complete main)
Codec ID : A_AC3
Duration : 2h 13mn
Bit rate mode : Constant
Bit rate : 448 Kbps
Channel(s) : 6 channels
Channel positions : Front: L C R, Side: L R, LFE
Sampling rate : 48.0 KHz
Bit depth : 16 bits
Stream size : 429 MiB (10%)
Title : DD 5.1 48 KHz 448 kbps[MVO]
Language : Russian

Audio #2
ID : 3
Format : AC-3
Format/Info : Audio Coding 3
Mode extension : CM (complete main)
Codec ID : A_AC3
Duration : 2h 13mn
Bit rate mode : Constant
Bit rate : 448 Kbps
Channel(s) : 6 channels
Channel positions : Front: L C R, Side: L R, LFE
Sampling rate : 48.0 KHz
Bit depth : 16 bits
Stream size : 429 MiB (10%)
Title : DD 5.1 48 KHz 448 kbps[Original]
Language : English

Text #1
ID : 4
Format : UTF-8
Codec ID : S_TEXT/UTF8
Codec ID/Info : UTF-8 Plain Text
Language : Russian

Text #2
ID : 5
Format : UTF-8
Codec ID : S_TEXT/UTF8
Codec ID/Info : UTF-8 Plain Text
Language : English
info [Профиль]  [ЛС] 

lost1994

Пол: Пол:Муж

Стаж: 6 лет 9 месяцев

Сообщений: 238

Россия
Рейтинг

post 28-Янв-2011 22:02 (спустя 2 дня 3 часа) [-]0[+]

[Цитировать] 

стОит качать? отпишитесь, кто смотрел))
info [Профиль]  [ЛС] 

SogeKing

Пол: Пол:Муж

Стаж: 6 лет 9 месяцев

Сообщений: 14

Россия
Рейтинг

post 28-Янв-2011 22:06 (спустя 3 минуты) [-]1[+]

[Цитировать] 

lost1994 писал(а):

стОит качать? отпишитесь, кто смотрел))
Этот фильм определённо стоит посмотреть
info [Профиль]  [ЛС] 

3den

Пол: Пол:Муж

Стаж: 7 лет 4 месяца

Сообщений: 225

Россия
Рейтинг

post 28-Янв-2011 22:45 (спустя 39 минут) [-]0[+]

[Цитировать] 

lost1994
обязательно. его надо не один раз смотреть
info [Профиль]  [ЛС] 

Симьйон

Пол: Пол:Муж

Стаж: 7 лет 1 месяц

Сообщений: 1474

Россия
Рейтинг

post 29-Янв-2011 00:11 (спустя 1 час 25 минут) [-]1[+]

[Цитировать] 

Очень трудный фильм для понимания. Абстракционизм на грани философии.
info [Профиль]  [ЛС] 

Aleks1994

Стаж: 6 лет 9 месяцев

Сообщений: 158

Россия
Рейтинг

post 07-Янв-2013 02:48 (спустя 1 год 11 месяцев) [-]1[+]

[Цитировать] 

Зацепил фильм, так и не смог понять чем, но оторваться не мог и просмотрел на одном дыхании что называется.
info [Профиль]  [ЛС] 

Fannich009

Пол: Пол:Муж

Стаж: 3 года 10 месяцев

Сообщений: 10

Россия
Рейтинг

post 25-Фев-2013 20:44 (спустя 1 месяц 18 дней) [-]1[+]

[Цитировать] 

смотрел давно уже. фильм стоящий однозначно! особенно режиссёрская версия. по моему был ещё этот же фильм, но глазами сестры главного героя. тоже класс!
info [Профиль]  [ЛС] 
Показать сообщения:    
Ответить на тему

Текущее время: 09-Дек 23:27

Часовой пояс: GMT + 4



Вы не можете начинать темы
Вы не можете отвечать на сообщения
Вы не можете редактировать свои сообщения
Вы не можете удалять свои сообщения
Вы не можете голосовать в опросах
Вы не можете прикреплять файлы к сообщениям
Вы не можете скачивать файлы