Ошибка

Скайлайн / Skyline (Колин Штраус, Грег Штраус) [2010 г., Фантастика, Триллер, DVD5 (сжатый)]

Ответить на тему
 
Автор Сообщение

falco

Пол: Пол:Муж

Стаж: 6 лет 1 месяц

Сообщений: 78

Австрия
Рейтинг

post 05-Дек-2010 20:43 0[+]

[Цитировать] 

Скайлайн
Skyline


Год выпуска: 2010
Страна: США, Black Monday Film Services / Hydraulx / Relativity Media
Жанр: Фантастика, Триллер
Продолжительность: 01:28:44
Перевод: Профессиональный (полное дублирование)[Лицензия]
Язык субтитров: Русские

Режиссер:
  • Колин Штраус, Грег Штраус


В ролях:
  • Эрик Бальфур, Скотти Томпсон, Дэвид Зайас, Дональд Фэйсон, Бриттани Дэниэл, Кристал Рид, Нил Хопкинс, Дж. Пол Бомер, Таня Ньюболд, Пэм Левин


Описание: После вечеринки компания друзей просыпается от того, что в окно ударяет яркий свет. Они видят, как людей на улице затягивает в столп света и они поднимаются куда-то вверх. Вскоре после этого на планете начинается зачистка оставшихся людей. Выжившим предстоит бороться за жизнь с инопланетными тварями.

| |


Качество: DVD5 (сжатый)
Формат: DVD Video
Видео кодек: MPEG2
Аудио кодек: AC3
Видео: 720x576,MPEG Video,25,000 кадр/сек,5987 Кбит/сек
Аудио: Dolby AC3, 6 ch, 448 Кбит/сек, 48,0 КГц - Русский Дублированный
Аудио 2: Dolby AC3, 6 ch, 448 Кбит/сек, 48,0 КГц - Английский Оригинал
Релиз Группа:
Сделано из DVD9. Удалены все допы, кроме "Создатели и Исполнители", удалена русская дорожка DTS, ничего Не сжималось. Использованный софт: DVDRemake, Photoshop, Muxman.
General
Complete name : E:\Skyline_2010_DVD5\VIDEO_TS\VTS_02_1.VOB
Format : MPEG-PS
File size : 1 024 MiB
Duration : 20mn 23s
Overall bit rate : 7 022 Kbps

Video
ID : 224 (0xE0)
Format : MPEG Video
Format version : Version 2
Format profile : Main@Main
Format settings, BVOP : Yes
Format settings, Matrix : Default
Duration : 20mn 23s
Bit rate mode : Variable
Bit rate : 5 987 Kbps
Nominal bit rate : 8 000 Kbps
Width : 720 pixels
Height : 576 pixels
Display aspect ratio : 4:3
Frame rate : 25.000 fps
Standard : PAL
Color space : YUV
Chroma subsampling : 4:2:0
Bit depth : 8 bits
Scan type : Interlaced
Scan order : Top Field First
Bits/(Pixel*Frame) : 0.577
Stream size : 873 MiB (85%)

Audio #1
ID : 128 (0x80)
Format : AC-3
Format/Info : Audio Coding 3
Mode extension : CM (complete main)
Duration : 20mn 22s
Bit rate mode : Constant
Bit rate : 448 Kbps
Channel(s) : 6 channels
Channel positions : Front: L C R, Side: L R, LFE
Sampling rate : 48.0 KHz
Stream size : 65.3 MiB (6%)

Audio #2
ID : 129 (0x81)
Format : AC-3
Format/Info : Audio Coding 3
Mode extension : CM (complete main)
Duration : 20mn 22s
Bit rate mode : Constant
Bit rate : 448 Kbps
Channel(s) : 6 channels
Channel positions : Front: L C R, Side: L R, LFE
Sampling rate : 48.0 KHz
Stream size : 65.3 MiB (6%)

Text
ID : 32 (0x20)
Format : RLE
Format/Info : Run-length encoding

Menu
info [Профиль]  [ЛС] 

Andrey919

Пол: Пол:Муж

Стаж: 6 лет 7 месяцев

Сообщений: 1

Россия
Рейтинг

post 05-Дек-2010 22:00 (спустя 1 час 17 минут) [-]1[+]

[Цитировать] 

как понять с жатый
info [Профиль]  [ЛС] 

vadyuha47

Пол: Пол:Муж

Стаж: 6 лет 9 месяцев

Сообщений: 95

Украина
Рейтинг

post 05-Дек-2010 22:05 (спустя 4 минуты) [-]1[+]

[Цитировать] 

Цитата:

как понять с жатый
ну чтоб на болванку влез

_________________
info [Профиль]  [ЛС] 

falco

Пол: Пол:Муж

Стаж: 6 лет 1 месяц

Сообщений: 78

Австрия
Рейтинг

post 05-Дек-2010 22:28 (спустя 23 минуты) [-]1[+]

[Цитировать] 

Andrey919 писал(а):

как понять с жатый
Сделано из DVD9. Удалены все допы, кроме "Создатели и Исполнители", удалена русская дорожка DTS, Видео Не сжималось. Использованный софт: DVDRemake, Photoshop, Muxman.
info [Профиль]  [ЛС] 

ziglee

Пол: Пол:Муж

Стаж: 7 лет 7 месяцев

Сообщений: 88

Россия
Рейтинг

post 05-Дек-2010 23:18 (спустя 49 минут) [-]0[+]

[Цитировать] 

как фильм? стоит качать?
info [Профиль]  [ЛС] 

romero3331

Пол: Пол:Муж

Стаж: 7 лет 4 месяца

Сообщений: 7

Рейтинг

post 06-Дек-2010 00:15 (спустя 57 минут) [-]0[+]

[Цитировать] 

Фильмец БОМБА! Для любителей фантастики.
info [Профиль]  [ЛС] 

orkstyle

Пол: Пол:Муж

Стаж: 7 лет 7 месяцев

Сообщений: 67

Россия
Рейтинг

post 06-Дек-2010 00:54 (спустя 38 минут) [-]0[+]

[Цитировать] 

Нормалёк фильм. С таким бюджетом сняли вполне качественный экшен-фантастика.
info [Профиль]  [ЛС] 

fenixman

Пол: Пол:Муж

Стаж: 6 лет

Сообщений: 5

Гондурас
Рейтинг

post 06-Дек-2010 10:33 (спустя 9 часов) [-]0[+]

[Цитировать] 

В кино не успел сгонять, но говорили неплохой фильмец. Качаю, посмотрим
info [Профиль]  [ЛС] 

Allexeika

Пол: Пол:Муж

Стаж: 7 лет 1 месяц

Сообщений: 33

Россия
Рейтинг

post 06-Дек-2010 11:48 (спустя 1 час 15 минут) [-]0[+]

[Цитировать] 

Фильм бредовый, незаконченый, район №9 и аватар в разы лучше, незнаю что в нем нашли интересного...

_________________
info [Профиль]  [ЛС] 

AleksG1975

Пол: Пол:Муж

Стаж: 6 лет 8 месяцев

Сообщений: 88

Украина
Рейтинг

post 06-Дек-2010 23:05 (спустя 11 часов) [-]0[+]

[Цитировать] 

... Просто развлечься Улыбаюсь

_________________
Aleks-G1975@yandex.com
info [Профиль]  [ЛС] 
Показать сообщения:    
Ответить на тему

Текущее время: 02-Дек 22:05

Часовой пояс: GMT + 4



Вы не можете начинать темы
Вы не можете отвечать на сообщения
Вы не можете редактировать свои сообщения
Вы не можете удалять свои сообщения
Вы не можете голосовать в опросах
Вы не можете прикреплять файлы к сообщениям
Вы не можете скачивать файлы