Ошибка

(Punk) Rancid - Дискография - 1992-2009, FLAC (tracks), lossless

Ответить на тему
 
Автор Сообщение

taizer004

Пол: Пол:Муж

Стаж: 6 лет 7 месяцев

Сообщений: 5

Россия
Рейтинг

post 20-Ноя-2010 22:47 0[+]

[Цитировать] 

Rancid - Дискография

pic="http://s001.youpic.su/pictures/1290103200/ddc92645b3389fd9a5fc7265ee66097c.jpg"
Жанр: Punk
Год издания данного носителя: 1992-2009
Страна-производитель носителя: USA
Тип релиза: tracks+.cue
Аудио кодек: FLAC
Битрейт аудио: lossless
Продолжительность: 08:20:13

01 - The Sentence
02 - I'm Not The Only One
03 - To Hell
04 - Media Controller
05 - Battering Ram
06 - Idle Hands
07 - Unwritten Rules
08 - Trenches
09 - Opposition
10 - Inhalation
11 - Animosity
12 - Borderline
13 - Rats In The Hallway
14 - Institution
15 - Moonlight
16 - Situation
17 - Whirlwind
18 - Bad Policeman
19 - Trenches
20 - Unwritten Rules
21 - Take You
22 - The Line
23 - Burn The City Down

Код:

EAC extraction logfile from 13. August 2007, 20:03 for CD
Rancid / Give 'Em The Boot

Used drive : _NEC DVD_RW ND-2510A Adapter: 1 ID: 0
Read mode : Secure with NO C2, accurate stream, disable cache
Read offset correction : 48
Overread into Lead-In and Lead-Out : No

Used output format : Internal WAV Routines
44.100 Hz; 16 Bit; Stereo

Other options :
Fill up missing offset samples with silence : Yes
Delete leading and trailing silent blocks : No
Installed external ASPI interface

Track 1
Filename I:\Rancid - Give 'Em The Boot\01 - The Sentence.wav

Pre-gap length 0:00:02.32

Peak level 70.9 %
Track quality 100.0 %
Test CRC FDB94022
Copy CRC FDB94022
Copy OK

Track 2
Filename I:\Rancid - Give 'Em The Boot\02 - I'm Not the Only One.wav

Pre-gap length 0:00:01.73

Peak level 71.0 %
Track quality 100.0 %
Test CRC 60D9DD78
Copy CRC 60D9DD78
Copy OK

Track 3
Filename I:\Rancid - Give 'Em The Boot\03 - To Hell.wav

Pre-gap length 0:00:02.23

Peak level 62.8 %
Track quality 100.0 %
Test CRC BCDD2D12
Copy CRC BCDD2D12
Copy OK

Track 4
Filename I:\Rancid - Give 'Em The Boot\04 - Media Controller.wav

Pre-gap length 0:00:02.20

Peak level 65.0 %
Track quality 100.0 %
Test CRC E4173198
Copy CRC E4173198
Copy OK

Track 5
Filename I:\Rancid - Give 'Em The Boot\05 - Battering Ram.wav

Pre-gap length 0:00:02.02

Peak level 74.6 %
Track quality 99.9 %
Test CRC 9D620AB5
Copy CRC 9D620AB5
Copy OK

Track 6
Filename I:\Rancid - Give 'Em The Boot\06 - Idle Hands.wav

Pre-gap length 0:00:01.72

Peak level 74.1 %
Track quality 100.0 %
Test CRC 7E14711A
Copy CRC 7E14711A
Copy OK

Track 7
Filename I:\Rancid - Give 'Em The Boot\07 - Unwritten Rules.wav

Pre-gap length 0:00:01.72

Peak level 78.7 %
Track quality 100.0 %
Test CRC E0B10905
Copy CRC E0B10905
Copy OK

Track 8
Filename I:\Rancid - Give 'Em The Boot\08 - Trenches.wav

Pre-gap length 0:00:02.20

Peak level 73.3 %
Track quality 100.0 %
Test CRC DEC01575
Copy CRC DEC01575
Copy OK

Track 9
Filename I:\Rancid - Give 'Em The Boot\09 - Opposition.wav

Pre-gap length 0:00:01.53

Peak level 81.4 %
Track quality 100.0 %
Test CRC 66878254
Copy CRC 66878254
Copy OK

Track 10
Filename I:\Rancid - Give 'Em The Boot\10 - Inhalation.wav

Pre-gap length 0:00:01.65

Peak level 66.6 %
Track quality 100.0 %
Test CRC F610C343
Copy CRC F610C343
Copy OK

Track 11
Filename I:\Rancid - Give 'Em The Boot\11 - Animosity.wav

Pre-gap length 0:00:03.68

Peak level 72.8 %
Track quality 99.9 %
Test CRC 0A33D4E5
Copy CRC 0A33D4E5
Copy OK

Track 12
Filename I:\Rancid - Give 'Em The Boot\12 - Borderline.wav

Pre-gap length 0:00:02.42

Peak level 73.6 %
Track quality 100.0 %
Test CRC 1C383292
Copy CRC 1C383292
Copy OK

Track 13
Filename I:\Rancid - Give 'Em The Boot\13 - Rats in the Hallway.wav

Pre-gap length 0:00:01.42

Peak level 89.5 %
Track quality 100.0 %
Test CRC C60FCB9C
Copy CRC C60FCB9C
Copy OK

Track 14
Filename I:\Rancid - Give 'Em The Boot\14 - Institution.wav

Pre-gap length 0:00:02.28

Peak level 80.1 %
Track quality 100.0 %
Test CRC 48CD358A
Copy CRC 48CD358A
Copy OK

Track 15
Filename I:\Rancid - Give 'Em The Boot\15 - Moonlight.wav

Pre-gap length 0:00:02.57

Peak level 67.5 %
Track quality 100.0 %
Test CRC DC30E3FA
Copy CRC DC30E3FA
Copy OK

Track 16
Filename I:\Rancid - Give 'Em The Boot\16 - Situation.wav

Pre-gap length 0:00:02.60

Peak level 81.5 %
Track quality 100.0 %
Test CRC 70D4F66A
Copy CRC 70D4F66A
Copy OK

Track 17
Filename I:\Rancid - Give 'Em The Boot\17 - Whirlwind.wav

Pre-gap length 0:00:01.65

Peak level 78.7 %
Track quality 100.0 %
Test CRC 8F007E5D
Copy CRC 8F007E5D
Copy OK

Track 18
Filename I:\Rancid - Give 'Em The Boot\18 - Bad Policeman.wav

Pre-gap length 0:00:02.23

Peak level 65.2 %
Track quality 100.0 %
Test CRC 8FB5EAC6
Copy CRC 8FB5EAC6
Copy OK

Track 19
Filename I:\Rancid - Give 'Em The Boot\19 - Trenches.wav

Pre-gap length 0:00:01.05

Peak level 68.1 %
Track quality 99.9 %
Test CRC 9271908D
Copy CRC 9271908D
Copy OK

Track 20
Filename I:\Rancid - Give 'Em The Boot\20 - Unwritten Rules.wav

Pre-gap length 0:00:01.58

Peak level 60.8 %
Track quality 100.0 %
Test CRC 56E7537A
Copy CRC 56E7537A
Copy OK

Track 21
Filename I:\Rancid - Give 'Em The Boot\21 - Take You.wav

Pre-gap length 0:00:02.50

Peak level 64.0 %
Track quality 100.0 %
Test CRC 28196754
Copy CRC 28196754
Copy OK

Track 22
Filename I:\Rancid - Give 'Em The Boot\22 - The Line.wav

Pre-gap length 0:00:02.30

Peak level 57.6 %
Track quality 99.9 %
Test CRC F513AC1D
Copy CRC F513AC1D
Copy OK

Track 23
Filename I:\Rancid - Give 'Em The Boot\23 - Burn the City Down.wav

Pre-gap length 0:00:02.35

Peak level 63.0 %
Track quality 100.0 %
Test CRC 1A2FE43C
Copy CRC 1A2FE43C
Copy OK

No errors occured

End of status report

Код:

 
PERFORMER "Rancid"
TITLE "Give 'Em The Boot"
FILE "01 - The Sentence.wav" WAVE
  TRACK 01 AUDIO
    TITLE "The Sentence"
    PERFORMER "Rancid"
    INDEX 01 00:00:00
  TRACK 02 AUDIO
    TITLE "I'm Not the Only One"
    PERFORMER "Rancid"
    INDEX 00 01:39:60
FILE "02 - I'm Not the Only One.wav" WAVE
    INDEX 01 00:00:00
  TRACK 03 AUDIO
    TITLE "To Hell"
    PERFORMER "Rancid"
    INDEX 00 02:47:57
FILE "03 - To Hell.wav" WAVE
    INDEX 01 00:00:00
  TRACK 04 AUDIO
    TITLE "Media Controller"
    PERFORMER "Rancid"
    INDEX 00 01:59:37
FILE "04 - Media Controller.wav" WAVE
    INDEX 01 00:00:00
  TRACK 05 AUDIO
    TITLE "Battering Ram"
    PERFORMER "Rancid"
    INDEX 00 01:58:53
FILE "05 - Battering Ram.wav" WAVE
    INDEX 01 00:00:00
  TRACK 06 AUDIO
    TITLE "Idle Hands"
    PERFORMER "Rancid"
    INDEX 00 02:59:73
FILE "06 - Idle Hands.wav" WAVE
    INDEX 01 00:00:00
  TRACK 07 AUDIO
    TITLE "Unwritten Rules"
    PERFORMER "Rancid"
    INDEX 00 02:04:48
FILE "07 - Unwritten Rules.wav" WAVE
    INDEX 01 00:00:00
  TRACK 08 AUDIO
    TITLE "Trenches"
    PERFORMER "Rancid"
    INDEX 00 02:15:23
FILE "08 - Trenches.wav" WAVE
    INDEX 01 00:00:00
  TRACK 09 AUDIO
    TITLE "Opposition"
    PERFORMER "Rancid"
    INDEX 00 02:25:42
FILE "09 - Opposition.wav" WAVE
    INDEX 01 00:00:00
  TRACK 10 AUDIO
    TITLE "Inhalation"
    PERFORMER "Rancid"
    INDEX 00 02:47:37
FILE "10 - Inhalation.wav" WAVE
    INDEX 01 00:00:00
  TRACK 11 AUDIO
    TITLE "Animosity"
    PERFORMER "Rancid"
    INDEX 00 01:42:70
FILE "11 - Animosity.wav" WAVE
    INDEX 01 00:00:00
  TRACK 12 AUDIO
    TITLE "Borderline"
    PERFORMER "Rancid"
    INDEX 00 02:39:35
FILE "12 - Borderline.wav" WAVE
    INDEX 01 00:00:00
  TRACK 13 AUDIO
    TITLE "Rats in the Hallway"
    PERFORMER "Rancid"
    INDEX 00 02:08:58
FILE "13 - Rats in the Hallway.wav" WAVE
    INDEX 01 00:00:00
  TRACK 14 AUDIO
    TITLE "Institution"
    PERFORMER "Rancid"
    INDEX 00 02:32:20
FILE "14 - Institution.wav" WAVE
    INDEX 01 00:00:00
  TRACK 15 AUDIO
    TITLE "Moonlight"
    PERFORMER "Rancid"
    INDEX 00 02:15:45
FILE "15 - Moonlight.wav" WAVE
    INDEX 01 00:00:00
  TRACK 16 AUDIO
    TITLE "Situation"
    PERFORMER "Rancid"
    INDEX 00 01:42:28
FILE "16 - Situation.wav" WAVE
    INDEX 01 00:00:00
  TRACK 17 AUDIO
    TITLE "Whirlwind"
    PERFORMER "Rancid"
    INDEX 00 02:06:10
FILE "17 - Whirlwind.wav" WAVE
    INDEX 01 00:00:00
  TRACK 18 AUDIO
    TITLE "Bad Policeman"
    PERFORMER "Rancid"
    INDEX 00 02:19:17
FILE "18 - Bad Policeman.wav" WAVE
    INDEX 01 00:00:00
  TRACK 19 AUDIO
    TITLE "Trenches"
    PERFORMER "Rancid"
    INDEX 00 02:18:17
FILE "19 - Trenches.wav" WAVE
    INDEX 01 00:00:00
  TRACK 20 AUDIO
    TITLE "Unwritten Rules"
    PERFORMER "Rancid"
    INDEX 00 02:12:00
FILE "20 - Unwritten Rules.wav" WAVE
    INDEX 01 00:00:00
  TRACK 21 AUDIO
    TITLE "Take You"
    PERFORMER "Rancid"
    INDEX 00 01:49:35
FILE "21 - Take You.wav" WAVE
    INDEX 01 00:00:00
  TRACK 22 AUDIO
    TITLE "The Line"
    PERFORMER "Rancid"
    INDEX 00 02:16:02
FILE "22 - The Line.wav" WAVE
    INDEX 01 00:00:00
  TRACK 23 AUDIO
    TITLE "Burn the City Down"
    PERFORMER "Rancid"
    INDEX 00 02:05:25
FILE "23 - Burn the City Down.wav" WAVE
    INDEX 01 00:00:00
A1 - I'm Not The Only One
A2 - Battering Ram
B1 - The Sentence
B2 - Media Controller
B3 - Idle Hands

Код:

AUDIOCHECKER v1.2 - by Dester - opdester@freemail.hu
~~~~~~~~~~~~~~~~~

1 -===- J:\Rancid\1992 - Rancid (7 Inch)\A1 - I'm Not The Only One.flac
Extracted successfully
Conclusion: This track looks like CDDA with probability 100%

2 -===- J:\Rancid\1992 - Rancid (7 Inch)\A2 - Battering Ram.flac
Extracted successfully
Conclusion: This track looks like CDDA with probability 100%

3 -===- J:\Rancid\1992 - Rancid (7 Inch)\B1 - The Sentence.flac
Extracted successfully
Conclusion: This track looks like CDDA with probability 99%

4 -===- J:\Rancid\1992 - Rancid (7 Inch)\B2 - Media Controller.flac
Extracted successfully
Conclusion: This track looks like CDDA with probability 100%

5 -===- J:\Rancid\1992 - Rancid (7 Inch)\B3 - Idle Hands.flac
Extracted successfully
Conclusion: This track looks like CDDA with probability 100% 
01. Adina
02. Hyena
03. Detroit
04. Rats In The Hallway
05. Another Night
06. Animosity
07. Outta My Mind
08. Whirlwind
09. Rejected
10. Injury
11. The Bottle
12. Trenches
13. Holiday Sunrise
14. Unwritten Rules
15. Situation
16. Get Out Of My Way

Код:

AUDIOCHECKER v1.2 - by Dester - opdester@freemail.hu
~~~~~~~~~~~~~~~~~

01 -===- J:\Rancid\1993 - Rancid (1993)\01 - Adina.flac
Extracted successfully
Conclusion: This track looks like CDDA with probability 100%

02 -===- J:\Rancid\1993 - Rancid (1993)\02 - Hyena.flac
Extracted successfully
Conclusion: This track looks like CDDA with probability 100%

03 -===- J:\Rancid\1993 - Rancid (1993)\03 - Detriot.flac
Extracted successfully
Conclusion: This track looks like CDDA with probability 100%

04 -===- J:\Rancid\1993 - Rancid (1993)\04 - Rats In The Hallway.flac
Extracted successfully
Conclusion: This track looks like CDDA with probability 100%

05 -===- J:\Rancid\1993 - Rancid (1993)\05 - Another Night.flac
Extracted successfully
Conclusion: This track looks like CDDA with probability 100%

06 -===- J:\Rancid\1993 - Rancid (1993)\06 - Animosity.flac
Extracted successfully
Conclusion: This track looks like CDDA with probability 100%

07 -===- J:\Rancid\1993 - Rancid (1993)\07 - Outta My Mind.flac
Extracted successfully
Conclusion: This track looks like CDDA with probability 100%

08 -===- J:\Rancid\1993 - Rancid (1993)\08 - Whirlwind.flac
Extracted successfully
Conclusion: This track looks like CDDA with probability 100%

09 -===- J:\Rancid\1993 - Rancid (1993)\09 - Rejected.flac
Extracted successfully
Conclusion: This track looks like CDDA with probability 99%

10 -===- J:\Rancid\1993 - Rancid (1993)\10 - Injury.flac
Extracted successfully
Conclusion: This track looks like CDDA with probability 99%

11 -===- J:\Rancid\1993 - Rancid (1993)\11 - The Bottle.flac
Extracted successfully
Conclusion: This track looks like CDDA with probability 100%

12 -===- J:\Rancid\1993 - Rancid (1993)\12 - Trenches.flac
Extracted successfully
Conclusion: This track looks like CDDA with probability 99%

13 -===- J:\Rancid\1993 - Rancid (1993)\13 - Holiday Sunrise.flac
Extracted successfully
Conclusion: This track looks like CDDA with probability 100%

14 -===- J:\Rancid\1993 - Rancid (1993)\14 - Unwritten Rules.flac
Extracted successfully
Conclusion: This track looks like CDDA with probability 100%

15 -===- J:\Rancid\1993 - Rancid (1993)\15 - Union Blood.flac
Extracted successfully
Conclusion: This track looks like CDDA with probability 100%

16 -===- J:\Rancid\1993 - Rancid (1993)\16 - Get Out Of My Way.flac
Extracted successfully
Conclusion: This track looks like CDDA with probability 100% 
01. Nihilism
02. Radio
03. Sidekick
04. Salvation
05. Tenderloin
06. Let's Go
07. As One
08. Burn
09. The Ballad Of Jimmy & Johnny
10. Gunshot
11. I Am The One
12. Gave It Away
13. Ghetto Box
14. Harry Bridges
15. Black & Blue
16. St. Mary
17. Dope Sick Girl
18. International Cover-up
19. Solidarity
20. Midnight
21. Motorcycle Ride
22. Name
23. 7 Years Down

Код:

AUDIOCHECKER v1.2 - by Dester - opdester@freemail.hu
~~~~~~~~~~~~~~~~~

01 -===- J:\Rancid\1994 - Let's Go\01 - Nihilism.flac
  Extracted successfully
  Conclusion: This track looks like CDDA with probability 100%

02 -===- J:\Rancid\1994 - Let's Go\02 - Radio.flac
  Extracted successfully
  Conclusion: This track looks like CDDA with probability 99%

03 -===- J:\Rancid\1994 - Let's Go\03 - Side Kick.flac
  Extracted successfully
  Conclusion: This track looks like CDDA with probability 100%

04 -===- J:\Rancid\1994 - Let's Go\04 - Salvation.flac
  Extracted successfully
  Conclusion: This track looks like CDDA with probability 100%

05 -===- J:\Rancid\1994 - Let's Go\05 - Tenderloin.flac
  Extracted successfully
  Conclusion: This track looks like CDDA with probability 99%

06 -===- J:\Rancid\1994 - Let's Go\06 - Let's Go.flac
  Extracted successfully
  Conclusion: This track looks like CDDA with probability 100%

07 -===- J:\Rancid\1994 - Let's Go\07 - As One.flac
  Extracted successfully
  Conclusion: This track looks like CDDA with probability 100%

08 -===- J:\Rancid\1994 - Let's Go\08 - Burn.flac
  Extracted successfully
  Conclusion: This track looks like CDDA with probability 100%

09 -===- J:\Rancid\1994 - Let's Go\09 - The Ballad Of Jimmy And Johnny.flac
  Extracted successfully
  Conclusion: This track looks like CDDA with probability 100%

10 -===- J:\Rancid\1994 - Let's Go\10 - Gunshot.flac
  Extracted successfully
  Conclusion: This track looks like CDDA with probability 99%

11 -===- J:\Rancid\1994 - Let's Go\11 - I Am The One.flac
  Extracted successfully
  Conclusion: This track looks like CDDA with probability 99%

12 -===- J:\Rancid\1994 - Let's Go\12 - Gave It Away.flac
  Extracted successfully
  Conclusion: This track looks like CDDA with probability 100%

13 -===- J:\Rancid\1994 - Let's Go\13 - Ghetto Box.flac
  Extracted successfully
  Conclusion: This track looks like CDDA with probability 100%

14 -===- J:\Rancid\1994 - Let's Go\14 - Harry Bridges.flac
  Extracted successfully
  Conclusion: This track looks like CDDA with probability 99%

15 -===- J:\Rancid\1994 - Let's Go\15 - Black And Blue.flac
  Extracted successfully
  Conclusion: This track looks like CDDA with probability 99%

16 -===- J:\Rancid\1994 - Let's Go\16 - St. Mary.flac
  Extracted successfully
  Conclusion: This track looks like CDDA with probability 100%

17 -===- J:\Rancid\1994 - Let's Go\17 - Dope Sick Girl.flac
  Extracted successfully
  Conclusion: This track looks like CDDA with probability 100%

18 -===- J:\Rancid\1994 - Let's Go\18 - International Cover-up.flac
  Extracted successfully
  Conclusion: This track looks like CDDA with probability 100%

19 -===- J:\Rancid\1994 - Let's Go\19 - Solidarity.flac
  Extracted successfully
  Conclusion: This track looks like CDDA with probability 100%

20 -===- J:\Rancid\1994 - Let's Go\20 - Midnight.flac
  Extracted successfully
  Conclusion: This track looks like CDDA with probability 100%

21 -===- J:\Rancid\1994 - Let's Go\21 - Motorcycle Ride.flac
  Extracted successfully
  Conclusion: This track looks like CDDA with probability 100%

22 -===- J:\Rancid\1994 - Let's Go\22 - Name.flac
  Extracted successfully
  Conclusion: This track looks like CDDA with probability 100%

23 -===- J:\Rancid\1994 - Let's Go\23 - 7 Years Down.flac
  Extracted successfully
  Conclusion: This track looks like CDDA with probability 99%

Код:

EAC extraction logfile from 19. November 2007, 19:43 for CD
Rancid / Let's Go

Used drive : PIONEER DVD-RW DVR-111D Adapter: 0 ID: 0
Read mode : Secure with NO C2, accurate stream, disable cache
Read offset correction : 48
Overread into Lead-In and Lead-Out : No

Used output format : Internal WAV Routines
44.100 Hz; 16 Bit; Stereo

Other options :
Fill up missing offset samples with silence : Yes
Delete leading and trailing silent blocks : No
Native Win32 interface for Win NT & 2000

Track 1
Filename C:\Documents and Settings\Joseph\Desktop\Rancid\Let's Go\01 - Nihilism.wav

Pre-gap length 0:00:02.00

Peak level 97.7 %
Track quality 100.0 %
Test CRC 37DC9A33
Copy CRC 37DC9A33
Copy OK

Track 2
Filename C:\Documents and Settings\Joseph\Desktop\Rancid\Let's Go\02 - Radio.wav

Peak level 97.3 %
Track quality 99.9 %
Test CRC 1B67F3DF
Copy CRC 1B67F3DF
Copy OK

Track 3
Filename C:\Documents and Settings\Joseph\Desktop\Rancid\Let's Go\03 - Side Kick.wav

Peak level 97.7 %
Track quality 100.0 %
Test CRC F0DB1AAE
Copy CRC F0DB1AAE
Copy OK

Track 4
Filename C:\Documents and Settings\Joseph\Desktop\Rancid\Let's Go\04 - Salvation.wav

Peak level 97.7 %
Track quality 99.9 %
Test CRC 4FB9ECA3
Copy CRC 4FB9ECA3
Copy OK

Track 5
Filename C:\Documents and Settings\Joseph\Desktop\Rancid\Let's Go\05 - Tenderloin.wav

Peak level 94.8 %
Track quality 100.0 %
Test CRC 4F01B74A
Copy CRC 4F01B74A
Copy OK

Track 6
Filename C:\Documents and Settings\Joseph\Desktop\Rancid\Let's Go\06 - Let's Go.wav

Peak level 97.5 %
Track quality 100.0 %
Test CRC 2EBD6025
Copy CRC 2EBD6025
Copy OK

Track 7
Filename C:\Documents and Settings\Joseph\Desktop\Rancid\Let's Go\07 - As One.wav

Peak level 100.0 %
Track quality 100.0 %
Test CRC 7AD284FD
Copy CRC 7AD284FD
Copy OK

Track 8
Filename C:\Documents and Settings\Joseph\Desktop\Rancid\Let's Go\08 - Burn.wav

Peak level 97.7 %
Track quality 100.0 %
Test CRC ABED1E30
Copy CRC ABED1E30
Copy OK

Track 9
Filename C:\Documents and Settings\Joseph\Desktop\Rancid\Let's Go\09 - The Ballad Of Jimmy And Johnny.wav

Peak level 93.7 %
Track quality 100.0 %
Test CRC 4187AB6F
Copy CRC 4187AB6F
Copy OK

Track 10
Filename C:\Documents and Settings\Joseph\Desktop\Rancid\Let's Go\10 - Gunshot.wav

Peak level 97.7 %
Track quality 100.0 %
Test CRC FAF7AAEB
Copy CRC FAF7AAEB
Copy OK

Track 11
Filename C:\Documents and Settings\Joseph\Desktop\Rancid\Let's Go\11 - I Am The One.wav

Peak level 96.9 %
Track quality 99.9 %
Test CRC AEA8BDED
Copy CRC AEA8BDED
Copy OK

Track 12
Filename C:\Documents and Settings\Joseph\Desktop\Rancid\Let's Go\12 - Gave It Away.wav

Peak level 96.8 %
Track quality 100.0 %
Test CRC 1C95AE39
Copy CRC 1C95AE39
Copy OK

Track 13
Filename C:\Documents and Settings\Joseph\Desktop\Rancid\Let's Go\13 - Ghetto Box.wav

Peak level 94.3 %
Track quality 100.0 %
Test CRC 43F5E03C
Copy CRC 43F5E03C
Copy OK

Track 14
Filename C:\Documents and Settings\Joseph\Desktop\Rancid\Let's Go\14 - Harry Bridges.wav

Peak level 97.7 %
Track quality 100.0 %
Test CRC 4DECC20A
Copy CRC 4DECC20A
Copy OK

Track 15
Filename C:\Documents and Settings\Joseph\Desktop\Rancid\Let's Go\15 - Black And Blue.wav

Peak level 96.2 %
Track quality 100.0 %
Test CRC 741281F8
Copy CRC 741281F8
Copy OK

Track 16
Filename C:\Documents and Settings\Joseph\Desktop\Rancid\Let's Go\16 - St. Mary.wav

Peak level 96.6 %
Track quality 100.0 %
Test CRC 9408B4F8
Copy CRC 9408B4F8
Copy OK

Track 17
Filename C:\Documents and Settings\Joseph\Desktop\Rancid\Let's Go\17 - Dope Sick Girl.wav

Peak level 97.7 %
Track quality 100.0 %
Test CRC 6C79D1E3
Copy CRC 6C79D1E3
Copy OK

Track 18
Filename C:\Documents and Settings\Joseph\Desktop\Rancid\Let's Go\18 - International Cover-up.wav

Peak level 97.7 %
Track quality 100.0 %
Test CRC 86109822
Copy CRC 86109822
Copy OK

Track 19
Filename C:\Documents and Settings\Joseph\Desktop\Rancid\Let's Go\19 - Solidarity.wav

Peak level 97.7 %
Track quality 100.0 %
Test CRC 417A1B3A
Copy CRC 417A1B3A
Copy OK

Track 20
Filename C:\Documents and Settings\Joseph\Desktop\Rancid\Let's Go\20 - Midnight.wav

Peak level 97.7 %
Track quality 100.0 %
Test CRC 1A8E5D5A
Copy CRC 1A8E5D5A
Copy OK

Track 21
Filename C:\Documents and Settings\Joseph\Desktop\Rancid\Let's Go\21 - Motorcycle Ride.wav

Peak level 97.7 %
Track quality 100.0 %
Test CRC 511BF115
Copy CRC 511BF115
Copy OK

Track 22
Filename C:\Documents and Settings\Joseph\Desktop\Rancid\Let's Go\22 - Name.wav

Peak level 97.5 %
Track quality 100.0 %
Test CRC CA390CB7
Copy CRC CA390CB7
Copy OK

Track 23
Filename C:\Documents and Settings\Joseph\Desktop\Rancid\Let's Go\23 - 7 Years Down.wav

Peak level 97.7 %
Track quality 100.0 %
Test CRC 88134D72
Copy CRC 88134D72
Copy OK

No errors occured

End of status report

Код:

 
REM GENRE "Epitaph Records"
REM DATE 1994
REM DISCID 430A6617
REM COMMENT "ExactAudioCopy v0.95b4"
PERFORMER "Rancid"
TITLE "Let's Go"
FILE "Rancid\Let's Go\01 - Nihilism.wav" WAVE
  TRACK 01 AUDIO
    TITLE "Nihilism"
    PERFORMER "Rancid"
    INDEX 01 00:00:00
FILE "Rancid\Let's Go\02 - Radio.wav" WAVE
  TRACK 02 AUDIO
    TITLE "Radio"
    PERFORMER "Rancid"
    INDEX 01 00:00:00
FILE "Rancid\Let's Go\03 - Side Kick.wav" WAVE
  TRACK 03 AUDIO
    TITLE "Side Kick"
    PERFORMER "Rancid"
    INDEX 01 00:00:00
FILE "Rancid\Let's Go\04 - Salvation.wav" WAVE
  TRACK 04 AUDIO
    TITLE "Salvation"
    PERFORMER "Rancid"
    INDEX 01 00:00:00
FILE "Rancid\Let's Go\05 - Tenderloin.wav" WAVE
  TRACK 05 AUDIO
    TITLE "Tenderloin"
    PERFORMER "Rancid"
    INDEX 01 00:00:00
FILE "Rancid\Let's Go\06 - Let's Go.wav" WAVE
  TRACK 06 AUDIO
    TITLE "Let's Go"
    PERFORMER "Rancid"
    INDEX 01 00:00:00
FILE "Rancid\Let's Go\07 - As One.wav" WAVE
  TRACK 07 AUDIO
    TITLE "As One"
    PERFORMER "Rancid"
    INDEX 01 00:00:00
FILE "Rancid\Let's Go\08 - Burn.wav" WAVE
  TRACK 08 AUDIO
    TITLE "Burn"
    PERFORMER "Rancid"
    INDEX 01 00:00:00
FILE "Rancid\Let's Go\09 - The Ballad Of Jimmy And Johnny.wav" WAVE
  TRACK 09 AUDIO
    TITLE "The Ballad Of Jimmy And Johnny"
    PERFORMER "Rancid"
    INDEX 01 00:00:00
FILE "Rancid\Let's Go\10 - Gunshot.wav" WAVE
  TRACK 10 AUDIO
    TITLE "Gunshot"
    PERFORMER "Rancid"
    INDEX 01 00:00:00
FILE "Rancid\Let's Go\11 - I Am The One.wav" WAVE
  TRACK 11 AUDIO
    TITLE "I Am The One"
    PERFORMER "Rancid"
    INDEX 01 00:00:00
FILE "Rancid\Let's Go\12 - Gave It Away.wav" WAVE
  TRACK 12 AUDIO
    TITLE "Gave It Away"
    PERFORMER "Rancid"
    INDEX 01 00:00:00
FILE "Rancid\Let's Go\13 - Ghetto Box.wav" WAVE
  TRACK 13 AUDIO
    TITLE "Ghetto Box"
    PERFORMER "Rancid"
    INDEX 01 00:00:00
FILE "Rancid\Let's Go\14 - Harry Bridges.wav" WAVE
  TRACK 14 AUDIO
    TITLE "Harry Bridges"
    PERFORMER "Rancid"
    INDEX 01 00:00:00
FILE "Rancid\Let's Go\15 - Black And Blue.wav" WAVE
  TRACK 15 AUDIO
    TITLE "Black And Blue"
    PERFORMER "Rancid"
    INDEX 01 00:00:00
FILE "Rancid\Let's Go\16 - St. Mary.wav" WAVE
  TRACK 16 AUDIO
    TITLE "St. Mary"
    PERFORMER "Rancid"
    INDEX 01 00:00:00
FILE "Rancid\Let's Go\17 - Dope Sick Girl.wav" WAVE
  TRACK 17 AUDIO
    TITLE "Dope Sick Girl"
    PERFORMER "Rancid"
    INDEX 01 00:00:00
FILE "Rancid\Let's Go\18 - International Cover-up.wav" WAVE
  TRACK 18 AUDIO
    TITLE "International Cover-up"
    PERFORMER "Rancid"
    INDEX 01 00:00:00
FILE "Rancid\Let's Go\19 - Solidarity.wav" WAVE
  TRACK 19 AUDIO
    TITLE "Solidarity"
    PERFORMER "Rancid"
    INDEX 01 00:00:00
FILE "Rancid\Let's Go\20 - Midnight.wav" WAVE
  TRACK 20 AUDIO
    TITLE "Midnight"
    PERFORMER "Rancid"
    INDEX 01 00:00:00
FILE "Rancid\Let's Go\21 - Motorcycle Ride.wav" WAVE
  TRACK 21 AUDIO
    TITLE "Motorcycle Ride"
    PERFORMER "Rancid"
    INDEX 01 00:00:00
FILE "Rancid\Let's Go\22 - Name.wav" WAVE
  TRACK 22 AUDIO
    TITLE "Name"
    PERFORMER "Rancid"
    INDEX 01 00:00:00
FILE "Rancid\Let's Go\23 - 7 Years Down.wav" WAVE
  TRACK 23 AUDIO
    TITLE "7 Years Down"
    PERFORMER "Rancid"
    INDEX 01 00:00:00
01. Maxwell Murder
02. The 11th Hour
03. Roots Radicals
04. Time Bomb
05. Olympia Wa.
06. Lock, Step & Gone
07. Junkie Man
08. Listed M.I.A.
09. Ruby Soho
10. Daly City Train
11. Journey To The End Of The East Bay
12. She's Automatic
13. Old Friend
14. Disorder And Disarray
15. The Wars End
16. You Don't Care Nothin'
17. As Wicked
18. Avenues & Alleyways
19. The Way I Feel

Код:

AUDIOCHECKER v1.2 - by Dester - opdester@freemail.hu
~~~~~~~~~~~~~~~~~

01 -===- J:\Rancid\1995 - ... And Out Come The Wolves\01 - Maxwell Murder.flac
  Extracted successfully
  Conclusion: This track looks like CDDA with probability 100%

02 -===- J:\Rancid\1995 - ... And Out Come The Wolves\02 - The 11th Hour.flac
  Extracted successfully
  Conclusion: This track looks like CDDA with probability 100%

03 -===- J:\Rancid\1995 - ... And Out Come The Wolves\03 - Roots Radicals.flac
  Extracted successfully
  Conclusion: This track looks like CDDA with probability 100%

04 -===- J:\Rancid\1995 - ... And Out Come The Wolves\04 - Time Bomb.flac
  Extracted successfully
  Conclusion: This track looks like CDDA with probability 100%

05 -===- J:\Rancid\1995 - ... And Out Come The Wolves\05 - Olympia WA..flac
  Extracted successfully
  Conclusion: This track looks like CDDA with probability 100%

06 -===- J:\Rancid\1995 - ... And Out Come The Wolves\06 - Lock, Step & Gone.flac
  Extracted successfully
  Conclusion: This track looks like CDDA with probability 100%

07 -===- J:\Rancid\1995 - ... And Out Come The Wolves\07 - Junkie Man.flac
  Extracted successfully
  Conclusion: This track looks like CDDA with probability 100%

08 -===- J:\Rancid\1995 - ... And Out Come The Wolves\08 - Listed M.I.A..flac
  Extracted successfully
  Conclusion: This track looks like CDDA with probability 100%

09 -===- J:\Rancid\1995 - ... And Out Come The Wolves\09 - Ruby Soho.flac
  Extracted successfully
  Conclusion: This track looks like CDDA with probability 100%

10 -===- J:\Rancid\1995 - ... And Out Come The Wolves\10 - Daly City Train.flac
  Extracted successfully
  Conclusion: This track looks like CDDA with probability 100%

11 -===- J:\Rancid\1995 - ... And Out Come The Wolves\11 - Journey To The End Of The East Bay.flac
  Extracted successfully
  Conclusion: This track looks like CDDA with probability 100%

12 -===- J:\Rancid\1995 - ... And Out Come The Wolves\12 - She's Automatic.flac
  Extracted successfully
  Conclusion: This track looks like CDDA with probability 99%

13 -===- J:\Rancid\1995 - ... And Out Come The Wolves\13 - Old Friend.flac
  Extracted successfully
  Conclusion: This track looks like CDDA with probability 100%

14 -===- J:\Rancid\1995 - ... And Out Come The Wolves\14 - Disorder And Disarray.flac
  Extracted successfully
  Conclusion: This track looks like CDDA with probability 100%

15 -===- J:\Rancid\1995 - ... And Out Come The Wolves\15 - The Wars End.flac
  Extracted successfully
  Conclusion: This track looks like CDDA with probability 100%

16 -===- J:\Rancid\1995 - ... And Out Come The Wolves\16 - You Don't Care Nothin'.flac
  Extracted successfully
  Conclusion: This track looks like CDDA with probability 100%

17 -===- J:\Rancid\1995 - ... And Out Come The Wolves\17 - As Wicked.flac
  Extracted successfully
  Conclusion: This track looks like CDDA with probability 100%

18 -===- J:\Rancid\1995 - ... And Out Come The Wolves\18 - Avenues & Alleyways.flac
  Extracted successfully
  Conclusion: This track looks like CDDA with probability 100%

19 -===- J:\Rancid\1995 - ... And Out Come The Wolves\19 - The Way I Feel.flac
  Extracted successfully
  Conclusion: This track looks like CDDA with probability 100%
 

Код:

EAC extraction logfile from 29. August 2006, 16:18 for CD
Rancid / ...And Out Come the Wolves

Used drive : LITE-ON DVDRW SOHW-1693S Adapter: 0 ID: 0
Read mode : Secure with NO C2, accurate stream, disable cache
Read offset correction : 12
Overread into Lead-In and Lead-Out : No

Used output format : C:\Program Files\FLAC\flac.exe (User Defined Encoder)
128 kBit/s
Additional command line options : -V -8 -T "artist=%a" -T "title=%t" -T "album=%g" -T "date=%y" -T "tracknumber=%n" -T "genre=%m" %s

Other options :
Fill up missing offset samples with silence : Yes
Delete leading and trailing silent blocks : No
Native Win32 interface for Win NT & 2000

Track 1
Filename C:\Documents and Settings\Kyle Triggs\Desktop\Uploads\Rancid\...And Out Come the Wolves\01 - Maxwell Murder.wav

Pre-gap length 0:00:02.00

Peak level 100.0 %
Track quality 100.0 %
Test CRC 0413E009
Copy CRC 0413E009
Copy OK

Track 2
Filename C:\Documents and Settings\Kyle Triggs\Desktop\Uploads\Rancid\...And Out Come the Wolves\02 - The 11th Hour.wav

Peak level 100.0 %
Track quality 100.0 %
Test CRC BEB94FDC
Copy CRC BEB94FDC
Copy OK

Track 3
Filename C:\Documents and Settings\Kyle Triggs\Desktop\Uploads\Rancid\...And Out Come the Wolves\03 - Roots Radicals.wav

Peak level 100.0 %
Track quality 100.0 %
Test CRC 5F4EDCDD
Copy CRC 5F4EDCDD
Copy OK

Track 4
Filename C:\Documents and Settings\Kyle Triggs\Desktop\Uploads\Rancid\...And Out Come the Wolves\04 - Time Bomb.wav

Peak level 100.0 %
Track quality 100.0 %
Test CRC 18B1A2C2
Copy CRC 18B1A2C2
Copy OK

Track 5
Filename C:\Documents and Settings\Kyle Triggs\Desktop\Uploads\Rancid\...And Out Come the Wolves\05 - Olympia WA..wav

Peak level 100.0 %
Track quality 100.0 %
Test CRC 2E835921
Copy CRC 2E835921
Copy OK

Track 6
Filename C:\Documents and Settings\Kyle Triggs\Desktop\Uploads\Rancid\...And Out Come the Wolves\06 - Lock, Step & Gone.wav

Peak level 100.0 %
Track quality 100.0 %
Test CRC 90FB9C16
Copy CRC 90FB9C16
Copy OK

Track 7
Filename C:\Documents and Settings\Kyle Triggs\Desktop\Uploads\Rancid\...And Out Come the Wolves\07 - Junkie Man.wav

Peak level 100.0 %
Track quality 100.0 %
Test CRC 39009F27
Copy CRC 39009F27
Copy OK

Track 8
Filename C:\Documents and Settings\Kyle Triggs\Desktop\Uploads\Rancid\...And Out Come the Wolves\08 - Listed M.I.A..wav

Peak level 100.0 %
Track quality 100.0 %
Test CRC 9FC24332
Copy CRC 9FC24332
Copy OK

Track 9
Filename C:\Documents and Settings\Kyle Triggs\Desktop\Uploads\Rancid\...And Out Come the Wolves\09 - Ruby Soho.wav

Peak level 100.0 %
Track quality 100.0 %
Test CRC 986E469B
Copy CRC 986E469B
Copy OK

Track 10
Filename C:\Documents and Settings\Kyle Triggs\Desktop\Uploads\Rancid\...And Out Come the Wolves\10 - Daly City Train.wav

Peak level 100.0 %
Track quality 100.0 %
Test CRC 65E31A18
Copy CRC 65E31A18
Copy OK

Track 11
Filename C:\Documents and Settings\Kyle Triggs\Desktop\Uploads\Rancid\...And Out Come the Wolves\11 - Journey To The End Of The East Bay.wav

Peak level 100.0 %
Track quality 99.9 %
Test CRC 27A48758
Copy CRC 27A48758
Copy OK

Track 12
Filename C:\Documents and Settings\Kyle Triggs\Desktop\Uploads\Rancid\...And Out Come the Wolves\12 - She's Automatic.wav

Peak level 100.0 %
Track quality 100.0 %
Test CRC 87CC6DB7
Copy CRC 87CC6DB7
Copy OK

Track 13
Filename C:\Documents and Settings\Kyle Triggs\Desktop\Uploads\Rancid\...And Out Come the Wolves\13 - Old Friend.wav

Peak level 100.0 %
Track quality 100.0 %
Test CRC 8A2A435D
Copy CRC 8A2A435D
Copy OK

Track 14
Filename C:\Documents and Settings\Kyle Triggs\Desktop\Uploads\Rancid\...And Out Come the Wolves\14 - Disorder And Disarray.wav

Peak level 100.0 %
Track quality 100.0 %
Test CRC E0ED2068
Copy CRC E0ED2068
Copy OK

Track 15
Filename C:\Documents and Settings\Kyle Triggs\Desktop\Uploads\Rancid\...And Out Come the Wolves\15 - The Wars End.wav

Peak level 100.0 %
Track quality 100.0 %
Test CRC 6D9A38AB
Copy CRC 6D9A38AB
Copy OK

Track 16
Filename C:\Documents and Settings\Kyle Triggs\Desktop\Uploads\Rancid\...And Out Come the Wolves\16 - You Don't Care Nothin'.wav

Peak level 100.0 %
Track quality 100.0 %
Test CRC FA40D3C9
Copy CRC FA40D3C9
Copy OK

Track 17
Filename C:\Documents and Settings\Kyle Triggs\Desktop\Uploads\Rancid\...And Out Come the Wolves\17 - As Wicked.wav

Peak level 100.0 %
Track quality 100.0 %
Test CRC 2ADB3E3E
Copy CRC 2ADB3E3E
Copy OK

Track 18
Filename C:\Documents and Settings\Kyle Triggs\Desktop\Uploads\Rancid\...And Out Come the Wolves\18 - Avenues & Alleyways.wav

Peak level 100.0 %
Track quality 99.7 %
Test CRC 9C5D95BF
Copy CRC 9571644F
Copy OK

Track 19
Filename C:\Documents and Settings\Kyle Triggs\Desktop\Uploads\Rancid\...And Out Come the Wolves\19 - The Way I Feel.wav

Peak level 100.0 %
Track quality 100.0 %
Test CRC 9FED99C7
Copy CRC 9FED99C7
Copy OK

No errors occured

End of status report

Код:

 
REM GENRE "Punk Rock"
REM DATE 1995
REM DISCID 030BAA13
REM COMMENT "ExactAudioCopy v0.95b4"
PERFORMER "Rancid"
TITLE "...And Out Come the Wolves"
FILE "Rancid\...And Out Come the Wolves\01 - Maxwell Murder.wav" WAVE
  TRACK 01 AUDIO
    TITLE "Maxwell Murder"
    PERFORMER "Rancid"
    INDEX 01 00:00:00
FILE "Rancid\...And Out Come the Wolves\02 - The 11th Hour.wav" WAVE
  TRACK 02 AUDIO
    TITLE "The 11th Hour"
    PERFORMER "Rancid"
    INDEX 01 00:00:00
FILE "Rancid\...And Out Come the Wolves\03 - Roots Radicals.wav" WAVE
  TRACK 03 AUDIO
    TITLE "Roots Radicals"
    PERFORMER "Rancid"
    INDEX 01 00:00:00
FILE "Rancid\...And Out Come the Wolves\04 - Time Bomb.wav" WAVE
  TRACK 04 AUDIO
    TITLE "Time Bomb"
    PERFORMER "Rancid"
    INDEX 01 00:00:00
FILE "Rancid\...And Out Come the Wolves\05 - Olympia WA..wav" WAVE
  TRACK 05 AUDIO
    TITLE "Olympia WA."
    PERFORMER "Rancid"
    INDEX 01 00:00:00
FILE "Rancid\...And Out Come the Wolves\06 - Lock, Step & Gone.wav" WAVE
  TRACK 06 AUDIO
    TITLE "Lock, Step & Gone"
    PERFORMER "Rancid"
    INDEX 01 00:00:00
FILE "Rancid\...And Out Come the Wolves\07 - Junkie Man.wav" WAVE
  TRACK 07 AUDIO
    TITLE "Junkie Man"
    PERFORMER "Rancid"
    INDEX 01 00:00:00
FILE "Rancid\...And Out Come the Wolves\08 - Listed M.I.A..wav" WAVE
  TRACK 08 AUDIO
    TITLE "Listed M.I.A."
    PERFORMER "Rancid"
    INDEX 01 00:00:00
FILE "Rancid\...And Out Come the Wolves\09 - Ruby Soho.wav" WAVE
  TRACK 09 AUDIO
    TITLE "Ruby Soho"
    PERFORMER "Rancid"
    INDEX 01 00:00:00
FILE "Rancid\...And Out Come the Wolves\10 - Daly City Train.wav" WAVE
  TRACK 10 AUDIO
    TITLE "Daly City Train"
    PERFORMER "Rancid"
    INDEX 01 00:00:00
FILE "Rancid\...And Out Come the Wolves\11 - Journey To The End Of The East Bay.wav" WAVE
  TRACK 11 AUDIO
    TITLE "Journey To The End Of The East Bay"
    PERFORMER "Rancid"
    INDEX 01 00:00:00
FILE "Rancid\...And Out Come the Wolves\12 - She's Automatic.wav" WAVE
  TRACK 12 AUDIO
    TITLE "She's Automatic"
    PERFORMER "Rancid"
    INDEX 01 00:00:00
FILE "Rancid\...And Out Come the Wolves\13 - Old Friend.wav" WAVE
  TRACK 13 AUDIO
    TITLE "Old Friend"
    PERFORMER "Rancid"
    INDEX 01 00:00:00
FILE "Rancid\...And Out Come the Wolves\14 - Disorder And Disarray.wav" WAVE
  TRACK 14 AUDIO
    TITLE "Disorder And Disarray"
    PERFORMER "Rancid"
    INDEX 01 00:00:00
FILE "Rancid\...And Out Come the Wolves\15 - The Wars End.wav" WAVE
  TRACK 15 AUDIO
    TITLE "The Wars End"
    PERFORMER "Rancid"
    INDEX 01 00:00:00
FILE "Rancid\...And Out Come the Wolves\16 - You Don't Care Nothin'.wav" WAVE
  TRACK 16 AUDIO
    TITLE "You Don't Care Nothin'"
    PERFORMER "Rancid"
    INDEX 01 00:00:00
FILE "Rancid\...And Out Come the Wolves\17 - As Wicked.wav" WAVE
  TRACK 17 AUDIO
    TITLE "As Wicked"
    PERFORMER "Rancid"
    INDEX 01 00:00:00
FILE "Rancid\...And Out Come the Wolves\18 - Avenues & Alleyways.wav" WAVE
  TRACK 18 AUDIO
    TITLE "Avenues & Alleyways"
    PERFORMER "Rancid"
    INDEX 01 00:00:00
FILE "Rancid\...And Out Come the Wolves\19 - The Way I Feel.wav" WAVE
  TRACK 19 AUDIO
    TITLE "The Way I Feel"
    PERFORMER "Rancid"
    INDEX 01 00:00:00
01. Intro
02. Bloodclot
03. Hoover Street
04. Black Lung
05. Life Won't Wait
06. New Dress
07. Warsaw
08. Hooligans
09. Crane Fist
10. Leicester Square
11. Backslide
12. Who Would've Thought
13. Cash, Culture and Violence
14. Cocktails
15. The Wolf
16. 1998
17. Lady Liberty
18. Wrongful Suspicion
19. Turntable
20. Something In The World Today
21. Corazon de Oro
22. Coppers

Код:

EAC extraction logfile from 19. November 2007, 21:00 for CD
Rancid / Life Won't Wait

Used drive  : PIONEER DVD-RW  DVR-111D   Adapter: 0  ID: 0
Read mode   : Secure with NO C2, accurate stream, disable cache
Read offset correction : 48
Overread into Lead-In and Lead-Out : No

Used output format : Internal WAV Routines
                     44.100 Hz; 16 Bit; Stereo

Other options      :
    Fill up missing offset samples with silence : Yes
    Delete leading and trailing silent blocks : No
    Native Win32 interface for Win NT & 2000

Track  1
     Filename C:\Documents and Settings\Joseph\Desktop\Rancid\Life Won't Wait\01 - Intro.wav

     Pre-gap length  0:00:02.00

     Peak level 99.9 %
     Track quality 100.0 %
     Test CRC 1EF1E0F3
     Copy CRC 1EF1E0F3
     Copy OK

Track  2
     Filename C:\Documents and Settings\Joseph\Desktop\Rancid\Life Won't Wait\02 - Bloodclot.wav

     Peak level 99.9 %
     Track quality 100.0 %
     Test CRC 5F9F68B5
     Copy CRC 5F9F68B5
     Copy OK

Track  3
     Filename C:\Documents and Settings\Joseph\Desktop\Rancid\Life Won't Wait\03 - Hoover Street.wav

     Peak level 99.9 %
     Track quality 100.0 %
     Test CRC 0F747D5D
     Copy CRC 0F747D5D
     Copy OK

Track  4
     Filename C:\Documents and Settings\Joseph\Desktop\Rancid\Life Won't Wait\04 - Black Lung.wav

     Peak level 99.9 %
     Track quality 100.0 %
     Test CRC 250BE12C
     Copy CRC 250BE12C
     Copy OK

Track  5
     Filename C:\Documents and Settings\Joseph\Desktop\Rancid\Life Won't Wait\05 - Life Won't Wait.wav

     Pre-gap length  0:00:00.02

     Peak level 99.9 %
     Track quality 100.0 %
     Test CRC A0915F90
     Copy CRC A0915F90
     Copy OK

Track  6
     Filename C:\Documents and Settings\Joseph\Desktop\Rancid\Life Won't Wait\06 - New Dress.wav

     Peak level 99.9 %
     Track quality 100.0 %
     Test CRC A7AF32E5
     Copy CRC A7AF32E5
     Copy OK

Track  7
     Filename C:\Documents and Settings\Joseph\Desktop\Rancid\Life Won't Wait\07 - Warsaw.wav

     Peak level 99.9 %
     Track quality 99.8 %
     Test CRC A56FCE66
     Copy CRC A56FCE66
     Copy OK

Track  8
     Filename C:\Documents and Settings\Joseph\Desktop\Rancid\Life Won't Wait\08 - Hooligans.wav

     Peak level 99.9 %
     Track quality 99.9 %
     Test CRC 339B9ED9
     Copy CRC 339B9ED9
     Copy OK

Track  9
     Filename C:\Documents and Settings\Joseph\Desktop\Rancid\Life Won't Wait\09 - Crane Fist.wav

     Peak level 99.9 %
     Track quality 100.0 %
     Test CRC 5DA67802
     Copy CRC 5DA67802
     Copy OK

Track 10
     Filename C:\Documents and Settings\Joseph\Desktop\Rancid\Life Won't Wait\10 - Leicester Square.wav

     Peak level 99.9 %
     Track quality 100.0 %
     Test CRC D0924525
     Copy CRC D0924525
     Copy OK

Track 11
     Filename C:\Documents and Settings\Joseph\Desktop\Rancid\Life Won't Wait\11 - Backslide.wav

     Peak level 99.9 %
     Track quality 100.0 %
     Test CRC E8B61481
     Copy CRC E8B61481
     Copy OK

Track 12
     Filename C:\Documents and Settings\Joseph\Desktop\Rancid\Life Won't Wait\12 - Who Would've Thought.wav

     Pre-gap length  0:00:00.05

     Peak level 99.9 %
     Track quality 100.0 %
     Test CRC CAC53178
     Copy CRC CAC53178
     Copy OK

Track 13
     Filename C:\Documents and Settings\Joseph\Desktop\Rancid\Life Won't Wait\13 - Cash, Culture and Violence.wav

     Peak level 99.9 %
     Track quality 100.0 %
     Test CRC DA0AE569
     Copy CRC DA0AE569
     Copy OK

Track 14
     Filename C:\Documents and Settings\Joseph\Desktop\Rancid\Life Won't Wait\14 - Cocktails.wav

     Peak level 100.0 %
     Track quality 99.9 %
     Test CRC 69333697
     Copy CRC 69333697
     Copy OK

Track 15
     Filename C:\Documents and Settings\Joseph\Desktop\Rancid\Life Won't Wait\15 - The Wolf.wav

     Peak level 99.9 %
     Track quality 100.0 %
     Test CRC 3736E3F9
     Copy CRC 3736E3F9
     Copy OK

Track 16
     Filename C:\Documents and Settings\Joseph\Desktop\Rancid\Life Won't Wait\16 - 1998.wav

     Peak level 99.9 %
     Track quality 100.0 %
     Test CRC 823C4E29
     Copy CRC 823C4E29
     Copy OK

Track 17
     Filename C:\Documents and Settings\Joseph\Desktop\Rancid\Life Won't Wait\17 - Lady Liberty.wav

     Peak level 99.9 %
     Track quality 100.0 %
     Test CRC E263B773
     Copy CRC E263B773
     Copy OK

Track 18
     Filename C:\Documents and Settings\Joseph\Desktop\Rancid\Life Won't Wait\18 - Wrongful Suspicion.wav

     Peak level 99.9 %
     Track quality 100.0 %
     Test CRC 384C8EDC
     Copy CRC 384C8EDC
     Copy OK

Track 19
     Filename C:\Documents and Settings\Joseph\Desktop\Rancid\Life Won't Wait\19 - Turntable.wav

     Peak level 99.9 %
     Track quality 100.0 %
     Test CRC 92148422
     Copy CRC 92148422
     Copy OK

Track 20
     Filename C:\Documents and Settings\Joseph\Desktop\Rancid\Life Won't Wait\20 - Something In The World Today.wav

     Peak level 99.9 %
     Track quality 100.0 %
     Test CRC BFBCBDA6
     Copy CRC BFBCBDA6
     Copy OK

Track 21
     Filename C:\Documents and Settings\Joseph\Desktop\Rancid\Life Won't Wait\21 - Corazon de Oro.wav

     Peak level 99.9 %
     Track quality 100.0 %
     Test CRC 9EB1D13A
     Copy CRC 9EB1D13A
     Copy OK

Track 22
     Filename C:\Documents and Settings\Joseph\Desktop\Rancid\Life Won't Wait\22 - Coppers.wav

     Peak level 99.9 %
     Track quality 100.0 %
     Test CRC 3A7D09C0
     Copy CRC 3A7D09C0
     Copy OK

No errors occured

End of status report

Код:

 
REM GENRE Punk
REM DATE 1998
REM DISCID 260F0B16
REM COMMENT "ExactAudioCopy v0.95b4"
PERFORMER "Rancid"
TITLE "Life Won't Wait"
FILE "Rancid\Life Won't Wait\01 - Intro.wav" WAVE
  TRACK 01 AUDIO
    TITLE "Intro"
    PERFORMER "Rancid"
    INDEX 01 00:00:00
FILE "Rancid\Life Won't Wait\02 - Bloodclot.wav" WAVE
  TRACK 02 AUDIO
    TITLE "Bloodclot"
    PERFORMER "Rancid"
    INDEX 01 00:00:00
FILE "Rancid\Life Won't Wait\03 - Hoover Street.wav" WAVE
  TRACK 03 AUDIO
    TITLE "Hoover Street"
    PERFORMER "Rancid"
    INDEX 01 00:00:00
FILE "Rancid\Life Won't Wait\04 - Black Lung.wav" WAVE
  TRACK 04 AUDIO
    TITLE "Black Lung"
    PERFORMER "Rancid"
    INDEX 01 00:00:00
  TRACK 05 AUDIO
    TITLE "Life Won't Wait"
    PERFORMER "Rancid"
    INDEX 00 01:53:30
FILE "Rancid\Life Won't Wait\05 - Life Won't Wait.wav" WAVE
    INDEX 01 00:00:00
FILE "Rancid\Life Won't Wait\06 - New Dress.wav" WAVE
  TRACK 06 AUDIO
    TITLE "New Dress"
    PERFORMER "Rancid"
    INDEX 01 00:00:00
FILE "Rancid\Life Won't Wait\07 - Warsaw.wav" WAVE
  TRACK 07 AUDIO
    TITLE "Warsaw"
    PERFORMER "Rancid"
    INDEX 01 00:00:00
FILE "Rancid\Life Won't Wait\08 - Hooligans.wav" WAVE
  TRACK 08 AUDIO
    TITLE "Hooligans"
    PERFORMER "Rancid"
    INDEX 01 00:00:00
FILE "Rancid\Life Won't Wait\09 - Crane Fist.wav" WAVE
  TRACK 09 AUDIO
    TITLE "Crane Fist"
    PERFORMER "Rancid"
    INDEX 01 00:00:00
FILE "Rancid\Life Won't Wait\10 - Leicester Square.wav" WAVE
  TRACK 10 AUDIO
    TITLE "Leicester Square"
    PERFORMER "Rancid"
    INDEX 01 00:00:00
FILE "Rancid\Life Won't Wait\11 - Backslide.wav" WAVE
  TRACK 11 AUDIO
    TITLE "Backslide"
    PERFORMER "Rancid"
    INDEX 01 00:00:00
  TRACK 12 AUDIO
    TITLE "Who Would've Thought"
    PERFORMER "Rancid"
    INDEX 00 02:53:41
FILE "Rancid\Life Won't Wait\12 - Who Would've Thought.wav" WAVE
    INDEX 01 00:00:00
FILE "Rancid\Life Won't Wait\13 - Cash, Culture and Violence.wav" WAVE
  TRACK 13 AUDIO
    TITLE "Cash, Culture and Violence"
    PERFORMER "Rancid"
    INDEX 01 00:00:00
FILE "Rancid\Life Won't Wait\14 - Cocktails.wav" WAVE
  TRACK 14 AUDIO
    TITLE "Cocktails"
    PERFORMER "Rancid"
    INDEX 01 00:00:00
FILE "Rancid\Life Won't Wait\15 - The Wolf.wav" WAVE
  TRACK 15 AUDIO
    TITLE "The Wolf"
    PERFORMER "Rancid"
    INDEX 01 00:00:00
FILE "Rancid\Life Won't Wait\16 - 1998.wav" WAVE
  TRACK 16 AUDIO
    TITLE "1998"
    PERFORMER "Rancid"
    INDEX 01 00:00:00
FILE "Rancid\Life Won't Wait\17 - Lady Liberty.wav" WAVE
  TRACK 17 AUDIO
    TITLE "Lady Liberty"
    PERFORMER "Rancid"
    INDEX 01 00:00:00
FILE "Rancid\Life Won't Wait\18 - Wrongful Suspicion.wav" WAVE
  TRACK 18 AUDIO
    TITLE "Wrongful Suspicion"
    PERFORMER "Rancid"
    INDEX 01 00:00:00
FILE "Rancid\Life Won't Wait\19 - Turntable.wav" WAVE
  TRACK 19 AUDIO
    TITLE "Turntable"
    PERFORMER "Rancid"
    INDEX 01 00:00:00
FILE "Rancid\Life Won't Wait\20 - Something In The World Today.wav" WAVE
  TRACK 20 AUDIO
    TITLE "Something In The World Today"
    PERFORMER "Rancid"
    INDEX 01 00:00:00
FILE "Rancid\Life Won't Wait\21 - Corazon de Oro.wav" WAVE
  TRACK 21 AUDIO
    TITLE "Corazon de Oro"
    PERFORMER "Rancid"
    INDEX 01 00:00:00
FILE "Rancid\Life Won't Wait\22 - Coppers.wav" WAVE
  TRACK 22 AUDIO
    TITLE "Coppers"
    PERFORMER "Rancid"
    INDEX 01 00:00:00
01 - Let me go
02 - Ben Zanotto
03 - Dead and gone

Код:

EAC extraction logfile from 23. September 2007, 21:20 for CD
Rancid / Let me go

Used drive  : PIONEER DVD-RW  DVR-109   Adapter: 3  ID: 0
Read mode   : Secure with NO C2, accurate stream, disable cache
Read offset correction : 48
Overread into Lead-In and Lead-Out : No

Used output format : C:\Program Files\FLAC\flac.exe   (User Defined Encoder)
                     192 kBit/s
                     Additional command line options : -5 -V -T "ARTIST=%a" -T "TITLE=%t" -T "ALBUM=%g" -T "DATE=%y" -T "TRACKNUMBER=%n" -T "GENRE=%m" -T "COMMENT=EAC Flac 1.1.3 -5" %s

Other options      :
    Fill up missing offset samples with silence : Yes
    Delete leading and trailing silent blocks : No
    Native Win32 interface for Win NT & 2000

Track  1
     Filename G:\EAC\01 - Let me go.wav

     Pre-gap length  0:00:02.00

     Peak level 98.8 %
     Track quality 99.9 %
     Test CRC 7B5E058C
     Copy CRC 7B5E058C
     Copy OK

Track  2
     Filename G:\EAC\02 - Ben Zanotto.wav

     Pre-gap length  0:00:00.40

     Peak level 98.8 %
     Track quality 100.0 %
     Test CRC EF30FDA9
     Copy CRC EF30FDA9
     Copy OK

Track  3
     Filename G:\EAC\03 - Dead and gone.wav

     Peak level 98.8 %
     Track quality 100.0 %
     Test CRC 0FD5DCCC
     Copy CRC 0FD5DCCC
     Copy OK

No errors occured

End of status report

Код:

 
REM GENRE "Punk rock"
REM DATE 2000
REM DISCID 1701BF03
REM COMMENT "ExactAudioCopy v0.95b4"
PERFORMER "Rancid"
TITLE "Let me go"
FILE "01 - Let me go.wav" WAVE
  TRACK 01 AUDIO
    TITLE "Let me go"
    PERFORMER "Rancid"
    INDEX 01 00:00:00
  TRACK 02 AUDIO
    TITLE "Ben Zanotto"
    PERFORMER "Rancid"
    INDEX 00 03:14:12
FILE "02 - Ben Zanotto.wav" WAVE
    INDEX 01 00:00:00
FILE "03 - Dead and gone.wav" WAVE
  TRACK 03 AUDIO
    TITLE "Dead and gone"
    PERFORMER "Rancid"
    INDEX 01 00:00:00
01. Don Giovanni
02. Disgruntled
03. It's Quite Alright
04. Let Me Go
05. I Am Forever
06. Poison
07. Loki
08. Blackhawk Down
09. Rwanda
10. Corruption
11. Antennas
12. Rattlesnake
13. Not To Regret
14. Axiom
15. Radio Havana
16. Black Derby Jacket
17. Meteor Of War
18. Dead Bodies
19. Rigged On A Fix
20. Young Al Capone
21. Reconciliation
22. GGF
23. Bonus

Код:

EAC extraction logfile from 13. March 2007, 21:38 for CD
Rancid / Rancid (2000)

Used drive  : HP      DVD Writer 740b   Adapter: 0  ID: 0
Read mode   : Secure with NO C2, accurate stream, disable cache
Read offset correction : 102
Overread into Lead-In and Lead-Out : No

Used output format : C:\Program Files\Exact Audio Copy\bin\flac.exe   (User Defined Encoder)
                     192 kBit/s
                     Additional command line options : -8 -A tukey(0.25) -A gauss(0.1875) -b 4096 -V -T "artist=%a" -T "title=%t" -T "album=%g" -T "date=%y" -T "tracknumber=%n" -T "genre=%m" %s --sector-align

Other options      :
    Fill up missing offset samples with silence : Yes
    Delete leading and trailing silent blocks : No
    Installed external ASPI interface

Track  1
     Filename C:\Users\frenchkick\Desktop\01 - Don Giovanni.wav

     Pre-gap length  0:00:02.00

     Peak level 98.8 %
     Track quality 100.0 %
     Test CRC 24121EFA
     Copy CRC 24121EFA
     Copy OK

Track  2
     Filename C:\Users\frenchkick\Desktop\02 - Disgruntled.wav

     Peak level 98.8 %
     Track quality 100.0 %
     Test CRC 1B9A6F17
     Copy CRC 1B9A6F17
     Copy OK

Track  3
     Filename C:\Users\frenchkick\Desktop\03 - It's Quite Alright.wav

     Peak level 98.8 %
     Track quality 100.0 %
     Test CRC E7083D85
     Copy CRC E7083D85
     Copy OK

Track  4
     Filename C:\Users\frenchkick\Desktop\04 - Let Me Go.wav

     Peak level 98.8 %
     Track quality 100.0 %
     Test CRC D1C5CF68
     Copy CRC D1C5CF68
     Copy OK

Track  5
     Filename C:\Users\frenchkick\Desktop\05 - I Am Forever.wav

     Peak level 98.8 %
     Track quality 100.0 %
     Test CRC 5FF93288
     Copy CRC 5FF93288
     Copy OK

Track  6
     Filename C:\Users\frenchkick\Desktop\06 - Poison.wav

     Peak level 98.8 %
     Track quality 100.0 %
     Test CRC E0776BA1
     Copy CRC E0776BA1
     Copy OK

Track  7
     Filename C:\Users\frenchkick\Desktop\07 - Loki.wav

     Peak level 98.8 %
     Track quality 100.0 %
     Test CRC 2B0F9218
     Copy CRC 2B0F9218
     Copy OK

Track  8
     Filename C:\Users\frenchkick\Desktop\08 - Blackhawk Down.wav

     Peak level 98.8 %
     Track quality 100.0 %
     Test CRC B6765A1A
     Copy CRC B6765A1A
     Copy OK

Track  9
     Filename C:\Users\frenchkick\Desktop\09 - Rwanda.wav

     Peak level 98.9 %
     Track quality 100.0 %
     Test CRC 2C6E230E
     Copy CRC 2C6E230E
     Copy OK

Track 10
     Filename C:\Users\frenchkick\Desktop\10 - Corruption.wav

     Peak level 97.2 %
     Track quality 100.0 %
     Test CRC D9FE4AB5
     Copy CRC D9FE4AB5
     Copy OK

Track 11
     Filename C:\Users\frenchkick\Desktop\11 - Antennas.wav

     Peak level 98.8 %
     Track quality 100.0 %
     Test CRC 69D47C99
     Copy CRC 69D47C99
     Copy OK

Track 12
     Filename C:\Users\frenchkick\Desktop\12 - Rattlesnake.wav

     Peak level 98.8 %
     Track quality 100.0 %
     Test CRC 1B98E066
     Copy CRC 1B98E066
     Copy OK

Track 13
     Filename C:\Users\frenchkick\Desktop\13 - Not to Regret.wav

     Peak level 98.8 %
     Track quality 100.0 %
     Test CRC 2B7975E5
     Copy CRC 2B7975E5
     Copy OK

Track 14
     Filename C:\Users\frenchkick\Desktop\14 - Radio Havanna.wav

     Peak level 99.4 %
     Track quality 100.0 %
     Test CRC 571B09E0
     Copy CRC 571B09E0
     Copy OK

Track 15
     Filename C:\Users\frenchkick\Desktop\15 - Axiom.wav

     Peak level 98.8 %
     Track quality 100.0 %
     Test CRC 16FBBB74
     Copy CRC 16FBBB74
     Copy OK

Track 16
     Filename C:\Users\frenchkick\Desktop\16 - Black Derby.wav

     Peak level 99.8 %
     Track quality 100.0 %
     Test CRC 5183156B
     Copy CRC 5183156B
     Copy OK

Track 17
     Filename C:\Users\frenchkick\Desktop\17 - Meteor of War.wav

     Peak level 99.7 %
     Track quality 100.0 %
     Test CRC B823CEF6
     Copy CRC B823CEF6
     Copy OK

Track 18
     Filename C:\Users\frenchkick\Desktop\18 - Dead Bodies.wav

     Peak level 98.8 %
     Track quality 100.0 %
     Test CRC A628815A
     Copy CRC A628815A
     Copy OK

Track 19
     Filename C:\Users\frenchkick\Desktop\19 - Rigged on a Fix.wav

     Peak level 91.2 %
     Track quality 100.0 %
     Test CRC 134BF864
     Copy CRC 134BF864
     Copy OK

Track 20
     Filename C:\Users\frenchkick\Desktop\20 - Young Al Capone.wav

     Peak level 98.8 %
     Track quality 100.0 %
     Test CRC A997E018
     Copy CRC A997E018
     Copy OK

Track 21
     Filename C:\Users\frenchkick\Desktop\21 - Reconciliation.wav

     Peak level 98.8 %
     Track quality 100.0 %
     Test CRC 621D5020
     Copy CRC 621D5020
     Copy OK

Track 22
     Filename C:\Users\frenchkick\Desktop\22 - GGF.wav

     Peak level 98.8 %
     Track quality 100.0 %
     Test CRC B3656515
     Copy CRC B3656515
     Copy OK

No errors occured

End of status report
 

Код:

 
EAC extraction logfile from 13. March 2007, 21:38 for CD
Rancid / Rancid (2000)

Used drive  : HP      DVD Writer 740b   Adapter: 0  ID: 0
Read mode   : Secure with NO C2, accurate stream, disable cache
Read offset correction : 102
Overread into Lead-In and Lead-Out : No

Used output format : C:\Program Files\Exact Audio Copy\bin\flac.exe   (User Defined Encoder)
                     192 kBit/s
                     Additional command line options : -8 -A tukey(0.25) -A gauss(0.1875) -b 4096 -V -T "artist=%a" -T "title=%t" -T "album=%g" -T "date=%y" -T "tracknumber=%n" -T "genre=%m" %s --sector-align

Other options      :
    Fill up missing offset samples with silence : Yes
    Delete leading and trailing silent blocks : No
    Installed external ASPI interface

Track  1
     Filename C:\Users\frenchkick\Desktop\01 - Don Giovanni.wav

     Pre-gap length  0:00:02.00

     Peak level 98.8 %
     Track quality 100.0 %
     Test CRC 24121EFA
     Copy CRC 24121EFA
     Copy OK

Track  2
     Filename C:\Users\frenchkick\Desktop\02 - Disgruntled.wav

     Peak level 98.8 %
     Track quality 100.0 %
     Test CRC 1B9A6F17
     Copy CRC 1B9A6F17
     Copy OK

Track  3
     Filename C:\Users\frenchkick\Desktop\03 - It's Quite Alright.wav

     Peak level 98.8 %
     Track quality 100.0 %
     Test CRC E7083D85
     Copy CRC E7083D85
     Copy OK

Track  4
     Filename C:\Users\frenchkick\Desktop\04 - Let Me Go.wav

     Peak level 98.8 %
     Track quality 100.0 %
     Test CRC D1C5CF68
     Copy CRC D1C5CF68
     Copy OK

Track  5
     Filename C:\Users\frenchkick\Desktop\05 - I Am Forever.wav

     Peak level 98.8 %
     Track quality 100.0 %
     Test CRC 5FF93288
     Copy CRC 5FF93288
     Copy OK

Track  6
     Filename C:\Users\frenchkick\Desktop\06 - Poison.wav

     Peak level 98.8 %
     Track quality 100.0 %
     Test CRC E0776BA1
     Copy CRC E0776BA1
     Copy OK

Track  7
     Filename C:\Users\frenchkick\Desktop\07 - Loki.wav

     Peak level 98.8 %
     Track quality 100.0 %
     Test CRC 2B0F9218
     Copy CRC 2B0F9218
     Copy OK

Track  8
     Filename C:\Users\frenchkick\Desktop\08 - Blackhawk Down.wav

     Peak level 98.8 %
     Track quality 100.0 %
     Test CRC B6765A1A
     Copy CRC B6765A1A
     Copy OK

Track  9
     Filename C:\Users\frenchkick\Desktop\09 - Rwanda.wav

     Peak level 98.9 %
     Track quality 100.0 %
     Test CRC 2C6E230E
     Copy CRC 2C6E230E
     Copy OK

Track 10
     Filename C:\Users\frenchkick\Desktop\10 - Corruption.wav

     Peak level 97.2 %
     Track quality 100.0 %
     Test CRC D9FE4AB5
     Copy CRC D9FE4AB5
     Copy OK

Track 11
     Filename C:\Users\frenchkick\Desktop\11 - Antennas.wav

     Peak level 98.8 %
     Track quality 100.0 %
     Test CRC 69D47C99
     Copy CRC 69D47C99
     Copy OK

Track 12
     Filename C:\Users\frenchkick\Desktop\12 - Rattlesnake.wav

     Peak level 98.8 %
     Track quality 100.0 %
     Test CRC 1B98E066
     Copy CRC 1B98E066
     Copy OK

Track 13
     Filename C:\Users\frenchkick\Desktop\13 - Not to Regret.wav

     Peak level 98.8 %
     Track quality 100.0 %
     Test CRC 2B7975E5
     Copy CRC 2B7975E5
     Copy OK

Track 14
     Filename C:\Users\frenchkick\Desktop\14 - Radio Havanna.wav

     Peak level 99.4 %
     Track quality 100.0 %
     Test CRC 571B09E0
     Copy CRC 571B09E0
     Copy OK

Track 15
     Filename C:\Users\frenchkick\Desktop\15 - Axiom.wav

     Peak level 98.8 %
     Track quality 100.0 %
     Test CRC 16FBBB74
     Copy CRC 16FBBB74
     Copy OK

Track 16
     Filename C:\Users\frenchkick\Desktop\16 - Black Derby.wav

     Peak level 99.8 %
     Track quality 100.0 %
     Test CRC 5183156B
     Copy CRC 5183156B
     Copy OK

Track 17
     Filename C:\Users\frenchkick\Desktop\17 - Meteor of War.wav

     Peak level 99.7 %
     Track quality 100.0 %
     Test CRC B823CEF6
     Copy CRC B823CEF6
     Copy OK

Track 18
     Filename C:\Users\frenchkick\Desktop\18 - Dead Bodies.wav

     Peak level 98.8 %
     Track quality 100.0 %
     Test CRC A628815A
     Copy CRC A628815A
     Copy OK

Track 19
     Filename C:\Users\frenchkick\Desktop\19 - Rigged on a Fix.wav

     Peak level 91.2 %
     Track quality 100.0 %
     Test CRC 134BF864
     Copy CRC 134BF864
     Copy OK

Track 20
     Filename C:\Users\frenchkick\Desktop\20 - Young Al Capone.wav

     Peak level 98.8 %
     Track quality 100.0 %
     Test CRC A997E018
     Copy CRC A997E018
     Copy OK

Track 21
     Filename C:\Users\frenchkick\Desktop\21 - Reconciliation.wav

     Peak level 98.8 %
     Track quality 100.0 %
     Test CRC 621D5020
     Copy CRC 621D5020
     Copy OK

Track 22
     Filename C:\Users\frenchkick\Desktop\22 - GGF.wav

     Peak level 98.8 %
     Track quality 100.0 %
     Test CRC B3656515
     Copy CRC B3656515
     Copy OK

No errors occured

End of status report
 
01. NOFX - I'm The One
02. NOFX - Olympia, Wa
03. NOFX - Tenderloin
04. NOFX - Antennas
05. NOFX - Corazon De Oro
06. NOFX - Radio
07. Rancid - The Moron Brothers
08. Rancid - Stickin In My Eye
09. Rancid - Bob
10. Rancid - Don't Call Me White
11. Rancid - The Brews
12. Rancid - Vanilla Sex

Код:

EAC extraction logfile from 26. May 2007, 15:25 for CD
Various / NOFX-Rancid Split

Used drive  : SONY    DVD+-RW DW-Q58A   Adapter: 1  ID: 0
Read mode   : Secure with NO C2, accurate stream, disable cache
Read offset correction : 6
Overread into Lead-In and Lead-Out : No

Used output format : C:\Program Files\FLAC\flac.exe   (User Defined Encoder)
                     128 kBit/s
                     Additional command line options : -V -8 -T "artist=%a" -T "title=%t" -T "album=%g" -T "date=%y" -T "tracknumber=%n" -T "genre=%m" %s

Other options      :
    Fill up missing offset samples with silence : Yes
    Delete leading and trailing silent blocks : No
    Native Win32 interface for Win NT & 2000

Track  1
     Filename C:\Documents and Settings\Tommy Boy\My Documents\FLAC CDs\01 - NOFX - I'm The One.wav

     Pre-gap length  0:00:02.00

     Peak level 98.8 %
     Track quality 100.0 %
     Test CRC 2D50B4FD
     Copy CRC 2D50B4FD
     Copy OK

Track  2
     Filename C:\Documents and Settings\Tommy Boy\My Documents\FLAC CDs\02 - NOFX - Olympia, Wa.wav

     Peak level 100.0 %
     Track quality 100.0 %
     Test CRC 8883D50B
     Copy CRC 8883D50B
     Copy OK

Track  3
     Filename C:\Documents and Settings\Tommy Boy\My Documents\FLAC CDs\03 - NOFX - Tenderloin.wav

     Peak level 98.8 %
     Track quality 100.0 %
     Test CRC 975DCEEE
     Copy CRC 975DCEEE
     Copy OK

Track  4
     Filename C:\Documents and Settings\Tommy Boy\My Documents\FLAC CDs\04 - NOFX - Antennas.wav

     Peak level 98.8 %
     Track quality 99.8 %
     Test CRC BE9DDA93
     Copy CRC BE9DDA93
     Copy OK

Track  5
     Filename C:\Documents and Settings\Tommy Boy\My Documents\FLAC CDs\05 - NOFX - Corazon De Oro.wav

     Pre-gap length  0:00:01.02

     Peak level 98.8 %
     Track quality 100.0 %
     Test CRC 5C31680F
     Copy CRC 5C31680F
     Copy OK

Track  6
     Filename C:\Documents and Settings\Tommy Boy\My Documents\FLAC CDs\06 - NOFX - Radio.wav

     Peak level 98.8 %
     Track quality 100.0 %
     Test CRC 22BF522A
     Copy CRC 22BF522A
     Copy OK

Track  7
     Filename C:\Documents and Settings\Tommy Boy\My Documents\FLAC CDs\07 - Rancid - The Moron Brothers.wav

     Pre-gap length  0:00:01.02

     Peak level 98.8 %
     Track quality 100.0 %
     Test CRC 99FEBC92
     Copy CRC 99FEBC92
     Copy OK

Track  8
     Filename C:\Documents and Settings\Tommy Boy\My Documents\FLAC CDs\08 - Rancid - Stickin In My Eye.wav

     Peak level 98.8 %
     Track quality 100.0 %
     Test CRC B1E6EA14
     Copy CRC B1E6EA14
     Copy OK

Track  9
     Filename C:\Documents and Settings\Tommy Boy\My Documents\FLAC CDs\09 - Rancid - Bob.wav

     Peak level 98.8 %
     Track quality 99.9 %
     Test CRC BA0090D3
     Copy CRC BA0090D3
     Copy OK

Track 10
     Filename C:\Documents and Settings\Tommy Boy\My Documents\FLAC CDs\10 - Rancid - Don't Call Me White.wav

     Peak level 98.9 %
     Track quality 100.0 %
     Test CRC C28076BA
     Copy CRC C28076BA
     Copy OK

Track 11
     Filename C:\Documents and Settings\Tommy Boy\My Documents\FLAC CDs\11 - Rancid - The Brews.wav

     Peak level 98.8 %
     Track quality 100.0 %
     Test CRC E3438D3D
     Copy CRC E3438D3D
     Copy OK

Track 12
     Filename C:\Documents and Settings\Tommy Boy\My Documents\FLAC CDs\12 - Rancid - Vanilla Sex.wav

     Peak level 98.8 %
     Track quality 99.9 %
     Test CRC 8B96BD80
     Copy CRC 8B96BD80
     Copy OK

No errors occured

End of status report
 

Код:

 
REM GENRE Punk
REM DATE 2002
REM DISCID 7D06400C
REM COMMENT "ExactAudioCopy v0.95b4"
PERFORMER "Various"
TITLE "NOFX-Rancid Split"
FILE "01 - NOFX - I'm The One.wav" WAVE
  TRACK 01 AUDIO
    TITLE "NOFX - I'm The One"
    PERFORMER "NOFX - I'm The One"
    INDEX 01 00:00:00
FILE "02 - NOFX - Olympia, Wa.wav" WAVE
  TRACK 02 AUDIO
    TITLE "NOFX - Olympia, Wa"
    PERFORMER "NOFX - Olympia, Wa"
    INDEX 01 00:00:00
FILE "03 - NOFX - Tenderloin.wav" WAVE
  TRACK 03 AUDIO
    TITLE "NOFX - Tenderloin"
    PERFORMER "NOFX - Tenderloin"
    INDEX 01 00:00:00
FILE "04 - NOFX - Antennas.wav" WAVE
  TRACK 04 AUDIO
    TITLE "NOFX - Antennas"
    PERFORMER "NOFX - Antennas"
    INDEX 01 00:00:00
  TRACK 05 AUDIO
    TITLE "NOFX - Corazon De Oro"
    PERFORMER "NOFX - Corazon De Oro"
    INDEX 00 01:17:73
FILE "05 - NOFX - Corazon De Oro.wav" WAVE
    INDEX 01 00:00:00
FILE "06 - NOFX - Radio.wav" WAVE
  TRACK 06 AUDIO
    TITLE "NOFX - Radio"
    PERFORMER "NOFX - Radio"
    INDEX 01 00:00:00
  TRACK 07 AUDIO
    TITLE "Rancid - The Moron Brothers"
    PERFORMER "Rancid - The Moron Brothers"
    INDEX 00 02:50:70
FILE "07 - Rancid - The Moron Brothers.wav" WAVE
    INDEX 01 00:00:00
FILE "08 - Rancid - Stickin In My Eye.wav" WAVE
  TRACK 08 AUDIO
    TITLE "Rancid - Stickin In My Eye"
    PERFORMER "Rancid - Stickin In My Eye"
    INDEX 01 00:00:00
FILE "09 - Rancid - Bob.wav" WAVE
  TRACK 09 AUDIO
    TITLE "Rancid - Bob"
    PERFORMER "Rancid - Bob"
    INDEX 01 00:00:00
FILE "10 - Rancid - Don't Call Me White.wav" WAVE
  TRACK 10 AUDIO
    TITLE "Rancid - Don't Call Me White"
    PERFORMER "Rancid - Don't Call Me White"
    INDEX 01 00:00:00
FILE "11 - Rancid - The Brews.wav" WAVE
  TRACK 11 AUDIO
    TITLE "Rancid - The Brews"
    PERFORMER "Rancid - The Brews"
    INDEX 01 00:00:00
FILE "12 - Rancid - Vanilla Sex.wav" WAVE
  TRACK 12 AUDIO
    TITLE "Rancid - Vanilla Sex"
    PERFORMER "Rancid - Vanilla Sex"
    INDEX 01 00:00:00
01. Indestructible
02. Fall Back Down
03. Red Hoot Moon
04. Devid Courtney
05. Start Now
06. Out Of Control
07. Django
08. Arrested In Ahanghai
09. Travis Bickle
10. Memphis
11. Spirit Of '87
12. Ghost Band
13. Trepical London
14. Roadblock
15. Born Frustreted
16. Back Up Against The Wall
17. Ivory Coast
18. Stand Your Ground
19. Otherside

Код:

EAC extraction logfile from 13. June 2007, 18:02 for CD
Rancid / Indestructible

Used drive  : BENQ    DVD DD DW1640   Adapter: 2  ID: 0
Read mode   : Secure with NO C2, accurate stream, disable cache
Read offset correction : 618
Overread into Lead-In and Lead-Out : No

Used output format : C:\Program Files\FLAC\flac.exe   (User Defined Encoder)
                     320 kBit/s
                     Additional command line options : -V -8 -T "artist=%a" -T "title=%t" -T "album=%g" -T "date=%y" -T "tracknumber=%n" -T "genre=%m" %s

Other options      :
    Fill up missing offset samples with silence : Yes
    Delete leading and trailing silent blocks : No
    Installed external ASPI interface

Track  1
     Filename G:\Oink\FLAC\Rancid - Indestructible\Rancid - Indestructible - 01 - Indestructible.wav

     Pre-gap length  0:00:02.00

     Peak level 98.2 %
     Track quality 100.0 %
     Test CRC 0FC45B63
     Copy CRC 0FC45B63
     Copy OK

Track  2
     Filename G:\Oink\FLAC\Rancid - Indestructible\Rancid - Indestructible - 02 - Fall Back Down.wav

     Peak level 97.9 %
     Track quality 100.0 %
     Test CRC F3FF65A8
     Copy CRC F3FF65A8
     Copy OK

Track  3
     Filename G:\Oink\FLAC\Rancid - Indestructible\Rancid - Indestructible - 03 - Red Hot Moon.wav

     Peak level 99.5 %
     Track quality 100.0 %
     Test CRC 49A43950
     Copy CRC 49A43950
     Copy OK

Track  4
     Filename G:\Oink\FLAC\Rancid - Indestructible\Rancid - Indestructible - 04 - David Courtney.wav

     Peak level 99.5 %
     Track quality 100.0 %
     Test CRC 091E1E9B
     Copy CRC 091E1E9B
     Copy OK

Track  5
     Filename G:\Oink\FLAC\Rancid - Indestructible\Rancid - Indestructible - 05 - Start Now.wav

     Pre-gap length  0:00:00.68

     Peak level 98.8 %
     Track quality 100.0 %
     Test CRC 376696D2
     Copy CRC 376696D2
     Copy OK

Track  6
     Filename G:\Oink\FLAC\Rancid - Indestructible\Rancid - Indestructible - 06 - Out Of Control.wav

     Peak level 96.5 %
     Track quality 100.0 %
     Test CRC 0A6D7603
     Copy CRC 0A6D7603
     Copy OK

Track  7
     Filename G:\Oink\FLAC\Rancid - Indestructible\Rancid - Indestructible - 07 - Django.wav

     Peak level 99.6 %
     Track quality 99.9 %
     Test CRC 34A21C7F
     Copy CRC 34A21C7F
     Copy OK

Track  8
     Filename G:\Oink\FLAC\Rancid - Indestructible\Rancid - Indestructible - 08 - Arrested In Shanghai.wav

     Peak level 99.6 %
     Track quality 100.0 %
     Test CRC 15A68191
     Copy CRC 15A68191
     Copy OK

Track  9
     Filename G:\Oink\FLAC\Rancid - Indestructible\Rancid - Indestructible - 09 - Travis Bickle.wav

     Peak level 99.5 %
     Track quality 100.0 %
     Test CRC A87CBFE1
     Copy CRC A87CBFE1
     Copy OK

Track 10
     Filename G:\Oink\FLAC\Rancid - Indestructible\Rancid - Indestructible - 10 - Memphis.wav

     Peak level 99.5 %
     Track quality 100.0 %
     Test CRC 886C26E7
     Copy CRC 886C26E7
     Copy OK

Track 11
     Filename G:\Oink\FLAC\Rancid - Indestructible\Rancid - Indestructible - 11 - Spirit Of '87.wav

     Peak level 99.3 %
     Track quality 99.9 %
     Test CRC 47C25C05
     Copy CRC 47C25C05
     Copy OK

Track 12
     Filename G:\Oink\FLAC\Rancid - Indestructible\Rancid - Indestructible - 12 - Ghost Band.wav

     Peak level 99.5 %
     Track quality 99.8 %
     Test CRC 6205D14E
     Copy CRC 6205D14E
     Copy OK

Track 13
     Filename G:\Oink\FLAC\Rancid - Indestructible\Rancid - Indestructible - 13 - Tropical London.wav

     Peak level 97.3 %
     Track quality 99.9 %
     Test CRC 9E9E2931
     Copy CRC 9E9E2931
     Copy OK

Track 14
     Filename G:\Oink\FLAC\Rancid - Indestructible\Rancid - Indestructible - 14 - Roadblock.wav

     Peak level 98.4 %
     Track quality 99.9 %
     Test CRC 40C0C33D
     Copy CRC 40C0C33D
     Copy OK

Track 15
     Filename G:\Oink\FLAC\Rancid - Indestructible\Rancid - Indestructible - 15 - Born Frustrated.wav

     Peak level 97.9 %
     Track quality 100.0 %
     Test CRC 63239F30
     Copy CRC 63239F30
     Copy OK

Track 16
     Filename G:\Oink\FLAC\Rancid - Indestructible\Rancid - Indestructible - 16 - Back Up Against The Wall.wav

     Peak level 98.7 %
     Track quality 100.0 %
     Test CRC A7F8E1E2
     Copy CRC A7F8E1E2
     Copy OK

Track 17
     Filename G:\Oink\FLAC\Rancid - Indestructible\Rancid - Indestructible - 17 - Ivory Coast.wav

     Peak level 98.5 %
     Track quality 100.0 %
     Test CRC 446D1106
     Copy CRC 446D1106
     Copy OK

Track 18
     Filename G:\Oink\FLAC\Rancid - Indestructible\Rancid - Indestructible - 18 - Stand Your Ground.wav

     Peak level 98.8 %
     Track quality 100.0 %
     Test CRC 3AC13D59
     Copy CRC 3AC13D59
     Copy OK

Track 19
     Filename G:\Oink\FLAC\Rancid - Indestructible\Rancid - Indestructible - 19 - Otherside.wav

     Pre-gap length  0:00:00.44

     Peak level 99.5 %
     Track quality 100.0 %
     Test CRC 3508F2C3
     Copy CRC 3508F2C3
     Copy OK

No errors occured

End of status report
 

Код:

 
REM GENRE Punk
REM DATE 2003
REM DISCID FD0C5913
REM COMMENT "ExactAudioCopy v0.95b4"
PERFORMER "Rancid"
TITLE "Indestructible"
FILE "Rancid - Indestructible\Rancid - Indestructible - 01 - Indestructible.wav" WAVE
  TRACK 01 AUDIO
    TITLE "Indestructible"
    PERFORMER "Rancid"
    INDEX 01 00:00:00
FILE "Rancid - Indestructible\Rancid - Indestructible - 02 - Fall Back Down.wav" WAVE
  TRACK 02 AUDIO
    TITLE "Fall Back Down"
    PERFORMER "Rancid"
    FLAGS DCP
    INDEX 01 00:00:00
FILE "Rancid - Indestructible\Rancid - Indestructible - 03 - Red Hot Moon.wav" WAVE
  TRACK 03 AUDIO
    TITLE "Red Hot Moon"
    PERFORMER "Rancid"
    FLAGS DCP
    INDEX 01 00:00:00
FILE "Rancid - Indestructible\Rancid - Indestructible - 04 - David Courtney.wav" WAVE
  TRACK 04 AUDIO
    TITLE "David Courtney"
    PERFORMER "Rancid"
    FLAGS DCP
    INDEX 01 00:00:00
  TRACK 05 AUDIO
    TITLE "Start Now"
    PERFORMER "Rancid"
    FLAGS DCP
    INDEX 00 02:43:39
FILE "Rancid - Indestructible\Rancid - Indestructible - 05 - Start Now.wav" WAVE
    INDEX 01 00:00:00
FILE "Rancid - Indestructible\Rancid - Indestructible - 06 - Out Of Control.wav" WAVE
  TRACK 06 AUDIO
    TITLE "Out Of Control"
    PERFORMER "Rancid"
    FLAGS DCP
    INDEX 01 00:00:00
FILE "Rancid - Indestructible\Rancid - Indestructible - 07 - Django.wav" WAVE
  TRACK 07 AUDIO
    TITLE "Django"
    PERFORMER "Rancid"
    FLAGS DCP
    INDEX 01 00:00:00
FILE "Rancid - Indestructible\Rancid - Indestructible - 08 - Arrested In Shanghai.wav" WAVE
  TRACK 08 AUDIO
    TITLE "Arrested In Shanghai"
    PERFORMER "Rancid"
    FLAGS DCP
    INDEX 01 00:00:00
FILE "Rancid - Indestructible\Rancid - Indestructible - 09 - Travis Bickle.wav" WAVE
  TRACK 09 AUDIO
    TITLE "Travis Bickle"
    PERFORMER "Rancid"
    FLAGS DCP
    INDEX 01 00:00:00
FILE "Rancid - Indestructible\Rancid - Indestructible - 10 - Memphis.wav" WAVE
  TRACK 10 AUDIO
    TITLE "Memphis"
    PERFORMER "Rancid"
    FLAGS DCP
    INDEX 01 00:00:00
FILE "Rancid - Indestructible\Rancid - Indestructible - 11 - Spirit Of '87.wav" WAVE
  TRACK 11 AUDIO
    TITLE "Spirit Of '87"
    PERFORMER "Rancid"
    FLAGS DCP
    INDEX 01 00:00:00
FILE "Rancid - Indestructible\Rancid - Indestructible - 12 - Ghost Band.wav" WAVE
  TRACK 12 AUDIO
    TITLE "Ghost Band"
    PERFORMER "Rancid"
    FLAGS DCP
    INDEX 01 00:00:00
FILE "Rancid - Indestructible\Rancid - Indestructible - 13 - Tropical London.wav" WAVE
  TRACK 13 AUDIO
    TITLE "Tropical London"
    PERFORMER "Rancid"
    FLAGS DCP
    INDEX 01 00:00:00
FILE "Rancid - Indestructible\Rancid - Indestructible - 14 - Roadblock.wav" WAVE
  TRACK 14 AUDIO
    TITLE "Roadblock"
    PERFORMER "Rancid"
    FLAGS DCP
    INDEX 01 00:00:00
FILE "Rancid - Indestructible\Rancid - Indestructible - 15 - Born Frustrated.wav" WAVE
  TRACK 15 AUDIO
    TITLE "Born Frustrated"
    PERFORMER "Rancid"
    FLAGS DCP
    INDEX 01 00:00:00
FILE "Rancid - Indestructible\Rancid - Indestructible - 16 - Back Up Against The Wall.wav" WAVE
  TRACK 16 AUDIO
    TITLE "Back Up Against The Wall"
    PERFORMER "Rancid"
    FLAGS DCP
    INDEX 01 00:00:00
FILE "Rancid - Indestructible\Rancid - Indestructible - 17 - Ivory Coast.wav" WAVE
  TRACK 17 AUDIO
    TITLE "Ivory Coast"
    PERFORMER "Rancid"
    FLAGS DCP
    INDEX 01 00:00:00
FILE "Rancid - Indestructible\Rancid - Indestructible - 18 - Stand Your Ground.wav" WAVE
  TRACK 18 AUDIO
    TITLE "Stand Your Ground"
    PERFORMER "Rancid"
    FLAGS DCP
    INDEX 01 00:00:00
  TRACK 19 AUDIO
    TITLE "Otherside"
    PERFORMER "Rancid"
    FLAGS DCP
    INDEX 00 03:24:00
FILE "Rancid - Indestructible\Rancid - Indestructible - 19 - Otherside.wav" WAVE
    INDEX 01 00:00:00
1. Ben Zanotto
2. Stop
3. Devils Dance
4. Dead And Gone
5. Stranded
6. Killing Zone
7. 100 Years
8. Things To Come
9. Blast Em
10. Endrina
11. White Knuckle Ride
12. Sick Sick World
13. Tattoo
14. Thats Entertainment
15. Clockwork Orange
16. The Brothels
17. Just A Feeling
18. Brixton
19. Empros Lap Dog
20. I Wanna Riot
21. Kill The Lights

Код:

Exact Audio Copy V0.99 prebeta 3 from 28. July 2007

EAC extraction logfile from 10. April 2008, 2:20

Rancid / B sides and C sides

Used drive  : PIONEER DVD-RW  DVR-111D   Adapter: 1  ID: 0

Read mode               : Secure
Utilize accurate stream : Yes
Defeat audio cache      : Yes
Make use of C2 pointers : No

Read offset correction                      : 48
Overread into Lead-In and Lead-Out          : No
Fill up missing offset samples with silence : Yes
Delete leading and trailing silent blocks   : No
Null samples used in CRC calculations       : Yes
Used interface                              : Installed external ASPI interface
Gap handling                                : Appended to previous track

Used output format              : User Defined Encoder
Selected bitrate                : 192 kBit/s
Quality                         : High
Add ID3 tag                     : No
Command line compressor         : C:\Program Files (x86)\Exact Audio Copy\flac.exe
Additional command line options : -8 -A tukey(0.25) -A gauss(0.1875) -b 4096 -V -T "artist=%a" -T "title=%t" -T "album=%g" -T "date=%y" -T "tracknumber=%n" -T "genre=%m" %s --sector-align

TOC of the extracted CD

     Track |   Start  |  Length  | Start sector | End sector
    ---------------------------------------------------------
        1  |  0:00.00 |  2:02.59 |         0    |     9208   
        2  |  2:02.59 |  1:41.45 |      9209    |    16828   
        3  |  3:44.29 |  3:03.67 |     16829    |    30620   
        4  |  6:48.21 |  2:06.47 |     30621    |    40117   
        5  |  8:54.68 |  2:24.49 |     40118    |    50966   
        6  | 11:19.42 |  2:39.34 |     50967    |    62925   
        7  | 13:59.01 |  1:56.43 |     62926    |    71668   
        8  | 15:55.44 |  3:09.35 |     71669    |    85878   
        9  | 19:05.04 |  2:29.16 |     85879    |    97069   
       10  | 21:34.20 |  1:14.16 |     97070    |   102635   
       11  | 22:48.36 |  1:24.55 |    102636    |   108990   
       12  | 24:13.16 |  1:16.36 |    108991    |   114726   
       13  | 25:29.52 |  2:05.70 |    114727    |   124171   
       14  | 27:35.47 |  1:29.29 |    124172    |   130875   
       15  | 29:05.01 |  2:45.22 |    130876    |   143272   
       16  | 31:50.23 |  2:57.34 |    143273    |   156581   
       17  | 34:47.57 |  1:56.67 |    156582    |   165348   
       18  | 36:44.49 |  2:25.56 |    165349    |   176279   
       19  | 39:10.30 |  1:54.21 |    176280    |   184850   
       20  | 41:04.51 |  3:06.20 |    184851    |   198820   
       21  | 44:10.71 |  1:18.56 |    198821    |   204726   

Track  1

     Filename D:\EAC\FLAC\B sides and C sides\01 - Rancid - Ben Zanotto.wav

     Pre-gap length  0:00:02.00

     Peak level 94.4 %
     Track quality 100.0 %
     Test CRC A521B3FB
     Copy CRC A521B3FB
     Track not present in AccurateRip database
     Copy OK

Track  2

     Filename D:\EAC\FLAC\B sides and C sides\02 - Rancid - Stop.wav

     Peak level 100.0 %
     Track quality 99.8 %
     Test CRC B221EFD2
     Copy CRC B221EFD2
     Track not present in AccurateRip database
     Copy OK

Track  3

     Filename D:\EAC\FLAC\B sides and C sides\03 - Rancid - Devils Dance.wav

     Pre-gap length  0:00:00.41

     Peak level 99.9 %
     Track quality 100.0 %
     Test CRC FE4F8567
     Copy CRC FE4F8567
     Track not present in AccurateRip database
     Copy OK

Track  4

     Filename D:\EAC\FLAC\B sides and C sides\04 - Rancid - Dead And Gone.wav

     Peak level 94.4 %
     Track quality 100.0 %
     Test CRC 56866F00
     Copy CRC 56866F00
     Track not present in AccurateRip database
     Copy OK

Track  5

     Filename D:\EAC\FLAC\B sides and C sides\05 - Rancid - Stranded.wav

     Peak level 99.9 %
     Track quality 100.0 %
     Test CRC ADEC09C3
     Copy CRC ADEC09C3
     Track not present in AccurateRip database
     Copy OK

Track  6

     Filename D:\EAC\FLAC\B sides and C sides\06 - Rancid - Killing Zone.wav

     Peak level 99.9 %
     Track quality 100.0 %
     Test CRC C09822EF
     Copy CRC C09822EF
     Track not present in AccurateRip database
     Copy OK

Track  7

     Filename D:\EAC\FLAC\B sides and C sides\07 - Rancid - 100 Years.wav

     Peak level 99.9 %
     Track quality 99.9 %
     Test CRC 54D240EB
     Copy CRC 54D240EB
     Track not present in AccurateRip database
     Copy OK

Track  8

     Filename D:\EAC\FLAC\B sides and C sides\08 - Rancid - Things To Come.wav

     Peak level 97.0 %
     Track quality 100.0 %
     Test CRC 84DB2192
     Copy CRC 84DB2192
     Track not present in AccurateRip database
     Copy OK

Track  9

     Filename D:\EAC\FLAC\B sides and C sides\09 - Rancid - Blast 'Em.wav

     Peak level 99.9 %
     Track quality 100.0 %
     Test CRC 4FABB497
     Copy CRC 4FABB497
     Track not present in AccurateRip database
     Copy OK

Track 10

     Filename D:\EAC\FLAC\B sides and C sides\10 - Rancid - Endrina.wav

     Peak level 99.9 %
     Track quality 100.0 %
     Test CRC 6839F88E
     Copy CRC 6839F88E
     Track not present in AccurateRip database
     Copy OK

Track 11

     Filename D:\EAC\FLAC\B sides and C sides\11 - Rancid - White Knuckle Ride.wav

     Peak level 99.9 %
     Track quality 100.0 %
     Test CRC A2BC1F84
     Copy CRC A2BC1F84
     Track not present in AccurateRip database
     Copy OK

Track 12

     Filename D:\EAC\FLAC\B sides and C sides\12 - Rancid - Sick Sick World.wav

     Peak level 99.9 %
     Track quality 100.0 %
     Test CRC B27E9FBB
     Copy CRC B27E9FBB
     Track not present in AccurateRip database
     Copy OK

Track 13

     Filename D:\EAC\FLAC\B sides and C sides\13 - Rancid - Tattoo.wav

     Peak level 99.9 %
     Track quality 100.0 %
     Test CRC 6813B25B
     Copy CRC 6813B25B
     Track not present in AccurateRip database
     Copy OK

Track 14

     Filename D:\EAC\FLAC\B sides and C sides\14 - Rancid - That's Entertainment.wav

     Peak level 100.0 %
     Track quality 100.0 %
     Test CRC 3A6E09FE
     Copy CRC 3A6E09FE
     Track not present in AccurateRip database
     Copy OK

Track 15

     Filename D:\EAC\FLAC\B sides and C sides\15 - Rancid - Clockwork Orange.wav

     Pre-gap length  0:00:00.16

     Peak level 100.0 %
     Track quality 100.0 %
     Test CRC 681C2320
     Copy CRC 681C2320
     Track not present in AccurateRip database
     Copy OK

Track 16

     Filename D:\EAC\FLAC\B sides and C sides\16 - Rancid - The Brothels.wav

     Peak level 99.9 %
     Track quality 100.0 %
     Test CRC CEF0E5E0
     Copy CRC CEF0E5E0
     Track not present in AccurateRip database
     Copy OK

Track 17

     Filename D:\EAC\FLAC\B sides and C sides\17 - Rancid - Just A Feeling.wav

     Pre-gap length  0:00:01.46

     Peak level 99.9 %
     Track quality 99.9 %
     Test CRC 52DEA3D6
     Copy CRC 52DEA3D6
     Track not present in AccurateRip database
     Copy OK

Track 18

     Filename D:\EAC\FLAC\B sides and C sides\18 - Rancid - Brixton.wav

     Peak level 100.0 %
     Track quality 100.0 %
     Test CRC 5FCCF40F
     Copy CRC 5FCCF40F
     Track not present in AccurateRip database
     Copy OK

Track 19

     Filename D:\EAC\FLAC\B sides and C sides\19 - Rancid - Empro's Lap Dog.wav

     Peak level 100.0 %
     Track quality 100.0 %
     Test CRC 8281BBEB
     Copy CRC 8281BBEB
     Track not present in AccurateRip database
     Copy OK

Track 20

     Filename D:\EAC\FLAC\B sides and C sides\20 - Rancid - I Wanna Riot.wav

     Peak level 99.9 %
     Track quality 99.9 %
     Test CRC 151F5603
     Copy CRC 151F5603
     Track not present in AccurateRip database
     Copy OK

Track 21

     Filename D:\EAC\FLAC\B sides and C sides\21 - Rancid - Kill The Lights.wav

     Peak level 99.9 %
     Track quality 100.0 %
     Test CRC EDE9846C
     Copy CRC EDE9846C
     Track not present in AccurateRip database
     Copy OK

None of the tracks are present in the AccurateRip database

No errors occurred

End of status report
 

Код:

 
REM DISCID 180AA915
REM COMMENT "ExactAudioCopy v0.99pb3"
PERFORMER "Rancid"
TITLE "B sides and C sides"
FILE "01 - Rancid - Ben Zanotto.wav" WAVE
  TRACK 01 AUDIO
    TITLE "Ben Zanotto"
    PERFORMER "Rancid"
    INDEX 01 00:00:00
FILE "02 - Rancid - Stop.wav" WAVE
  TRACK 02 AUDIO
    TITLE "Stop"
    PERFORMER "Rancid"
    INDEX 01 00:00:00
  TRACK 03 AUDIO
    TITLE "Devils Dance"
    PERFORMER "Rancid"
    INDEX 00 01:41:14
FILE "03 - Rancid - Devils Dance.wav" WAVE
    INDEX 01 00:00:00
FILE "04 - Rancid - Dead And Gone.wav" WAVE
  TRACK 04 AUDIO
    TITLE "Dead And Gone"
    PERFORMER "Rancid"
    INDEX 01 00:00:00
FILE "05 - Rancid - Stranded.wav" WAVE
  TRACK 05 AUDIO
    TITLE "Stranded"
    PERFORMER "Rancid"
    INDEX 01 00:00:00
FILE "06 - Rancid - Killing Zone.wav" WAVE
  TRACK 06 AUDIO
    TITLE "Killing Zone"
    PERFORMER "Rancid"
    INDEX 01 00:00:00
FILE "07 - Rancid - 100 Years.wav" WAVE
  TRACK 07 AUDIO
    TITLE "100 Years"
    PERFORMER "Rancid"
    INDEX 01 00:00:00
FILE "08 - Rancid - Things To Come.wav" WAVE
  TRACK 08 AUDIO
    TITLE "Things To Come"
    PERFORMER "Rancid"
    INDEX 01 00:00:00
FILE "09 - Rancid - Blast 'Em.wav" WAVE
  TRACK 09 AUDIO
    TITLE "Blast 'Em"
    PERFORMER "Rancid"
    INDEX 01 00:00:00
FILE "10 - Rancid - Endrina.wav" WAVE
  TRACK 10 AUDIO
    TITLE "Endrina "
    PERFORMER "Rancid"
    INDEX 01 00:00:00
FILE "11 - Rancid - White Knuckle Ride.wav" WAVE
  TRACK 11 AUDIO
    TITLE "White Knuckle Ride"
    PERFORMER "Rancid"
    INDEX 01 00:00:00
FILE "12 - Rancid - Sick Sick World.wav" WAVE
  TRACK 12 AUDIO
    TITLE "Sick Sick World"
    PERFORMER "Rancid"
    INDEX 01 00:00:00
FILE "13 - Rancid - Tattoo.wav" WAVE
  TRACK 13 AUDIO
    TITLE "Tattoo"
    PERFORMER "Rancid"
    INDEX 01 00:00:00
FILE "14 - Rancid - That's Entertainment.wav" WAVE
  TRACK 14 AUDIO
    TITLE "That's Entertainment"
    PERFORMER "Rancid"
    INDEX 01 00:00:00
  TRACK 15 AUDIO
    TITLE "Clockwork Orange"
    PERFORMER "Rancid"
    INDEX 00 01:29:17
FILE "15 - Rancid - Clockwork Orange.wav" WAVE
    INDEX 01 00:00:00
FILE "16 - Rancid - The Brothels.wav" WAVE
  TRACK 16 AUDIO
    TITLE "The Brothels"
    PERFORMER "Rancid"
    INDEX 01 00:00:00
  TRACK 17 AUDIO
    TITLE "Just A Feeling"
    PERFORMER "Rancid"
    INDEX 00 02:55:74
FILE "17 - Rancid - Just A Feeling.wav" WAVE
    INDEX 01 00:00:00
FILE "18 - Rancid - Brixton.wav" WAVE
  TRACK 18 AUDIO
    TITLE "Brixton"
    PERFORMER "Rancid"
    INDEX 01 00:00:00
FILE "19 - Rancid - Empro's Lap Dog.wav" WAVE
  TRACK 19 AUDIO
    TITLE "Empro's Lap Dog"
    PERFORMER "Rancid"
    INDEX 01 00:00:00
FILE "20 - Rancid - I Wanna Riot.wav" WAVE
  TRACK 20 AUDIO
    TITLE "I Wanna Riot"
    PERFORMER "Rancid"
    INDEX 01 00:00:00
FILE "21 - Rancid - Kill The Lights.wav" WAVE
  TRACK 21 AUDIO
    TITLE "Kill The Lights"
    PERFORMER "Rancid"
    INDEX 01 00:00:00
01. East Bay Night (2:05)
02. This Place (1:03)
03. Up To No Good (2:40)
04. Last One To Die (2:23)
05. Disconnected (2:00)
06. I Ain't Worried (2:36)
07. Damnation (1:30)
08. New Orleans (3:04)
09. Civilian Ways (4:11)
10. The Bravest Kids (1:36)
11. Skull City (2:51)
12. L.A. River (2:35)
13. Lulu (2:11)
14. Dominoes Fall (2:43)
15. Liberty And Freedom (2:45)
16. You Want It, You Got It (1:36)
17. Locomotive (1:38)
18. That's Just The Way It Is Now (2:52)
19. The Highway (3:10)

Код:

AUDIOCHECKER v2.0 beta (build 457) - by Dester - opdester@freemail.hu
~~~~~~~~~~~~~~~~~~~~~~~~~~~~~~~~~~
-=== НЕ РЕДАКТИРУЙТЕ ЭТОТ ФАЙЛ! ===-

Путь: ...\2009 - Let The Dominoes Fall

01 -=- (01) [Rancid] East Bay Night.flac -=- CDDA (100%)
02 -=- (02) [Rancid] This Place.flac -=- CDDA (100%)
03 -=- (03) [Rancid] Up To No Good.flac -=- CDDA (99%)
04 -=- (04) [Rancid] Last One To Die.flac -=- CDDA (100%)
05 -=- (05) [Rancid] Disconnected.flac -=- CDDA (100%)
06 -=- (06) [Rancid] I Ain't Worried.flac -=- CDDA (100%)
07 -=- (07) [Rancid] Damnation.flac -=- CDDA (100%)
08 -=- (08) [Rancid] New Orleans.flac -=- CDDA (100%)
09 -=- (09) [Rancid] Civilian Ways.flac -=- CDDA (100%)
10 -=- (10) [Rancid] The Bravest Kids.flac -=- CDDA (100%)
11 -=- (11) [Rancid] Skull City.flac -=- CDDA (100%)
12 -=- (12) [Rancid] L.A. River.flac -=- CDDA (100%)
13 -=- (13) [Rancid] Lulu.flac -=- CDDA (100%)
14 -=- (14) [Rancid] Dominoes Fall.flac -=- CDDA (100%)
15 -=- (15) [Rancid] Liberty And Freedom.flac -=- CDDA (100%)
16 -=- (16) [Rancid] You Want It, You Got It.flac -=- CDDA (100%)
17 -=- (17) [Rancid] Locomotive.flac -=- CDDA (100%)
18 -=- (18) [Rancid] That's Just The Way It Is Now.flac -=- CDDA (100%)
19 -=- (19) [Rancid] The Highway.flac -=- CDDA (99%)

Сводка 99,89% CDDA

162094164

Код:

 
REM GENRE Punk
REM DATE 2009
REM DISCID 090AB213
REM COMMENT "ExactAudioCopy v0.99pb4"
TITLE "Let The Dominoes Fall"
PERFORMER Rancid
FILE "(01) [Rancid] East Bay Night.flac" WAVE
  TRACK 01 AUDIO
    TITLE "East Bay Night"
    PERFORMER Rancid
    INDEX 01 00:00:00
FILE "(02) [Rancid] This Place.flac" WAVE
  TRACK 02 AUDIO
    TITLE "This Place"
    PERFORMER Rancid
    INDEX 01 00:00:00
FILE "(03) [Rancid] Up To No Good.flac" WAVE
  TRACK 03 AUDIO
    TITLE "Up To No Good"
    PERFORMER Rancid
    INDEX 01 00:00:00
FILE "(04) [Rancid] Last One To Die.flac" WAVE
  TRACK 04 AUDIO
    TITLE "Last One To Die"
    PERFORMER Rancid
    INDEX 01 00:00:00
FILE "(05) [Rancid] Disconnected.flac" WAVE
  TRACK 05 AUDIO
    TITLE Disconnected
    PERFORMER Rancid
    INDEX 01 00:00:00
FILE "(06) [Rancid] I Ain't Worried.flac" WAVE
  TRACK 06 AUDIO
    TITLE "I Ain't Worried"
    PERFORMER Rancid
    INDEX 01 00:00:00
FILE "(07) [Rancid] Damnation.flac" WAVE
  TRACK 07 AUDIO
    TITLE Damnation
    PERFORMER Rancid
    INDEX 01 00:00:00
FILE "(08) [Rancid] New Orleans.flac" WAVE
  TRACK 08 AUDIO
    TITLE "New Orleans"
    PERFORMER Rancid
    INDEX 01 00:00:00
FILE "(09) [Rancid] Civilian Ways.flac" WAVE
  TRACK 09 AUDIO
    TITLE "Civilian Ways"
    PERFORMER Rancid
    PREGAP 00:01:24
    INDEX 01 00:00:00
FILE "(10) [Rancid] The Bravest Kids.flac" WAVE
  TRACK 10 AUDIO
    TITLE "The Bravest Kids"
    PERFORMER Rancid
    INDEX 01 00:00:00
FILE "(11) [Rancid] Skull City.flac" WAVE
  TRACK 11 AUDIO
    TITLE "Skull City"
    PERFORMER Rancid
    INDEX 01 00:00:00
FILE "(12) [Rancid] L.A. River.flac" WAVE
  TRACK 12 AUDIO
    TITLE "L.A. River"
    PERFORMER Rancid
    INDEX 01 00:00:00
FILE "(13) [Rancid] Lulu.flac" WAVE
  TRACK 13 AUDIO
    TITLE Lulu
    PERFORMER Rancid
    PREGAP 00:01:24
    INDEX 01 00:00:00
FILE "(14) [Rancid] Dominoes Fall.flac" WAVE
  TRACK 14 AUDIO
    TITLE "Dominoes Fall"
    PERFORMER Rancid
    INDEX 01 00:00:00
FILE "(15) [Rancid] Liberty And Freedom.flac" WAVE
  TRACK 15 AUDIO
    TITLE "Liberty And Freedom"
    PERFORMER Rancid
    INDEX 01 00:00:00
FILE "(16) [Rancid] You Want It, You Got It.flac" WAVE
  TRACK 16 AUDIO
    TITLE "You Want It, You Got It"
    PERFORMER Rancid
    INDEX 01 00:00:00
FILE "(17) [Rancid] Locomotive.flac" WAVE
  TRACK 17 AUDIO
    TITLE Locomotive
    PERFORMER Rancid
    INDEX 01 00:00:00
FILE "(18) [Rancid] That's Just The Way It Is Now.flac" WAVE
  TRACK 18 AUDIO
    TITLE "That's Just The Way It Is Now"
    PERFORMER Rancid
    INDEX 01 00:00:00
FILE "(19) [Rancid] The Highway.flac" WAVE
  TRACK 19 AUDIO
    TITLE "The Highway"
    PERFORMER Rancid
    INDEX 01 00:00:00
 
01. East Bay Night (2:07)
02. L.A. River (2:43)
03. I Ain't Worried (2:44)
04. This Place (1:04)
05. Disconnected (1:54)
06. Liberty And Freedom (3:05)
07. Dominoes Fall (2:55)
08. New Orleans (2:49)
09. You Want It, You Got It (2:12)
10. Outgunned (2:16)
11. The Bravest Kids (1:34)
12. Last One To Die (2:18)

Код:

Syrup 0.9.9.44, Track.cfg v.0992
Exact Audio Copy V0.99 prebeta 4 from 23. January 2008

EAC extraction logfile from 1. June 2009, 19:59

Rancid / Let The Dominoes Fall (Acoustic)

Used drive  : MATSHITADVD-RAM UJ-850S   Adapter: 0  ID: 0

Read mode               : Secure
Utilize accurate stream : Yes
Defeat audio cache      : Yes
Make use of C2 pointers : No

Read offset correction                      : 102
Overread into Lead-In and Lead-Out          : No
Fill up missing offset samples with silence : Yes
Delete leading and trailing silent blocks   : No
Null samples used in CRC calculations       : Yes
Used interface                              : Native Win32 interface for Win NT & 2000
Gap handling                                : Appended to previous track

Used output format              : User Defined Encoder
Selected bitrate                : 128 kBit/s
Quality                         : High
Add ID3 tag                     : No
Command line compressor         : C:\Program Files\Exact Audio Copy\Syrup\Syrup.exe
Additional command line options : REACT %o %s %d "%a" "%g" "%t" "%n" "%x" "%y" "%m" "%e" "%f" "%b" %r

TOC of the extracted CD

     Track |   Start  |  Length  | Start sector | End sector
    ---------------------------------------------------------
        1  |  0:00.00 |  2:07.17 |         0    |     9541   
        2  |  2:07.17 |  2:43.22 |      9542    |    21788   
        3  |  4:50.39 |  2:44.10 |     21789    |    34098   
        4  |  7:34.49 |  1:03.61 |     34099    |    38884   
        5  |  8:38.35 |  1:53.40 |     38885    |    47399   
        6  | 10:32.00 |  3:04.51 |     47400    |    61250   
        7  | 13:36.51 |  2:54.65 |     61251    |    74365   
        8  | 16:31.41 |  2:48.58 |     74366    |    87023   
        9  | 19:20.24 |  2:12.26 |     87024    |    96949   
       10  | 21:32.50 |  2:16.30 |     96950    |   107179   
       11  | 23:49.05 |  1:34.02 |    107180    |   114231   
       12  | 25:23.07 |  2:18.26 |    114232    |   124607   

Track  1

     Filename C:\Documents and Settings\Shaun\My Documents\Rancid - Let The Dominoes Fall (Acoustic) - 01 - East Bay Night.wav

     Pre-gap length  0:00:02.00

     Peak level 99.9 %
     Track quality 100.0 %
     Test CRC 023E0E45
     Copy CRC 023E0E45
     Track not present in AccurateRip database
     Copy OK

Track  2

     Filename C:\Documents and Settings\Shaun\My Documents\Rancid - Let The Dominoes Fall (Acoustic) - 02 - L.A. River.wav

     Pre-gap length  0:00:02.06

     Peak level 99.8 %
     Track quality 100.0 %
     Test CRC 6F1C64FD
     Copy CRC 6F1C64FD
     Track not present in AccurateRip database
     Copy OK

Track  3

     Filename C:\Documents and Settings\Shaun\My Documents\Rancid - Let The Dominoes Fall (Acoustic) - 03 - I Ain't Worried.wav

     Peak level 99.8 %
     Track quality 100.0 %
     Test CRC EBAC79AB
     Copy CRC EBAC79AB
     Track not present in AccurateRip database
     Copy OK

Track  4

     Filename C:\Documents and Settings\Shaun\My Documents\Rancid - Let The Dominoes Fall (Acoustic) - 04 - This Place.wav

     Peak level 99.8 %
     Track quality 100.0 %
     Test CRC B82C8510
     Copy CRC B82C8510
     Track not present in AccurateRip database
     Copy OK

Track  5

     Filename C:\Documents and Settings\Shaun\My Documents\Rancid - Let The Dominoes Fall (Acoustic) - 05 - Disconnected.wav

     Pre-gap length  0:00:01.04

     Peak level 99.8 %
     Track quality 99.9 %
     Test CRC 5FD6BBB9
     Copy CRC 5FD6BBB9
     Track not present in AccurateRip database
     Copy OK

Track  6

     Filename C:\Documents and Settings\Shaun\My Documents\Rancid - Let The Dominoes Fall (Acoustic) - 06 - Liberty And Freedom.wav

     Pre-gap length  0:00:01.19

     Peak level 99.8 %
     Track quality 100.0 %
     Test CRC BED7B920
     Copy CRC BED7B920
     Track not present in AccurateRip database
     Copy OK

Track  7

     Filename C:\Documents and Settings\Shaun\My Documents\Rancid - Let The Dominoes Fall (Acoustic) - 07 - Dominoes Fall.wav

     Pre-gap length  0:00:00.16

     Peak level 99.8 %
     Track quality 100.0 %
     Test CRC 3B3E0D33
     Copy CRC 3B3E0D33
     Track not present in AccurateRip database
     Copy OK

Track  8

     Filename C:\Documents and Settings\Shaun\My Documents\Rancid - Let The Dominoes Fall (Acoustic) - 08 - New Orleans.wav

     Pre-gap length  0:00:01.08

     Peak level 99.8 %
     Track quality 100.0 %
     Test CRC 1A0216C5
     Copy CRC 1A0216C5
     Track not present in AccurateRip database
     Copy OK

Track  9

     Filename C:\Documents and Settings\Shaun\My Documents\Rancid - Let The Dominoes Fall (Acoustic) - 09 - You Want It, You Got It.wav

     Pre-gap length  0:00:00.29

     Peak level 99.8 %
     Track quality 100.0 %
     Test CRC 25128E00
     Copy CRC 25128E00
     Track not present in AccurateRip database
     Copy OK

Track 10

     Filename C:\Documents and Settings\Shaun\My Documents\Rancid - Let The Dominoes Fall (Acoustic) - 10 - Outgunned.wav

     Pre-gap length  0:00:00.52

     Peak level 99.8 %
     Track quality 100.0 %
     Test CRC 0C76DC4B
     Copy CRC 0C76DC4B
     Track not present in AccurateRip database
     Copy OK

Track 11

     Filename C:\Documents and Settings\Shaun\My Documents\Rancid - Let The Dominoes Fall (Acoustic) - 11 - The Bravest Kids.wav

     Pre-gap length  0:00:00.31

     Peak level 99.8 %
     Track quality 100.0 %
     Test CRC 5702E08F
     Copy CRC 5702E08F
     Track not present in AccurateRip database
     Copy OK

Track 12

     Filename C:\Documents and Settings\Shaun\My Documents\Rancid - Let The Dominoes Fall (Acoustic) - 12 - Last One To Die.wav

     Pre-gap length  0:00:01.24

     Peak level 99.8 %
     Track quality 100.0 %
     Test CRC 7EB490DB
     Copy CRC 7EB490DB
     Track not present in AccurateRip database
     Copy OK

None of the tracks are present in the AccurateRip database

No errors occurred

End of status report
 

Код:

 
REM GENRE Punk
REM DATE 2009
REM DISCID 94067D0C
REM COMMENT "ExactAudioCopy v0.99pb4"
PERFORMER "Rancid"
TITLE "Let The Dominoes Fall (Acoustic)"
FILE "01 - East Bay Night .flac" WAVE
  TRACK 01 AUDIO
    TITLE "East Bay Night "
    PERFORMER "Rancid"
    INDEX 01 00:00:00
  TRACK 02 AUDIO
    TITLE "L.A. River "
    PERFORMER "Rancid"
    INDEX 00 02:05:11
FILE "02 - L.A. River .flac" WAVE
    INDEX 01 00:00:00
FILE "03 - I Ain't Worried .flac" WAVE
  TRACK 03 AUDIO
    TITLE "I Ain't Worried "
    PERFORMER "Rancid"
    INDEX 01 00:00:00
FILE "04 - This Place .flac" WAVE
  TRACK 04 AUDIO
    TITLE "This Place "
    PERFORMER "Rancid"
    INDEX 01 00:00:00
  TRACK 05 AUDIO
    TITLE "Disconnected "
    PERFORMER "Rancid"
    INDEX 00 01:02:57
FILE "05 - Disconnected .flac" WAVE
    INDEX 01 00:00:00
  TRACK 06 AUDIO
    TITLE "Liberty And Freedom "
    PERFORMER "Rancid"
    INDEX 00 01:52:21
FILE "06 - Liberty And Freedom .flac" WAVE
    INDEX 01 00:00:00
  TRACK 07 AUDIO
    TITLE "Dominoes Fall "
    PERFORMER "Rancid"
    INDEX 00 03:04:35
FILE "07 - Dominoes Fall .flac" WAVE
    INDEX 01 00:00:00
  TRACK 08 AUDIO
    TITLE "New Orleans "
    PERFORMER "Rancid"
    INDEX 00 02:53:57
FILE "08 - New Orleans .flac" WAVE
    INDEX 01 00:00:00
  TRACK 09 AUDIO
    TITLE "You Want It, You Got It "
    PERFORMER "Rancid"
    INDEX 00 02:48:29
FILE "09 - You Want It, You Got It .flac" WAVE
    INDEX 01 00:00:00
  TRACK 10 AUDIO
    TITLE "Outgunned "
    PERFORMER "Rancid"
    INDEX 00 02:11:49
FILE "10 - Outgunned .flac" WAVE
    INDEX 01 00:00:00
  TRACK 11 AUDIO
    TITLE "The Bravest Kids "
    PERFORMER "Rancid"
    INDEX 00 02:15:74
FILE "11 - The Bravest Kids .flac" WAVE
    INDEX 01 00:00:00
  TRACK 12 AUDIO
    TITLE "Last One To Die "
    PERFORMER "Rancid"
    INDEX 00 01:32:53
FILE "12 - Last One To Die .flac" WAVE
    INDEX 01 00:00:00
 
info [Профиль]  [ЛС] 

post 29-Ноя-2010 17:16 (спустя 8 дней) [-]0[+]

Топик был перенесен из форума Анонсы в форум Аltеrnаtivе, Рunk, Indереndеnt (lоsslеss)

DeadFine
 
Показать сообщения:    
Ответить на тему

Текущее время: 03-Дек 04:23

Часовой пояс: GMT + 4



Вы не можете начинать темы
Вы не можете отвечать на сообщения
Вы не можете редактировать свои сообщения
Вы не можете удалять свои сообщения
Вы не можете голосовать в опросах
Вы не можете прикреплять файлы к сообщениям
Вы не можете скачивать файлы