Ошибка

Шрэк Навсегда / Shrek Forever After [Майк Митчел / Mike Mitchell][2010 г., Фэнтези, комедия, приключения, семейный., BDRip][Дубляж]

Ответить на тему
 
Автор Сообщение

c0_0p

Пол: Пол:Муж

Стаж: 7 лет 8 месяцев

Сообщений: 1557

Россия
Рейтинг

post 20-Ноя-2010 14:14 0[+]

[Цитировать] 


Шрэк Навсегда

«Последняя глава»

Оригинальное Название: Shrek Forever After
Год Выпуска: 2010 г.
Cтрана: США
Жанр: Фэнтези, комедия, приключения, семейный
Продолжительность: 01:33:10
Перевод: Профессиональный (полное дублирование)
Режиссер:
  • Майк Митчел
В главных ролях:
  • Майк Майерс
  • Эдди Мёрфи
  • Кэмерон Диаз
  • Антонио Бандерас
  • Джули Эндрюс

Описание:
    Чем бы еще заняться огру, который уже сразился со злым драконом, спас прекрасную принцессу и уберег от беды королевство родственников по линии жены? Что ж, если вы Шрэк, то, сами того не заметив, вы вдруг сядете дома и станете наслаждаться покоем в кругу семьи. Вместо того чтобы как раньше пугать деревенских жителей, теперь Шрэк, хоть и с неохотой, но соглашается оставлять автографы на их вилах. А куда же подевался знаменитый рык этого огра?
    Под грузом воспоминаний о днях, когда он чувствовал себя «настоящим огром», Шрэк поддается на уговоры сладкоголосого Румпельштильцхена и заключает с ним договор. Сразу после этого Шрэк оказывается в альтернативной реальности Тридевятого королевства, где все поставлено с ног на голову: на огров здесь охотятся, Румпельштильцхен восседает на троне, а Шрэк и Фиона даже не знакомы. И теперь только сам Шрэк может исправить все, что он натворил, чтобы спасти друзей, восстановить привычный ему порядок вещей и вернуть себе свою единственную Истинную Любовь.
Еще Шрека:
Шрек
Шрек 2
Шрек 3
[url=]Шрек Навсегда:[/url]
[url=]Шрек Хеллоуин[/url]
Шрек Рождество
[url=]Шрек Hallos[/url]
Источник: Blu Ray Disk
Качество: BDRip
Формат: MP4
Видео кодек: H.264
Аудио кодек: AAC
Видео: MPEG4 Video (H264) 480x208 (512 Kbps)
Аудио: AAC 48000Hz stereo 128 Kbps

Если вы скачали данный релиз и хотите выложить его на другом ресурсе -
пожалуйста указывайте первоисточник
- R.G. Console Video Coders

info [Профиль]  [ЛС] 

PNYKLR

Пол: Пол:Муж

Стаж: 7 лет 8 месяцев

Сообщений: 1886

Россия
Рейтинг

post 20-Ноя-2010 14:31 (спустя 17 минут) [-]0[+]

[Цитировать] 

c0_0p
Спасибо!

_________________
.
info [Профиль]  [ЛС] 

wiperus

Пол: Пол:Муж

Стаж: 6 лет 9 месяцев

Сообщений: 51

Предупреждений: 1

Россия
Рейтинг

post 20-Ноя-2010 21:02 (спустя 6 часов) [-]0[+]

[Цитировать] 

У меня PSP не хочет открывать через стандартный плеер((
Кодеки ругает
General
Complete name : E:\wIPer96\Shrek Forever After\Shrek Forever After [RG CVC].mp4
Format : MPEG-4
Format profile : Base Media
Codec ID : isom
File size : 429 MiB
Duration : 1h 33mn
Overall bit rate : 643 Kbps
Encoded date : UTC 2010-11-19 03:56:51
Tagged date : UTC 2010-11-19 03:56:51

Video
ID : 1
Format : AVC
Format/Info : Advanced Video Codec
Format profile : High@L3.0
Format settings, CABAC : Yes
Format settings, ReFrames : 4 frames
Codec ID : avc1
Codec ID/Info : Advanced Video Coding
Duration : 1h 33mn
Bit rate mode : Variable
Bit rate : 512 Kbps
Maximum bit rate : 3 617 Kbps
Width : 480 pixels
Height : 208 pixels
Display aspect ratio : 2.35:1
Frame rate mode : Constant
Frame rate : 23.976 fps
Color space : YUV
Chroma subsampling : 4:2:0
Bit depth : 8 bits
Scan type : Progressive
Bits/(Pixel*Frame) : 0.214
Stream size : 341 MiB (80%)
Title : Imported with GPAC 0.4.6-DEV (build 1)
Writing library : x264 core 79 r1342kMod e8501ef
Encoding settings : cabac=1 / ref=4 / deblock=1:-2:-1 / analyse=0x3:0x131 / me=tesa / subme=10 / psy=1 / psy_rd=1.0:0.2 / mixed_ref=1 / me_range=24 / chroma_me=1 / trellis=2 / 8x8dct=1 / cqm=0 / deadzone=21,11 / chroma_qp_offset=-3 / threads=6 / nr=0 / decimate=1 / mbaff=0 / constrained_intra=0 / bframes=3 / b_pyramid=0 / b_adapt=2 / b_bias=0 / direct=3 / wpredb=1 / wpredp=2 / keyint=250 / keyint_min=25 / scenecut=40 / rc_lookahead=60 / rc=2pass / mbtree=1 / bitrate=512 / ratetol=1.0 / qcomp=0.60 / qpmin=10 / qpmax=51 / qpstep=4 / cplxblur=20.0 / qblur=0.5 / ip_ratio=1.40 / aq=1:1.00
Encoded date : UTC 2010-11-19 03:56:51
Tagged date : UTC 2010-11-19 03:57:02

Audio
ID : 2
Format : AAC
Format/Info : Advanced Audio Codec
Format version : Version 4
Format profile : LC
Format settings, SBR : No
Codec ID : 40
Duration : 1h 33mn
Bit rate mode : Variable
Bit rate : 128 Kbps
Maximum bit rate : 159 Kbps
Channel(s) : 2 channels
Channel positions : Front: L R
Sampling rate : 48.0 KHz
Stream size : 85.1 MiB (20%)
Encoded date : UTC 2010-11-19 03:57:00
Tagged date : UTC 2010-11-19 03:57:02
Походу что-то с видео кодеками напутано

_________________
Whoop Whoop Whoop!!!
info [Профиль]  [ЛС] 

c0_0p

Пол: Пол:Муж

Стаж: 7 лет 8 месяцев

Сообщений: 1557

Россия
Рейтинг

post 24-Ноя-2010 01:07 (спустя 3 дня) [-]0[+]

[Цитировать] 

Исправил раздачу и мальца улучшил картинку.
Сравнение с раздачей от Frostmorn
http://screenshotcomparison.com/comparison/6251/picture:0
info [Профиль]  [ЛС] 

wiperus

Пол: Пол:Муж

Стаж: 6 лет 9 месяцев

Сообщений: 51

Предупреждений: 1

Россия
Рейтинг

post 24-Ноя-2010 13:04 (спустя 11 часов) [-]0[+]

[Цитировать] 

Я один разницы ВООБЩЕ не вижу?))
Вес и тот метр в метр))

_________________
Whoop Whoop Whoop!!!
info [Профиль]  [ЛС] 

c0_0p

Пол: Пол:Муж

Стаж: 7 лет 8 месяцев

Сообщений: 1557

Россия
Рейтинг

post 24-Ноя-2010 13:19 (спустя 15 минут) [-]0[+]

[Цитировать] 

wiperus
молодец.
info [Профиль]  [ЛС] 

FMS007

Пол: Пол:Муж

Стаж: 6 лет 9 месяцев

Сообщений: 33

СССР
Рейтинг

post 24-Ноя-2010 19:25 (спустя 6 часов) [-]0[+]

[Цитировать] 

спасибо, а где остальные части?

_________________
info [Профиль]  [ЛС] 

c0_0p

Пол: Пол:Муж

Стаж: 7 лет 8 месяцев

Сообщений: 1557

Россия
Рейтинг

post 24-Ноя-2010 20:22 (спустя 57 минут) [-]0[+]

[Цитировать] 

FMS007
делаются.
info [Профиль]  [ЛС] 

post 16-Май-2013 18:40 (спустя 2 года 5 месяцев) [-]0[+]

Топик был перенесен из форума PSP | Мультфильмы в форум PSP | Горячие Новинки

batya)))
 

post 19-Июл-2013 20:42 (спустя 2 года 7 месяцев) [-]0[+]

Топик был перенесен из форума Видео для PSP в форум Мультфильмы

BlackHorror
 
Показать сообщения:    
Ответить на тему

Текущее время: 11-Дек 10:11

Часовой пояс: GMT + 4



Вы не можете начинать темы
Вы не можете отвечать на сообщения
Вы не можете редактировать свои сообщения
Вы не можете удалять свои сообщения
Вы не можете голосовать в опросах
Вы не можете прикреплять файлы к сообщениям
Вы не можете скачивать файлы