Ошибка

Чужой: Антология / Alien Anthology (Ридли Скотт, Джеймс Кэмерон, Дэвид Финчер, Жан-Пьер Жёне) [1979/1986/1992/1997 г., ужасы, фантастика, боевик, триллер, Blu-ray]

Ответить на тему
 
Автор Сообщение

Eвгений

Пол: Пол:Муж

Стаж: 6 лет 9 месяцев

Сообщений: 680

Россия
Рейтинг

post 14-Ноя-2010 18:50 0[+]

[Цитировать] 


Чужой: Антология / Alien Anthology


Год выхода: 1979/1986/1992/1997
Жанр: ужасы, фантастика, боевик, триллер
Режиссер: Ридли Скотт, Джеймс Кэмерон, Дэвид Финчер, Жан-Пьер Жёне

Сюжет фильма: Погрузитесь в совершенно новый мир ощущений, воспроизводимый форматом Blu-Ray.
Данное коллекционное издание вмещает в себя все четыре фильма саги и два бонус-диска, представляющие 60-часовой архив никогда прежде не издававшихся дополнительных материалов. Поразительное видео высокой четкости и чистейший в мире звук способны многократно усилить эффект от происходящего на экране ваших телевизоров!

Общая продолжительность издания: 1007 минут

° Уникальный формат интерактивного меню
° Производственные материалы и исторические факты
° Самые полные аудио-комментарии
° Съемочные будни
° Удаленные сцены
° Самые подробные видео сюжеты «из-за кулис»
° Более 12000 фотографий и иллюстраций
° Альтернативные и вырезанные дубли и сцены, архивные материалы
° Пробные метры, ТВ материалы, разноплановые съемки… и многое, многое другое!

Выпущено: США, Великобритания
Продолжительность: 01:55:49 (01:56:37) | 02:17:14 (02:34:26) | 01:54:52 (02:24:52) | 01:48:48 (01:56:08)

Чужой / Alien [2-in-1: Theatrical & Director's Cut] (1979) Blu-ray 1080p AVC DTS 5.1



В ролях: Сигурни Уивер, Том Скеррит, Вероника Картрайт, Гарри Дин Стэнтон, Джон Хёрт, Иэн Холм, Яфет Котто, Боладжи Бадеджо, Хелен Хортон, Эдди Пауэлл

Сюжет фильма: В далеком будущем возвращающийся на Землю грузовой космический корабль перехватывает исходящий с неизвестной планеты неопознанный сигнал. Экипаж принимает решение совершить посадку и разобраться, в чем дело. Оказавшись на планете, астронавты повсюду обнаруживают неопознанные предметы, по виду напоминающие гигантские коконы...
DISC INFO:

Disc Title: ALIEN_F5
Disc Size: 45,786,257,117 bytes
Protection: AACS
BD-Java: Yes
BDInfo: 0.5.4

PLAYLIST REPORT:

Name: 00801.MPLS
Length: 1:55:49 (h:m:s)
Size: 30,458,327,040 bytes
Total Bitrate: 35,06 Mbps

Звезда Indicates included stream hidden by this playlist.

VIDEO:

Codec Bitrate Description
----- ------- -----------
MPEG-4 AVC Video 25926 kbps 1080p / 23,976 fps / 16:9 / High Profile 4.1

AUDIO:

Codec Language Bitrate Description
----- -------- ------- -----------
DTS-HD Master Audio English 3412 kbps 5.1 / 48 kHz / 3412 kbps / 24-bit (DTS Core: 5.1 / 48 kHz / 1509 kbps / 24-bit)
DTS Audio Russian 768 kbps 5.1 / 48 kHz / 768 kbps / 24-bit
DTS Audio Spanish 768 kbps 5.1 / 48 kHz / 768 kbps / 24-bit
* Dolby Digital Audio English 448 kbps 5.1 / 48 kHz / 448 kbps / DN -4dB
* Dolby Digital Audio English 448 kbps 5.1 / 48 kHz / 448 kbps / DN -4dB
Dolby Digital Audio Turkish 448 kbps 5.1 / 48 kHz / 448 kbps / DN -4dB
* Dolby Digital Audio English 224 kbps 2.0 / 48 kHz / 224 kbps / DN -4dB
Dolby Digital Audio English 224 kbps 2.0 / 48 kHz / 224 kbps / DN -4dB

SUBTITLES:

Codec Language Bitrate Description
----- -------- ------- -----------
Presentation Graphics English 16,395 kbps
Presentation Graphics Arabic 9,599 kbps
Presentation Graphics Bulgarian 15,878 kbps
Presentation Graphics Croatian 14,616 kbps
Presentation Graphics Estonian 17,474 kbps
Presentation Graphics Hebrew 12,194 kbps
Presentation Graphics Kazakh 16,291 kbps
Presentation Graphics Latvian 15,776 kbps
Presentation Graphics Lithuanian 16,609 kbps
Presentation Graphics Romanian 15,883 kbps
Presentation Graphics Russian 15,142 kbps
Presentation Graphics Russian 55,541 kbps
* Presentation Graphics Russian 20,616 kbps
Presentation Graphics Slovenian 15,037 kbps
Presentation Graphics Spanish 16,688 kbps
Presentation Graphics Spanish 56,574 kbps
* Presentation Graphics Spanish 21,376 kbps
Presentation Graphics Turkish 16,624 kbps
Presentation Graphics Ukrainian 16,762 kbps

FILES:

Name Time In Length Size Total Bitrate
---- ------- ------ ---- -------------
00983.M2TS 0:00:00.000 0:07:46.591 2,169,630,720 37,200
01014.M2TS 0:07:46.591 0:00:34.200 141,656,064 33,135
00984.M2TS 0:08:20.791 0:01:13.907 311,070,720 33,672
01015.M2TS 0:09:34.699 0:00:31.614 131,831,808 33,359
00987.M2TS 0:10:06.314 0:02:26.521 661,297,152 36,107
01016.M2TS 0:12:32.835 0:03:54.651 1,038,157,824 35,394
00988.M2TS 0:16:27.486 0:07:47.049 2,093,623,296 35,861
01017.M2TS 0:24:14.536 0:11:02.411 2,907,666,432 35,116
00989.M2TS 0:35:16.948 0:02:26.145 634,785,792 34,748
01018.M2TS 0:37:43.094 0:01:26.628 368,793,600 34,058
00992.M2TS 0:39:09.722 0:04:16.798 1,117,040,640 34,799
01019.M2TS 0:43:26.520 0:04:01.783 1,077,301,248 35,645
00993.M2TS 0:47:28.303 0:03:30.668 929,243,136 35,287
01020.M2TS 0:50:58.972 0:03:20.450 884,256,768 35,291
00996.M2TS 0:54:19.422 0:03:13.067 844,615,680 34,998
01021.M2TS 0:57:32.490 0:01:42.894 433,938,432 33,739
00999.M2TS 0:59:15.385 0:01:11.488 306,831,360 34,337
01022.M2TS 1:00:26.873 0:08:13.701 2,159,880,192 34,999
01000.M2TS 1:08:40.574 0:01:06.566 290,310,144 34,890
01023.M2TS 1:09:47.141 0:02:56.009 743,804,928 33,808
01002.M2TS 1:12:43.150 0:03:26.956 952,104,960 36,804
01024.M2TS 1:16:10.106 0:03:34.172 942,249,984 35,196
01005.M2TS 1:19:44.279 0:02:50.003 740,886,528 34,865
01025.M2TS 1:22:34.282 0:00:51.217 221,349,888 34,574
01006.M2TS 1:23:25.500 0:02:33.528 662,280,192 34,510
01026.M2TS 1:25:59.028 0:02:31.276 656,418,816 34,714
01009.M2TS 1:28:30.304 0:05:44.510 1,511,811,072 35,106
01027.M2TS 1:34:14.815 0:03:42.138 972,687,360 35,030
01010.M2TS 1:37:56.954 0:01:38.848 439,640,064 35,581
01028.M2TS 1:39:35.802 0:03:09.856 829,440,000 34,950
01012.M2TS 1:42:45.659 0:13:04.241 3,283,722,240 33,497

Name: 00800.MPLS
Length: 1:56:37 (h:m:s)
Size: 30,741,626,880 bytes
Total Bitrate: 35,15 Mbps

VIDEO:

Codec Bitrate Description
----- ------- -----------
MPEG-4 AVC Video 26000 kbps 1080p / 23,976 fps / 16:9 / High Profile 4.1

AUDIO:

Codec Language Bitrate Description
----- -------- ------- -----------
DTS-HD Master Audio English 3385 kbps 5.1 / 48 kHz / 3385 kbps / 24-bit (DTS Core: 5.1 / 48 kHz / 1509 kbps / 24-bit)
DTS Audio Russian 768 kbps 5.1 / 48 kHz / 768 kbps / 24-bit
DTS Audio Spanish 768 kbps 5.1 / 48 kHz / 768 kbps / 24-bit
Dolby Digital Audio English 448 kbps 5.1 / 48 kHz / 448 kbps / DN -4dB
Dolby Digital Audio English 448 kbps 5.1 / 48 kHz / 448 kbps / DN -4dB
Dolby Digital Audio Turkish 448 kbps 5.1 / 48 kHz / 448 kbps / DN -4dB
Dolby Digital Audio English 224 kbps 2.0 / 48 kHz / 224 kbps / DN -4dB
Dolby Digital Audio English 224 kbps 2.0 / 48 kHz / 224 kbps / DN -4dB

SUBTITLES:

Codec Language Bitrate Description
----- -------- ------- -----------
Presentation Graphics English 15,876 kbps
Presentation Graphics Arabic 9,451 kbps
Presentation Graphics Bulgarian 15,839 kbps
Presentation Graphics Croatian 14,565 kbps
Presentation Graphics Estonian 17,169 kbps
Presentation Graphics Hebrew 11,976 kbps
Presentation Graphics Kazakh 15,967 kbps
Presentation Graphics Latvian 15,533 kbps
Presentation Graphics Lithuanian 16,387 kbps
Presentation Graphics Romanian 15,704 kbps
Presentation Graphics Russian 14,866 kbps
Presentation Graphics Russian 55,830 kbps
Presentation Graphics Russian 38,224 kbps
Presentation Graphics Slovenian 15,098 kbps
Presentation Graphics Spanish 16,436 kbps
Presentation Graphics Spanish 56,820 kbps
Presentation Graphics Spanish 39,726 kbps
Presentation Graphics Turkish 16,325 kbps
Presentation Graphics Ukrainian 16,429 kbps

FILES:

Name Time In Length Size Total Bitrate
---- ------- ------ ---- -------------
00983.M2TS 0:00:00.000 0:07:46.591 2,169,630,720 37,200
00985.M2TS 0:07:46.591 0:00:40.915 167,989,248 32,846
00984.M2TS 0:08:27.506 0:01:13.907 311,070,720 33,672
00986.M2TS 0:09:41.414 0:00:31.614 126,191,616 31,932
00987.M2TS 0:10:13.029 0:02:26.521 661,297,152 36,107
00990.M2TS 0:12:39.550 0:02:18.972 606,259,200 34,900
00988.M2TS 0:14:58.522 0:07:47.049 2,093,623,296 35,861
00991.M2TS 0:22:45.572 0:11:45.955 3,126,976,512 35,435
00989.M2TS 0:34:31.527 0:02:26.145 634,785,792 34,748
00994.M2TS 0:36:57.673 0:00:52.427 222,443,520 33,943
00992.M2TS 0:37:50.101 0:04:16.798 1,117,040,640 34,799
00995.M2TS 0:42:06.899 0:04:18.383 1,146,746,880 35,505
00993.M2TS 0:46:25.282 0:03:30.668 929,243,136 35,287
00997.M2TS 0:49:55.951 0:03:34.631 965,726,208 35,996
00996.M2TS 0:53:30.582 0:03:13.067 844,615,680 34,998
00998.M2TS 0:56:43.650 0:01:56.116 510,148,608 35,148
00999.M2TS 0:58:39.766 0:01:11.488 306,831,360 34,337
01001.M2TS 0:59:51.254 0:08:38.100 2,234,013,696 34,495
01000.M2TS 1:08:29.355 0:01:06.566 290,310,144 34,890
01003.M2TS 1:09:35.921 0:04:24.430 1,153,855,488 34,908
01002.M2TS 1:14:00.352 0:03:26.956 952,104,960 36,804
01004.M2TS 1:17:27.309 0:03:52.815 1,020,887,040 35,080
01005.M2TS 1:21:20.125 0:02:50.003 740,886,528 34,865
01007.M2TS 1:24:10.128 0:00:53.511 230,688,768 34,488
01006.M2TS 1:25:03.639 0:02:33.528 662,280,192 34,510
01008.M2TS 1:27:37.168 0:02:57.886 772,104,192 34,724
01009.M2TS 1:30:35.054 0:05:44.510 1,511,811,072 35,106
01011.M2TS 1:36:19.565 0:01:50.485 525,090,816 38,021
01010.M2TS 1:38:10.050 0:01:38.848 439,640,064 35,581
01013.M2TS 1:39:48.899 0:03:44.474 983,611,392 35,055
01012.M2TS 1:43:33.373 0:13:04.241 3,283,722,240 33,497
Subtitles/Captions
Английский
Арабский
Болгарский
Хорватский
Эстонский
Иврит
Казахский
Латышский
Литовский
Румынский
Русский
Словенский
Испанский
Турецкий
Украинский

Supplements
TBA


Качество: Blu-ray
Формат: BDMV
Видео кодек: MPEG-4 AVC Video
Аудио кодек: DTS-HD Master Audio, DDA
Видео: 25926 kbps 1080p / 23,976 fps / 16:9 / High Profile 4.1
Аудио:
DTS-HD Master Audio, English,3412 kbps, 5.1 / 48 kHz / 3412 kbps / 24-bit (DTS Core: 5.1 / 48 kHz / 1509 kbps / 24-bit)
DTS Audio, Russian, 768 kbps, 5.1 / 48 kHz / 768 kbps / 24-bit
DTS Audio, Spanish, 768 kbps, 5.1 / 48 kHz / 768 kbps / 24-bit
Dolby Digital Audio, English, 448 kbps, 5.1 / 48 kHz / 448 kbps / DN -4dB
Dolby Digital Audio, English, 448 kbps, 5.1 / 48 kHz / 448 kbps / DN -4dB
Dolby Digital Audio, Turkish, 448 kbps, 5.1 / 48 kHz / 448 kbps / DN -4dB
Dolby Digital Audio, English, 224 kbps, 2.0 / 48 kHz / 224 kbps / DN -4dB
Dolby Digital Audio, English, 224 kbps, 2.0 / 48 kHz / 224 kbps / DN -4dB

Чужие / Aliens [2-in-1: Theatrical & Special Edition] (1986) Blu-ray 1080p AVC DTS 5.1


В ролях: Сигурни Уивер, Кэрри Хенн, Майкл Бьен, Лэнс Хенриксен, Пол Райзер, Билл Пэкстон, Уильям Хоуп, Дженетт Голдстин, Эл Мэтьюз, Марк Ролстон

Сюжет фильма: Чужой - совершенный организм. Идеальная машина для убийства, чье физическое превосходство сочетается с его феноменальной жаждой уничтожения. Офицер Элен Рипли и команда космического корабля Ностромо один раз уже встретилась с такой тварью. В живых осталась только Элен.

Капсула с Элен найдена спасателями после многих лет блуждания в космосе. Ей сообщают, что планета L.V. 426 колонизирована, и ей придется вернуться туда, где начался ее кошмар, ибо связь с колонистами прервалась. И вот в составе группы космического десанта Рипли отправляется на проклятую планету. Но теперь их там поджидает не один Чужой, а тысячи. Кто сможет выжить в этой войне: чудовища, способные только убивать, или люди, способные мыслить?
DISC INFO:

Disc Title: ALIENs_F5
Disc Size: 47,791,753,082 bytes
Protection: AACS
BD-Java: Yes
BDInfo: 0.5.4

PLAYLIST REPORT:

Name: 00800.MPLS
Length: 2:17:14 (h:m:s)
Size: 37,459,058,688 bytes
Total Bitrate: 36,39 Mbps

VIDEO:

Codec Bitrate Description
----- ------- -----------
MPEG-4 AVC Video 26784 kbps 1080p / 23,976 fps / 16:9 / High Profile 4.1

AUDIO:

Codec Language Bitrate Description
----- -------- ------- -----------
DTS-HD Master Audio English 4055 kbps 5.1 / 48 kHz / 4055 kbps / 24-bit (DTS Core: 5.1 / 48 kHz / 1509 kbps / 24-bit)
DTS Audio Russian 768 kbps 5.1 / 48 kHz / 768 kbps / 24-bit
DTS Audio Spanish 768 kbps 5.1 / 48 kHz / 768 kbps / 24-bit
Dolby Digital Audio English 448 kbps 5.1 / 48 kHz / 448 kbps / DN -4dB
Dolby Digital Audio English 448 kbps 5.1 / 48 kHz / 448 kbps / DN -4dB
Dolby Digital Audio Turkish 448 kbps 5.1 / 48 kHz / 448 kbps / DN -4dB
Dolby Digital Audio English 224 kbps 2.0 / 48 kHz / 224 kbps / DN -4dB

SUBTITLES:

Codec Language Bitrate Description
----- -------- ------- -----------
Presentation Graphics English 20,586 kbps
Presentation Graphics Arabic 12,563 kbps
Presentation Graphics Bulgarian 20,762 kbps
Presentation Graphics Croatian 19,062 kbps
Presentation Graphics Estonian 21,938 kbps
Presentation Graphics Hebrew 15,499 kbps
Presentation Graphics Kazakh 20,342 kbps
Presentation Graphics Latvian 20,162 kbps
Presentation Graphics Lithuanian 18,020 kbps
Presentation Graphics Romanian 19,151 kbps
Presentation Graphics Russian 18,294 kbps
Presentation Graphics Russian 51,098 kbps
Presentation Graphics Slovenian 18,984 kbps
Presentation Graphics Spanish 20,597 kbps
Presentation Graphics Spanish 55,481 kbps
Presentation Graphics Turkish 20,411 kbps
Presentation Graphics Ukrainian 20,483 kbps

FILES:

Name Time In Length Size Total Bitrate
---- ------- ------ ---- -------------
01106.M2TS 0:00:00.000 0:08:29.842 2,497,689,600 39,192
01138.M2TS 0:08:29.842 0:00:37.203 159,928,320 34,390
01108.M2TS 0:09:07.046 0:02:22.851 630,398,976 35,304
01140.M2TS 0:11:29.897 0:01:25.293 367,497,216 34,469
01110.M2TS 0:12:55.191 0:00:56.890 245,028,864 34,456
01142.M2TS 0:13:52.081 0:00:40.498 175,527,936 34,673
01112.M2TS 0:14:32.579 0:02:28.022 640,026,624 34,591
01144.M2TS 0:17:00.602 0:01:47.273 486,733,824 36,298
01114.M2TS 0:18:47.876 0:14:45.551 3,977,754,624 35,935
01147.M2TS 0:33:33.428 0:01:12.655 333,367,296 36,706
01117.M2TS 0:34:46.083 0:04:47.245 1,279,088,640 35,624
01149.M2TS 0:39:33.329 0:00:24.566 99,366,912 32,359
01119.M2TS 0:39:57.895 0:01:02.520 297,725,952 38,096
01146.M2TS 0:41:00.416 0:00:17.350 75,804,672 34,952
01121.M2TS 0:41:17.766 0:32:38.164 8,931,821,568 36,491
01148.M2TS 1:13:55.931 0:05:31.497 1,477,349,376 35,653
01125.M2TS 1:19:27.429 0:01:20.288 347,418,624 34,617
01141.M2TS 1:20:47.717 0:01:01.728 268,634,112 34,815
01127.M2TS 1:21:49.446 0:01:16.576 331,868,160 34,670
01145.M2TS 1:23:06.022 0:00:15.557 64,450,560 33,142
01129.M2TS 1:23:21.579 0:02:36.698 691,605,504 35,309
01139.M2TS 1:25:58.277 0:00:28.486 122,351,616 34,360
01131.M2TS 1:26:26.764 0:23:14.518 6,488,487,936 37,223
01143.M2TS 1:49:41.282 0:01:04.439 298,715,136 37,085
01134.M2TS 1:50:45.722 0:23:09.471 6,321,346,560 36,396
01137.M2TS 2:13:55.193 0:03:18.865 849,070,080 34,157

Name: 00801.MPLS
Length: 2:34:26 (h:m:s)
Size: 42,022,766,592 bytes
Total Bitrate: 36,28 Mbps

Звезда Indicates included stream hidden by this playlist.

VIDEO:

Codec Bitrate Description
----- ------- -----------
MPEG-4 AVC Video 26739 kbps 1080p / 23,976 fps / 16:9 / High Profile 4.1

AUDIO:

Codec Language Bitrate Description
----- -------- ------- -----------
DTS-HD Master Audio English 3981 kbps 5.1 / 48 kHz / 3981 kbps / 24-bit (DTS Core: 5.1 / 48 kHz / 1509 kbps / 24-bit)
DTS Audio Russian 768 kbps 5.1 / 48 kHz / 768 kbps / 24-bit
DTS Audio Spanish 768 kbps 5.1 / 48 kHz / 768 kbps / 24-bit
* Dolby Digital Audio English 448 kbps 5.1 / 48 kHz / 448 kbps / DN -4dB
* Dolby Digital Audio English 448 kbps 5.1 / 48 kHz / 448 kbps / DN -4dB
Dolby Digital Audio Turkish 448 kbps 5.1 / 48 kHz / 448 kbps / DN -4dB
Dolby Digital Audio English 224 kbps 2.0 / 48 kHz / 224 kbps / DN -4dB

SUBTITLES:

Codec Language Bitrate Description
----- -------- ------- -----------
Presentation Graphics English 20,972 kbps
Presentation Graphics Arabic 12,816 kbps
Presentation Graphics Bulgarian 21,164 kbps
Presentation Graphics Croatian 19,478 kbps
Presentation Graphics Estonian 22,429 kbps
Presentation Graphics Hebrew 15,864 kbps
Presentation Graphics Kazakh 20,810 kbps
Presentation Graphics Latvian 20,586 kbps
Presentation Graphics Lithuanian 18,451 kbps
Presentation Graphics Romanian 19,482 kbps
Presentation Graphics Russian 18,792 kbps
Presentation Graphics Russian 51,636 kbps
Presentation Graphics Slovenian 19,482 kbps
Presentation Graphics Spanish 21,033 kbps
Presentation Graphics Spanish 55,658 kbps
Presentation Graphics Turkish 20,854 kbps
Presentation Graphics Ukrainian 21,031 kbps

FILES:

Name Time In Length Size Total Bitrate
---- ------- ------ ---- -------------
01106.M2TS 0:00:00.000 0:08:29.842 2,497,689,600 39,192
01107.M2TS 0:08:29.842 0:02:36.573 703,137,792 35,926
01108.M2TS 0:11:06.415 0:02:22.851 630,398,976 35,304
01109.M2TS 0:13:29.266 0:07:49.343 2,116,497,408 36,076
01110.M2TS 0:21:18.610 0:00:56.890 245,028,864 34,456
01111.M2TS 0:22:15.500 0:00:56.681 244,955,136 34,573
01112.M2TS 0:23:12.182 0:02:28.022 640,026,624 34,591
01113.M2TS 0:25:40.205 0:02:54.549 754,022,400 34,559
01114.M2TS 0:28:34.754 0:14:45.551 3,977,754,624 35,935
01116.M2TS 0:43:20.305 0:01:57.200 532,660,224 36,359
01117.M2TS 0:45:17.506 0:04:47.245 1,279,088,640 35,624
01118.M2TS 0:50:04.751 0:01:07.984 281,708,544 33,150
01119.M2TS 0:51:12.736 0:01:02.520 297,725,952 38,096
01120.M2TS 0:52:15.257 0:01:17.202 340,002,816 35,232
01121.M2TS 0:53:32.459 0:32:38.164 8,931,821,568 36,491
01124.M2TS 1:26:10.623 0:07:06.509 1,873,803,264 35,147
01125.M2TS 1:33:17.133 0:01:20.288 347,418,624 34,617
01126.M2TS 1:34:37.421 0:01:15.742 325,724,160 34,403
01127.M2TS 1:35:53.163 0:01:16.576 331,868,160 34,670
01128.M2TS 1:37:09.740 0:01:30.965 391,274,496 34,411
01129.M2TS 1:38:40.706 0:02:36.698 691,605,504 35,309
01130.M2TS 1:41:17.404 0:02:02.622 544,954,368 35,553
01131.M2TS 1:43:20.026 0:23:14.518 6,488,487,936 37,223
01133.M2TS 2:06:34.545 0:01:24.084 387,305,472 36,849
01134.M2TS 2:07:58.629 0:23:09.471 6,321,346,560 36,396
01136.M2TS 2:31:08.100 0:03:18.865 846,458,880 34,052
Subtitles/Captions
Английский
Арабский
Болгарский
Хорватский
Эстонский
Иврит
Казахский
Латышский
Литовский
Румынский
Русский
Словенский
Испанский
Турецкий
Украинский

Supplements
TBA


Качество: Blu-ray
Формат: BDMV
Видео кодек: MPEG-4 AVC Video
Аудио кодек:
Видео: 26784 kbps, 1080p / 23,976 fps / 16:9 / High Profile 4.1
Аудио:
DTS-HD Master Audio, English, 4055 kbps, 5.1 / 48 kHz / 4055 kbps / 24-bit (DTS Core: 5.1 / 48 kHz / 1509 kbps / 24-bit)
DTS Audio, Russian, 768 kbps, 5.1 / 48 kHz / 768 kbps / 24-bit
DTS Audio, Spanish, 768 kbps, 5.1 / 48 kHz / 768 kbps / 24-bit
Dolby Digital Audio, English, 448 kbps, 5.1 / 48 kHz / 448 kbps / DN -4dB
Dolby Digital Audio, English, 448 kbps, 5.1 / 48 kHz / 448 kbps / DN -4dB
Dolby Digital Audio, Turkish, 448 kbps, 5.1 / 48 kHz / 448 kbps / DN -4dB
Dolby Digital Audio, English, 224 kbps, 2.0 / 48 kHz / 224 kbps / DN -4dB

Чужой 3 / Alien³ [2-in-1: Theatrical & 2003 Special 'Assembly Cut' Edition] (1992) Blu-ray 1080p AVC DTS 5.1


В ролях: Сигурни Уивер, Чарльз С. Даттон, Чарльз Дэнс, Пол МакГэнн, Брайан Гловер, Ральф Браун, Дэниэл Уэбб, Кристофер Джон Филдс, Холт МакКэллани, Лэнс Хенриксен

Сюжет фильма: После бегства с планеты «Чужих» космический корабль Рипли терпит катастрофу вблизи так называемой планеты - тюрьмы, места, где отсиживают свой срок убийцы, насильники и прочие отбросы общества. Вместе с Рипли на эту планету попадает зародыш чужого, который и был причиной гибели корабля. Довольно быстро он превращается в гигантскую, зубастую тварь и начинает свое темное дело.

Его жертвами становятся десятки безоружных заключенных. Кровь брызжет фонтаном, куски человеческого мяса разлетаются во все стороны. И кажется, что остановить эту машину смерти не сможет никто, никто кроме отважной, но увы не бессмертной девушки по имени Рипли.
DISC INFO:

Disc Title: ALIEN3
Disc Size: 45,327,768,097 bytes
Protection: AACS
BD-Java: Yes
BDInfo: 0.5.4

PLAYLIST REPORT:

Name: 00800.MPLS
Length: 1:54:52 (h:m:s)
Size: 24,526,233,600 bytes
Total Bitrate: 28,47 Mbps

VIDEO:

Codec Bitrate Description
----- ------- -----------
MPEG-4 AVC Video 19489 kbps 1080p / 23,976 fps / 16:9 / High Profile 4.1

AUDIO:

Codec Language Bitrate Description
----- -------- ------- -----------
DTS-HD Master Audio English 4198 kbps 5.1 / 48 kHz / 4198 kbps / 24-bit (DTS Core: 5.1 / 48 kHz / 1509 kbps / 24-bit)
DTS Audio Russian 768 kbps 5.1 / 48 kHz / 768 kbps / 24-bit
DTS Audio Spanish 768 kbps 5.1 / 48 kHz / 768 kbps / 24-bit
Dolby Digital Audio English 448 kbps 5.1 / 48 kHz / 448 kbps / DN -4dB
Dolby Digital Audio Turkish 448 kbps 5.1 / 48 kHz / 448 kbps / DN -4dB
Dolby Digital Audio English 224 kbps 2.0 / 48 kHz / 224 kbps / DN -4dB

SUBTITLES:

Codec Language Bitrate Description
----- -------- ------- -----------
Presentation Graphics English 23,648 kbps
Presentation Graphics Arabic 12,698 kbps
Presentation Graphics Bulgarian 23,201 kbps
Presentation Graphics Croatian 21,772 kbps
Presentation Graphics Estonian 22,221 kbps
Presentation Graphics Hebrew 17,481 kbps
Presentation Graphics Kazakh 23,103 kbps
Presentation Graphics Latvian 22,818 kbps
Presentation Graphics Lithuanian 23,050 kbps
Presentation Graphics Romanian 22,262 kbps
Presentation Graphics Russian 20,919 kbps
Presentation Graphics Russian 43,865 kbps
Presentation Graphics Slovenian 20,656 kbps
Presentation Graphics Spanish 23,646 kbps
Presentation Graphics Spanish 39,911 kbps
Presentation Graphics Turkish 23,441 kbps
Presentation Graphics Ukrainian 23,409 kbps

FILES:

Name Time In Length Size Total Bitrate
---- ------- ------ ---- -------------
00750.M2TS 0:00:00.000 0:03:29.751 733,999,104 27,995
00700.M2TS 0:03:29.751 0:08:31.135 1,823,754,240 28,544
00753.M2TS 0:12:00.886 0:01:37.347 349,323,264 28,707
00701.M2TS 0:13:38.234 0:01:42.143 362,993,664 28,430
00755.M2TS 0:15:20.377 0:06:28.471 1,373,472,768 28,285
00703.M2TS 0:21:48.849 0:08:31.093 1,808,971,776 28,315
00757.M2TS 0:30:19.943 0:01:25.627 303,439,872 28,350
00704.M2TS 0:31:45.570 0:01:49.025 382,685,184 28,080
00759.M2TS 0:33:34.595 0:02:15.260 476,651,520 28,192
00705.M2TS 0:35:49.855 0:05:43.926 1,227,976,704 28,564
00761.M2TS 0:41:33.782 0:04:49.872 1,029,414,912 28,410
00706.M2TS 0:46:23.655 0:01:49.651 389,468,160 28,415
00763.M2TS 0:48:13.306 0:02:53.298 616,077,312 28,440
00707.M2TS 0:51:06.605 0:06:06.699 1,297,569,792 28,308
00765.M2TS 0:57:13.304 0:01:03.480 228,384,768 28,782
00708.M2TS 0:58:16.784 0:02:47.375 596,932,608 28,531
00767.M2TS 1:01:04.160 0:02:24.769 518,510,592 28,653
00709.M2TS 1:03:28.929 0:07:05.383 1,523,042,304 28,643
00769.M2TS 1:10:34.313 0:01:40.558 355,319,808 28,268
00710.M2TS 1:12:14.872 0:00:32.991 116,232,192 28,185
00771.M2TS 1:12:47.863 0:01:27.462 310,831,104 28,431
00711.M2TS 1:14:15.325 0:02:21.516 500,017,152 28,266
00773.M2TS 1:16:36.842 0:02:33.736 542,539,776 28,232
00712.M2TS 1:19:10.578 0:10:27.668 2,251,941,888 28,702
00775.M2TS 1:29:38.247 0:13:37.858 2,940,389,376 28,762
00713.M2TS 1:43:16.106 0:05:38.588 1,213,286,400 28,667
00777.M2TS 1:48:54.694 0:05:57.440 1,253,007,360 28,044

Name: 00801.MPLS
Length: 2:24:52 (h:m:s)
Size: 30,867,130,368 bytes
Total Bitrate: 28,41 Mbps

Звезда Indicates included stream hidden by this playlist.

VIDEO:

Codec Bitrate Description
----- ------- -----------
MPEG-4 AVC Video 19489 kbps 1080p / 23,976 fps / 16:9 / High Profile 4.1

AUDIO:

Codec Language Bitrate Description
----- -------- ------- -----------
DTS-HD Master Audio English 4145 kbps 5.1 / 48 kHz / 4145 kbps / 24-bit (DTS Core: 5.1 / 48 kHz / 1509 kbps / 24-bit)
DTS Audio Russian 768 kbps 5.1 / 48 kHz / 768 kbps / 24-bit
DTS Audio Spanish 768 kbps 5.1 / 48 kHz / 768 kbps / 24-bit
* Dolby Digital Audio English 448 kbps 5.1 / 48 kHz / 448 kbps / DN -4dB
Dolby Digital Audio Turkish 448 kbps 5.1 / 48 kHz / 448 kbps / DN -4dB
Dolby Digital Audio English 224 kbps 2.0 / 48 kHz / 224 kbps / DN -4dB

SUBTITLES:

Codec Language Bitrate Description
----- -------- ------- -----------
Presentation Graphics English 24,074 kbps
Presentation Graphics Arabic 12,895 kbps
Presentation Graphics Bulgarian 23,514 kbps
Presentation Graphics Croatian 22,088 kbps
Presentation Graphics Estonian 22,604 kbps
Presentation Graphics Hebrew 17,809 kbps
Presentation Graphics Kazakh 23,574 kbps
Presentation Graphics Latvian 23,267 kbps
Presentation Graphics Lithuanian 23,556 kbps
Presentation Graphics Romanian 22,477 kbps
Presentation Graphics Russian 20,690 kbps
Presentation Graphics Russian 36,240 kbps
Presentation Graphics Slovenian 21,002 kbps
Presentation Graphics Spanish 23,876 kbps
Presentation Graphics Spanish 37,489 kbps
Presentation Graphics Turkish 23,981 kbps
Presentation Graphics Ukrainian 24,065 kbps

FILES:

Name Time In Length Size Total Bitrate
---- ------- ------ ---- -------------
00750.M2TS 0:00:00.000 0:03:29.751 733,999,104 27,995
00752.M2TS 0:03:29.751 0:11:10.711 2,388,860,928 28,493
00753.M2TS 0:14:40.462 0:01:37.347 349,323,264 28,707
00754.M2TS 0:16:17.810 0:01:38.223 345,729,024 28,159
00755.M2TS 0:17:56.033 0:06:28.471 1,373,472,768 28,285
00756.M2TS 0:24:24.504 0:13:18.756 2,828,163,072 28,326
00757.M2TS 0:37:43.260 0:01:25.627 303,439,872 28,350
00758.M2TS 0:39:08.888 0:02:16.845 480,000,000 28,061
00759.M2TS 0:41:25.733 0:02:15.260 476,651,520 28,192
00760.M2TS 0:43:40.993 0:08:32.428 1,819,987,968 28,414
00761.M2TS 0:52:13.421 0:04:49.872 1,029,414,912 28,410
00762.M2TS 0:57:03.294 0:02:30.024 531,898,368 28,363
00763.M2TS 0:59:33.319 0:02:53.298 616,077,312 28,440
00764.M2TS 1:02:26.617 0:07:24.902 1,570,136,064 28,233
00765.M2TS 1:09:51.520 0:01:03.480 228,384,768 28,782
00766.M2TS 1:10:55.000 0:03:17.822 701,865,984 28,384
00767.M2TS 1:14:12.823 0:02:24.769 518,510,592 28,653
00768.M2TS 1:16:37.592 0:18:33.779 3,951,378,432 28,382
00769.M2TS 1:35:11.372 0:01:40.558 355,319,808 28,268
00770.M2TS 1:36:51.930 0:02:43.538 578,979,840 28,323
00771.M2TS 1:39:35.469 0:01:27.462 310,831,104 28,431
00772.M2TS 1:41:02.931 0:02:37.782 555,362,304 28,158
00773.M2TS 1:43:40.714 0:02:33.736 542,539,776 28,232
00774.M2TS 1:46:14.451 0:12:50.603 2,753,568,768 28,586
00775.M2TS 1:59:05.054 0:13:37.858 2,940,389,376 28,762
00776.M2TS 2:12:42.913 0:06:12.288 1,329,838,080 28,577
00777.M2TS 2:18:55.201 0:05:57.440 1,253,007,360 28,044
Subtitles/Captions
Английский
Арабский
Болгарский
Хорватский
Эстонский
Иврит
Казахский
Латышский
Литовский
Румынский
Русский
Словенский
Испанский
Турецкий
Украинский
Supplements
TBA



Качество: Blu-ray
Формат: BDMV
Видео кодек: MPEG-4 AVC Video
Аудио кодек: DTS-HD Master Audio, DDA
Видео: 19489 kbps, 1080p / 23,976 fps / 16:9 / High Profile 4.1
Аудио:
DTS-HD Master Audio, English, 4198 kbps, 5.1 / 48 kHz / 4198 kbps / 24-bit (DTS Core: 5.1 / 48 kHz / 1509 kbps / 24-bit)
DTS Audio, Russian, 768 kbps, 5.1 / 48 kHz / 768 kbps / 24-bit
DTS Audio, Spanish, 768 kbps, 5.1 / 48 kHz / 768 kbps / 24-bit
Dolby Digital Audio, English, 448 kbps, 5.1 / 48 kHz / 448 kbps / DN -4dB
Dolby Digital Audio, Turkish, 448 kbps, 5.1 / 48 kHz / 448 kbps / DN -4dB
Dolby Digital Audio, English, 224 kbps, 2.0 / 48 kHz / 224 kbps / DN -4dB

Чужой 4: Воскрешение / Alien: Resurrection [2-in-1: Theatrical & 2003 Special Edition] (1997) Blu-ray 1080p AVC DTS 5.1


В ролях: Сигурни Уивер, Вайнона Райдер, Доминик Пинон, Рон Перлман, Гари Дурдан, Майкл Уинкотт, Ким Флауэрс, Дэн Хедайя, Дж. Э. Фримен, Брэд Дуриф

Сюжет фильма: Спустя двести лет после событий, произошедших на планете-тюрьме, группа ученых, опекаемых военным командованием, клонирует Эллен Рипли, чтобы с ее помощью заполучить детеныша инопланетного монстра. Вскоре он уже сам начинает плодиться, производя на свет новую породу - помесь кровожадного пришельца и... человека.
DISC INFO:

Disc Title: ALIEN_RESURRECTION
Disc Size: 47,182,047,460 bytes
Protection: AACS
BD-Java: Yes
BDInfo: 0.5.4

PLAYLIST REPORT:

Name: 00800.MPLS
Length: 1:48:48 (h:m:s)
Size: 32,257,701,888 bytes
Total Bitrate: 39,53 Mbps

VIDEO:

Codec Bitrate Description
----- ------- -----------
MPEG-4 AVC Video 29988 kbps 1080p / 23,976 fps / 16:9 / High Profile 4.1

AUDIO:

Codec Language Bitrate Description
----- -------- ------- -----------
DTS-HD Master Audio English 4388 kbps 5.1 / 48 kHz / 4388 kbps / 24-bit (DTS Core: 5.1 / 48 kHz / 1509 kbps / 24-bit)
DTS Audio Russian 768 kbps 5.1 / 48 kHz / 768 kbps / 24-bit
DTS Audio Spanish 768 kbps 5.1 / 48 kHz / 768 kbps / 24-bit
Dolby Digital Audio English 448 kbps 5.1 / 48 kHz / 448 kbps / DN -4dB
Dolby Digital Audio Turkish 448 kbps 5.1 / 48 kHz / 448 kbps / DN -4dB
Dolby Digital Audio English 224 kbps 2.0 / 48 kHz / 224 kbps / DN -4dB

SUBTITLES:

Codec Language Bitrate Description
----- -------- ------- -----------
Presentation Graphics English 17,282 kbps
Presentation Graphics Arabic 9,820 kbps
Presentation Graphics Bulgarian 15,950 kbps
Presentation Graphics Croatian 15,063 kbps
Presentation Graphics Estonian 18,352 kbps
Presentation Graphics Hebrew 12,048 kbps
Presentation Graphics Kazakh 17,393 kbps
Presentation Graphics Latvian 17,195 kbps
Presentation Graphics Lithuanian 14,367 kbps
Presentation Graphics Romanian 16,457 kbps
Presentation Graphics Russian 15,901 kbps
Presentation Graphics Russian 43,960 kbps
Presentation Graphics Slovenian 14,513 kbps
Presentation Graphics Spanish 16,289 kbps
Presentation Graphics Spanish 43,827 kbps
Presentation Graphics Turkish 16,421 kbps
Presentation Graphics Ukrainian 16,787 kbps

FILES:

Name Time In Length Size Total Bitrate
---- ------- ------ ---- -------------
00700.M2TS 0:00:00.000 0:03:42.722 1,097,889,792 39,435
00701.M2TS 0:03:42.722 0:01:26.961 423,051,264 38,918
00703.M2TS 0:05:09.684 0:14:32.663 4,304,928,768 39,465
00704.M2TS 0:19:42.347 0:10:01.350 2,948,364,288 39,223
00705.M2TS 0:29:43.698 0:10:01.267 2,976,184,320 39,599
00706.M2TS 0:39:44.965 0:09:19.892 2,769,260,544 39,568
00707.M2TS 0:49:04.858 0:09:26.274 2,783,698,944 39,327
00708.M2TS 0:58:31.132 0:06:53.788 2,049,269,760 39,620
00709.M2TS 1:05:24.920 0:09:14.554 2,758,318,080 39,792
00710.M2TS 1:14:39.474 0:06:46.447 2,009,407,488 39,551
00741.M2TS 1:21:25.922 0:09:20.810 2,778,415,104 39,634
00712.M2TS 1:30:46.732 0:09:22.436 2,804,834,304 39,895
00713.M2TS 1:40:09.169 0:08:39.393 2,554,079,232 39,339

Name: 00801.MPLS
Length: 1:56:08 (h:m:s)
Size: 34,304,557,056 bytes
Total Bitrate: 39,38 Mbps

Звезда Indicates included stream hidden by this playlist.

VIDEO:

Codec Bitrate Description
----- ------- -----------
MPEG-4 AVC Video 29987 kbps 1080p / 23,976 fps / 16:9 / High Profile 4.1

AUDIO:

Codec Language Bitrate Description
----- -------- ------- -----------
DTS-HD Master Audio English 4238 kbps 5.1 / 48 kHz / 4238 kbps / 24-bit (DTS Core: 5.1 / 48 kHz / 1509 kbps / 24-bit)
DTS Audio Russian 768 kbps 5.1 / 48 kHz / 768 kbps / 24-bit
DTS Audio Spanish 768 kbps 5.1 / 48 kHz / 768 kbps / 24-bit
* Dolby Digital Audio English 448 kbps 5.1 / 48 kHz / 448 kbps / DN -4dB
Dolby Digital Audio Turkish 448 kbps 5.1 / 48 kHz / 448 kbps / DN -4dB
Dolby Digital Audio English 224 kbps 2.0 / 48 kHz / 224 kbps / DN -4dB

SUBTITLES:

Codec Language Bitrate Description
----- -------- ------- -----------
Presentation Graphics English 18,005 kbps
Presentation Graphics Arabic 10,218 kbps
Presentation Graphics Bulgarian 16,621 kbps
Presentation Graphics Croatian 15,630 kbps
Presentation Graphics Estonian 19,079 kbps
Presentation Graphics Hebrew 12,427 kbps
Presentation Graphics Kazakh 18,059 kbps
Presentation Graphics Latvian 17,854 kbps
Presentation Graphics Lithuanian 14,954 kbps
Presentation Graphics Romanian 17,027 kbps
Presentation Graphics Russian 16,767 kbps
Presentation Graphics Russian 43,745 kbps
Presentation Graphics Slovenian 14,947 kbps
Presentation Graphics Spanish 16,999 kbps
Presentation Graphics Spanish 44,359 kbps
Presentation Graphics Turkish 17,108 kbps
Presentation Graphics Ukrainian 17,354 kbps

FILES:

Name Time In Length Size Total Bitrate
---- ------- ------ ---- -------------
00750.M2TS 0:00:00.000 0:04:42.740 1,383,358,464 39,141
00701.M2TS 0:04:42.740 0:01:26.961 423,051,264 38,918
00751.M2TS 0:06:09.702 0:18:03.165 5,284,866,048 39,033
00704.M2TS 0:24:12.868 0:10:01.350 2,948,364,288 39,223
00705.M2TS 0:34:14.218 0:10:01.267 2,976,184,320 39,599
00706.M2TS 0:44:15.486 0:09:19.892 2,769,260,544 39,568
00707.M2TS 0:53:35.378 0:09:26.274 2,783,698,944 39,327
00757.M2TS 1:03:01.652 0:08:04.358 2,383,958,016 39,375
00709.M2TS 1:11:06.011 0:09:14.554 2,758,318,080 39,792
00758.M2TS 1:20:20.565 0:08:10.948 2,404,859,904 39,187
00741.M2TS 1:28:31.514 0:09:20.810 2,778,415,104 39,634
00712.M2TS 1:37:52.324 0:09:22.436 2,804,834,304 39,895
00759.M2TS 1:47:14.761 0:08:53.908 2,605,387,776 39,039
Subtitles/Captions
Английский
Арабский
Болгарский
Хорватский
Эстонский
Иврит
Казахский
Латышский
Литовский
Румынский
Русский
Словенский
Испанский
Турецкий
Украинский

Supplements
TBA



Качество: Blu-ray
Формат: BDMV
Видео кодек: MPEG-4 AVC Video
Аудио кодек: DTS-HD Master Audio, DTS, DDA
Видео: 29988 kbps, 1080p / 23,976 fps / 16:9 / High Profile 4.1
Аудио:
DTS-HD Master Audio, English, 4388 kbps, 5.1 / 48 kHz / 4388 kbps / 24-bit (DTS Core: 5.1 / 48 kHz / 1509 kbps / 24-bit)
DTS Audio, Russian, 768 kbps, 5.1 / 48 kHz / 768 kbps / 24-bit
DTS Audio, Spanish, 768 kbps, 5.1 / 48 kHz / 768 kbps / 24-bit
Dolby Digital Audio, English, 448 kbps, 5.1 / 48 kHz / 448 kbps / DN -4dB
Dolby Digital Audio, Turkish, 448 kbps, 5.1 / 48 kHz / 448 kbps / DN -4dB
Dolby Digital Audio, English, 224 kbps, 2.0 / 48 kHz / 224 kbps / DN -4dB

Бонус-диск №1 / Disc Five: Making the Anthology


Supplements
(Русские субтитры)
* The Beast Within: Making Alien
o Star Beast: Developing the Story
o The Visualists: Direction and Design
o Truckers in Space: Casting
o Fear of the Unknown: Shepperton Studios, 1978
o The Darkest Reaches: Nostromo and Alien Planet
o The Eighth Passenger: Creature Design
o Future Tense: Editing and Music
o Outward Bound: Visual Effects
o A Nightmare Fulfilled: Reaction to the Film
o Enhancement Pods
* Superior Firepower: Making Aliens
o 57 Years Later: Continuing the Story
o Building Better Worlds: From Concept to Construction
o Preparing for Battle: Casting and Characterization
o This Time It's War: Pinewood Studios, 1985
o The Risk Always Lives: Weapons and Action
o Bug Hunt: Creature Design
o Beauty and the Bitch: Power Loader vs. Queen Alien
o Two Orphans: Sigourney Weaver and Carrie Henn
o The Final Countdown: Music, Editing and Sound
o The Power of Real Tech: Visual Effects
o Aliens Unleashed: Reaction to the Film
o Enhancement Pods
* Wreckage and Rage: Making Alien3
o Development Hell: Concluding the Story
o Tales of the Wooden Planet: Vincent Ward's Vision
o Stasis Interrupted: David Fincher's Vision
o Xeno-Erotic: H.R. Giger's Redesign
o The Color of Blood: Pinewood Studios, 1991
o Adaptive Organism: Creature Design
o The Downward Spiral: Creative Differences
o Where the Sun Burns Cold: Fox Studios, L.A. 1992
o Optical Fury: Visual Effects
o Requiem for a Scream: Music, Editing and Sound
o Post-Mortem: Reaction to the Film
o Enhancement Pods
* One Step Beyond: Making Alien Resurrection
o From the Ashes: Reviving the Story
o French Twist: Direction and Design
o Under the Skin: Casting and Characterization
o Death from Below: Fox Studios, Los Angeles, 1996
o In the Zone: The Basketball Scene
o Unnatural Mutation: Creature Design
o Genetic Composition: Music
o Virtual Aliens: Computer Generated Imagery
o A Matter of Scale: Miniature Photography
o Critical Juncture: Reaction to the Film
o Enhancement Pods
o MU-TH-UR Mode Interactive Experience to Access and Control Enhancement Pods
Бонус-диск №2 / Disc Six: The Anthology Archives


Supplements
(Русские субтитры)
Alien
* Pre-Production
o First Draft Screenplay by Dan O'Bannon
o Ridleygrams: Original Thumbnails and Notes
o Storyboard Archive
o The Art of Alien: Conceptual Art Portfolio
o Sigourney Weaver Screen Tests with Select Director Commentary
o Cast Portrait Gallery
* Production
o The Chestbuster: Multi-Angle Sequence with Commentary
o Video Graphics Gallery
o Production Image Galleries
o Continuity Polaroids
o The Sets of Alien
o H.R. Giger's Workshop Gallery
* Post-Production and Aftermath
o Additional Deleted Scenes
o Image & Poster Galleries
o Experience in Terror
o Special Collector's Edition LaserDisc Archive
o The Alien Legacy
o American Cinematheque: Ridley Scott Q&A
o Trailers & TV Spots

Aliens
* Pre-Production
o Original Treatment by James Cameron
o Pre-Visualizations: Multi-Angle Videomatics with Commentary
o Storyboard Archive
o The Art of Aliens: Image Galleries
o Cast Portrait Gallery
* Production
o Production Image Galleries
o Continuity Polaroids
o Weapons and Vehicles
o Stan Winston's Workshop
o Colonial Marine Helmet Cameras
o Video Graphics Gallery
o Weyland-Yutani Inquest: Nostromo Dossiers
* Post-Production and Aftermath
o Deleted Scene: Burke Cocooned
o Deleted Scene Montage
o Image Galleries
o Special Collector's Edition LaserDisc Archive
o Main Title Exploration
o Aliens: Ride at the Speed of Fright
o Trailers & TV Spots

Alien3
* Pre-Production
o Storyboard Archive
o The Art of Arceon
o The Art of Fiorina
* Production
o Furnace Construction: Time-Lapse Sequence
o EEV Bioscan: Multi-Angle Vignette with Commentary
o Production Image Galleries
o A.D.I.'s Workshop
* Post-Production and Aftermath
o Visual Effects Gallery
o Special Shoot: Promotional Photo Archive
* Alien3 Advance Featurette
* The Making of Alien3 Promotional Featurette
* Trailers & TV Spots

Alien Resurrection
* Pre-Production
o First Draft Screenplay by Joss Whedon
o Test Footage: A.D.I. Creature Shop with Commentary
o Test Footage: Costumes, Hair and Makeup
o Pre-Visualizations: Multi-Angle Rehearsals
o Storyboard Archive
o The Marc Caro Portfolio: Character Designs
o The Art of Resurrection: Image Galleries
* Production
o Production Image Galleries
o A.D.I.'s Workshop
* Post-Production and Aftermath
o Visual Effects Gallery
o Special Shoot: Promotional Photo Archive
* HBO First Look: The Making of Alien Resurrection
* Alien Resurrection Promotional Featurette
* Trailers & TV Spots

Anthology
* Two Versions of Alien Evolution
* The Alien Saga
* Patches and Logos Gallery
* Aliens 3D Attraction Scripts and Gallery
* Aliens in the Basement: The Bob Burns Collection
* Parodies
* Dark Horse Cover Gallery
* Patches and Logos Gallery
* MU-TH-UR Mode Interactive Experience
РАЗДАЧА ОТ:
info [Профиль]  [ЛС] 

dtr

Пол: Пол:Муж

Стаж: 7 лет 3 месяца

Сообщений: 156

Латвия
Рейтинг

post 14-Ноя-2010 20:10 (спустя 1 час 19 минут) [-]1[+]

[Цитировать] 

мощно !

_________________
Grains of Brains promo
info [Профиль]  [ЛС] 

duratar

Пол: Пол:Муж

Стаж: 6 лет 2 месяца

Сообщений: 27

Россия
Рейтинг

post 14-Ноя-2010 20:27 (спустя 16 минут) [-]1[+]

[Цитировать] 

Ну ты, парень, монстр.
info [Профиль]  [ЛС] 

skitzo144

Пол: Пол:Муж

Стаж: 6 лет 3 месяца

Сообщений: 130

Предупреждений: 1

Рейтинг

post 14-Ноя-2010 20:29 (спустя 2 минуты) [-]1[+]

[Цитировать] 

сильно !
info [Профиль]  [ЛС] 

vista101012

Стаж: 7 лет 1 месяц

Сообщений: 34

Рейтинг

post 14-Ноя-2010 20:33 (спустя 3 минуты) [-]1[+]

[Цитировать] 

обалдеть!вот это размер!!!))) говорю спасибо только за размер, но качать такой КОЛИЧЕСТВО гигов я думаю мало кто будет!)))
info [Профиль]  [ЛС] 

Eвгений

Пол: Пол:Муж

Стаж: 6 лет 9 месяцев

Сообщений: 680

Россия
Рейтинг

post 14-Ноя-2010 20:37 (спустя 4 минуты) [-]0[+]

[Цитировать] 

vista101012 писал(а):

но качать такой КОЛИЧЕСТВО гигов я думаю мало кто будет!)))
Ну незнаю...там где качал около 1000 пиров))) к тому же не обязательно всё полностью скачивать Подмигиваю Улыбаюсь

_________________
Если необходимо увеличить скорость на моих раздачах, пишите ЛС.
info [Профиль]  [ЛС] 

TTagoHok

Пол: Пол:Муж

Стаж: 6 лет 10 месяцев

Сообщений: 379

Украина
Рейтинг

post 14-Ноя-2010 22:36 (спустя 1 час 59 минут) [-]0[+]

[Цитировать] 

Жесть =))у меня на стационарнике жесткий меньше)))Но автору по-любому благодарность!

_________________
info [Профиль]  [ЛС] 

ZaRaZzZa

Пол: Пол:Муж

Стаж: 6 лет 4 месяца

Сообщений: 589

Предупреждений: 1

Украина
Рейтинг

post 15-Ноя-2010 11:26 (спустя 12 часов) [-]0[+]

[Цитировать] 

Жесть... У меня такой ЖД... Автор молодца!

_________________
info [Профиль]  [ЛС] 

Andras

Пол: Пол:Муж

Стаж: 6 лет 2 месяца

Сообщений: 460

Украина
Рейтинг

post 15-Ноя-2010 12:49 (спустя 1 час 23 минуты) [-]0[+]

[Цитировать] 

Первый раз такое вижу Респект и Уважуха за сию фиерию)

_________________
info [Профиль]  [ЛС] 

Shredinger

Пол: Пол:Муж

Стаж: 6 лет 9 месяцев

Сообщений: 2168

Предупреждений: 2

Россия
Рейтинг

post 16-Ноя-2010 00:38 (спустя 11 часов) [-]0[+]

[Цитировать] 

Я так понимаю, это релиз вышедшей сборки 11го ноября?
Так, а если не считать докучи бонусного материала и взять(мысленно) только сами фильмы, они чем-нибудь отличаются от уже имеющихся BD режиссёрских версий?

_________________
Единение через разнообразие.
info [Профиль]  [ЛС] 

DMDguest

Пол: Пол:Муж

Стаж: 6 лет 8 месяцев

Сообщений: 1

Россия
Рейтинг

post 16-Ноя-2010 01:38 (спустя 59 минут) [-]0[+]

[Цитировать] 

Спасибо!
Подключился :-)
info [Профиль]  [ЛС] 

mr.PD

Стаж: 7 лет 8 месяцев

Сообщений: 26

Украина
Рейтинг

post 16-Ноя-2010 16:54 (спустя 15 часов) [-]0[+]

[Цитировать] 

Shredinger писал(а):

Я так понимаю, это релиз вышедшей сборки 11го ноября?
Так, а если не считать докучи бонусного материала и взять(мысленно) только сами фильмы, они чем-нибудь отличаются от уже имеющихся BD режиссёрских версий?
Во всех версиях фильмов новый русский дубляж.
info [Профиль]  [ЛС] 

Shredinger

Пол: Пол:Муж

Стаж: 6 лет 9 месяцев

Сообщений: 2168

Предупреждений: 2

Россия
Рейтинг

post 16-Ноя-2010 17:32 (спустя 38 минут) [-]0[+]

[Цитировать] 

Цитата:

Во всех версиях фильмов новый русский дубляж.
О'кей, значица жду-с появления отдельных дорожек :З

_________________
Единение через разнообразие.
info [Профиль]  [ЛС] 

Arsik

Пол: Пол:Муж

Стаж: 6 лет 2 месяца

Сообщений: 12

Украина
Рейтинг

post 18-Ноя-2010 00:48 (спустя 1 день 7 часов) [-]0[+]

[Цитировать] 

А что на первом и втором бонус дисках?
info [Профиль]  [ЛС] 

skitzo144

Пол: Пол:Муж

Стаж: 6 лет 3 месяца

Сообщений: 130

Предупреждений: 1

Рейтинг

post 18-Ноя-2010 01:34 (спустя 45 минут) [-]0[+]

[Цитировать] 

4-я серия дрянь , только алики красивые.(ну и конечно Рипли)
info [Профиль]  [ЛС] 

Медвежопок

Пол: Пол:Муж

Стаж: 6 лет 7 месяцев

Сообщений: 22

СССР
Рейтинг

post 28-Янв-2012 17:51 (спустя 1 год 2 месяца) [-]0[+]

[Цитировать] 

я бы скачал, но сэмпл бы глянуть, а то стянешь, а перевод лажа очередная

_________________
info [Профиль]  [ЛС] 

ddavid

Пол: Пол:Муж

Стаж: 6 лет 7 месяцев

Сообщений: 20

Предупреждений: 1

СССР
Рейтинг

post 19-Май-2012 00:37 (спустя 3 месяца 21 день) [-]0[+]

[Цитировать] 

Спасибо за труды релизеру, такого больше нигде не встретишь.
info [Профиль]  [ЛС] 

gjhhh

Пол: Пол:Муж

Стаж: 3 года 8 месяцев

Сообщений: 2

Россия
Рейтинг

post 18-Мар-2013 14:41 (спустя 9 месяцев 30 дней) [-]0[+]

[Цитировать] 

а что с сидами?за 2 дня и килобайта не скачал
info [Профиль]  [ЛС] 

GeForce

Пол: Пол:Муж

Стаж: 4 года 1 месяц

Сообщений: 3

Россия
Рейтинг

post 10-Июл-2013 05:23 (спустя 3 месяца 22 дня) [-]0[+]

[Цитировать] 

Раздачу плиз
info [Профиль]  [ЛС] 
Показать сообщения:    
Ответить на тему

Текущее время: 06-Дек 22:04

Часовой пояс: GMT + 4



Вы не можете начинать темы
Вы не можете отвечать на сообщения
Вы не можете редактировать свои сообщения
Вы не можете удалять свои сообщения
Вы не можете голосовать в опросах
Вы не можете прикреплять файлы к сообщениям
Вы не можете скачивать файлы