Ошибка

Океаны / Ocеans (Жак Перрен / Jacques Perrin, Жак Клюзо / Jacques Cluzaud) [2009 г., документальный, драма, семейный, BDRip-AVC]

Ответить на тему
 
Автор Сообщение

Nitey

Пол: Пол:Муж

Стаж: 7 лет 8 месяцев

Сообщений: 36

Россия
Рейтинг

post 13-Окт-2010 00:34 0[+]

[Цитировать] 

Океаны / Ocеans


Год выпуска: 2009
Страна: Франция, Испания, Швейцария
Жанр: документальный, драма, семейный
Продолжительность: 01:43:51
Перевод: профессиональный (одноголосый закадровый)
Субтитры: нет

Режиссер: Жак Перрен / Jacques Perrin, Жак Клюзо / Jacques Cluzaud
В ролях: Жак Перрен, Ланселот Перрен
Озвучивание: Олег Басилашвили

Описание: Почти три четверти земной поверхности покрыты водой. «Океаны» предлагают зрителю заглянуть в волшебный подводный мир, все еще остающийся загадкой для человека.
Рейтинг MPAA:
Доп. информация:
IMDb: 7.6/10
Kinopoisk: 8.608/10, Top 250: #146
Sample
* Съёмки документальной ленты проходили в 54 различных уголках планеты и заняли более четырёх лет.
Качество: BDRip-AVC (Blu-Ray Disc)
Формат: MKV
Видео кодек: H.264
Аудио кодек: AC3
Видео: 1152x484 (2,38:1), 5566 kbps, 23.976 fps
Аудио: Russian AC3, 6ch, 48Hz, 448 kbps
-----------------------Отдельно-----------------------
Аудио: AC3, 6ch, 48Hz, 448 kbps (Без комментариев) - скачать
Format : Matroska
File size : 4.36 GiB
Duration : 1h 43mn
Overall bit rate : 6 016 Kbps
Movie name : Oceans (2009) BDRip
Encoded date : UTC 2010-10-11 12:50:39
Writing application : mkvmerge v3.4.0 ('Rapunzel') built on May 15 2010 09:38:20
Writing library : libebml v0.8.0 + libmatroska v0.9.0
Cover : Yes

Video
ID : 1
Format : AVC
Format/Info : Advanced Video Codec
Format profile : High@L4.0
Format settings, CABAC : Yes
Format settings, ReFrames : 14 frames
Muxing mode : Container profile=Unknown@4.0
Codec ID : V_MPEG4/ISO/AVC
Duration : 1h 43mn
Bit rate : 5 570 Kbps
Width : 1 152 pixels
Height : 484 pixels
Display aspect ratio : 2.35:1
Frame rate : 23.976 fps
Color space : YUV
Chroma subsampling : 4:2:0
Bit depth : 8 bits
Scan type : Progressive
Bits/(Pixel*Frame) : 0.417
Stream size : 3.95 GiB (91%)
Writing library : x264 core 105 r1732 2b04482
Encoding settings : cabac=1 / ref=14 / deblock=1:-3:-2 / analyse=0x3:0x133 / me=umh / subme=10 / psy=1 / psy_rd=0.90:0.10 / mixed_ref=1 / me_range=32 / chroma_me=1 / trellis=2 / 8x8dct=1 / cqm=0 / deadzone=21,11 / fast_pskip=0 / chroma_qp_offset=-3 / threads=6 / sliced_threads=0 / nr=0 / decimate=0 / interlaced=0 / constrained_intra=0 / bframes=12 / b_pyramid=2 / b_adapt=2 / b_bias=0 / direct=3 / weightb=1 / open_gop=0 / weightp=2 / keyint=250 / keyint_min=23 / scenecut=40 / intra_refresh=0 / rc_lookahead=120 / rc=2pass / mbtree=1 / bitrate=5570 / ratetol=1.0 / qcomp=0.72 / qpmin=10 / qpmax=51 / qpstep=4 / cplxblur=20.0 / qblur=0.5 / ip_ratio=1.40 / aq=1:1.05
Language : French

Audio
ID : 2
Format : AC-3
Format/Info : Audio Coding 3
Mode extension : CM (complete main)
Codec ID : A_AC3
Duration : 1h 43mn
Bit rate mode : Constant
Bit rate : 448 Kbps
Channel(s) : 6 channels
Channel positions : Front: L C R, Side: L R, LFE
Sampling rate : 48.0 KHz
Bit depth : 16 bits
Stream size : 333 MiB (7%)
Language : Russian
x264 [info]: frame I:708 Avg QP:18.04 size: 97374 PSNR Mean Y:45.58 U:49.82 V:49.05 Avg:46.32 Global:45.60
x264 [info]: frame P:34758 Avg QP:21.05 size: 42771 PSNR Mean Y:43.22 U:48.28 V:47.51 Avg:44.01 Global:43.21
x264 [info]: frame B:113933 Avg QP:22.12 size: 24400 PSNR Mean Y:42.03 U:48.03 V:46.96 Avg:43.13 Global:42.52
x264 [info]: consecutive B-frames: 2.0% 3.2% 7.2% 29.8% 13.7% 40.0% 2.1% 0.6% 0.4% 0.2% 0.2% 0.4% 0.1%
x264 [info]: mb I I16..4: 10.4% 71.0% 18.6%
x264 [info]: mb P I16..4: 1.2% 19.8% 3.4% P16..4: 37.4% 24.7% 6.6% 1.0% 0.7% skip: 5.1%
x264 [info]: mb B I16..4: 0.1% 5.3% 1.1% B16..8: 39.0% 17.7% 5.9% direct: 9.6% skip:21.3% L0:43.3% L1:38.9% BI:17.8%
x264 [info]: 8x8 transform intra:80.8% inter:66.2%
x264 [info]: direct mvs spatial:95.0% temporal:5.0%
x264 [info]: coded y,uvDC,uvAC intra: 93.1% 83.5% 57.9% inter: 50.1% 35.5% 12.9%
x264 [info]: i16 v,h,dc,p: 43% 18% 11% 28%
x264 [info]: i8 v,h,dc,ddl,ddr,vr,hd,vl,hu: 5% 14% 9% 9% 13% 9% 15% 9% 16%
x264 [info]: i4 v,h,dc,ddl,ddr,vr,hd,vl,hu: 22% 14% 4% 6% 11% 7% 14% 7% 15%
x264 [info]: i8c dc,h,v,p: 39% 33% 13% 15%
x264 [info]: Weighted P-Frames: Y:9.7%
x264 [info]: ref P L0: 39.8% 13.9% 14.6% 6.7% 5.1% 3.9% 4.5% 2.5% 2.0% 1.6% 1.4% 1.3% 1.2% 1.1% 0.2% 0.0%
x264 [info]: ref B L0: 69.7% 10.8% 6.1% 3.2% 2.4% 1.9% 1.8% 1.0% 0.9% 0.8% 0.7% 0.5% 0.2%
x264 [info]: ref B L1: 93.0% 7.0%
x264 [info]: SSIM Mean Y:0.9686354 (15.036db)
x264 [info]: PSNR Mean Y:42.325 U:48.101 V:47.101 Avg:43.353 Global:42.678 kb/s:5566.19

encoded 149399 frames, 3.33 fps, 5566.19 kb/s



Релиз от группы
info [Профиль]  [ЛС] 

Tande

Пол: Пол:Муж

Стаж: 6 лет 9 месяцев

Сообщений: 593

Рейтинг

post 13-Окт-2010 23:20 (спустя 22 часа) [-]0[+]

[Цитировать] 

Nitey
Можете дать оценку русской озвучке?

_________________
info [Профиль]  [ЛС] 

Nitey

Пол: Пол:Муж

Стаж: 7 лет 8 месяцев

Сообщений: 36

Россия
Рейтинг

post 13-Окт-2010 23:37 (спустя 17 минут) [-]0[+]

[Цитировать] 

Tande
Слов там не много, перевод правильный. Иногда голос звучит гулковато, но просмотру это не мешает.
info [Профиль]  [ЛС] 

Tande

Пол: Пол:Муж

Стаж: 6 лет 9 месяцев

Сообщений: 593

Рейтинг

post 13-Окт-2010 23:55 (спустя 17 минут) [-]0[+]

[Цитировать] 

Nitey
Спасиб

_________________
info [Профиль]  [ЛС] 

habak

Пол: Пол:Муж

Стаж: 6 лет 2 месяца

Сообщений: 3

Украина
Рейтинг

post 14-Окт-2010 01:45 (спустя 1 час 50 минут) [-]0[+]

[Цитировать] 

а что случилось с темой на рутрекере?
info [Профиль]  [ЛС] 

Nitey

Пол: Пол:Муж

Стаж: 7 лет 8 месяцев

Сообщений: 36

Россия
Рейтинг

post 14-Окт-2010 08:15 (спустя 6 часов) [-]0[+]

[Цитировать] 

habak
gmouse закрыл с формулировкой "рип слишком хороший и большой, его не будут сидировать через 2 года, и вообще лучше в 700MB avi"
Почти дословно.
info [Профиль]  [ЛС] 

_51CK

Пол: Пол:Муж

Стаж: 7 лет 3 месяца

Сообщений: 317

Предупреждений: 1

Россия
Рейтинг

post 14-Окт-2010 11:11 (спустя 2 часа 55 минут) [-]0[+]

[Цитировать] 

Фильм замечательный...
Только его нужно смотреть в FullHD... А перевод вовсе не обязателен...

_________________
info [Профиль]  [ЛС] 

dim68

Пол: Пол:Муж

Стаж: 6 лет 8 месяцев

Сообщений: 11

Россия
Рейтинг

post 14-Окт-2010 14:06 (спустя 2 часа 55 минут) [-]0[+]

[Цитировать] 

Встаньте кто нибудь на раздачу.
info [Профиль]  [ЛС] 

Arkopov

Пол: Пол:Муж

Стаж: 6 лет 7 месяцев

Сообщений: 1

Предупреждений: 1

Сейшельские острова
Рейтинг

post 14-Окт-2010 14:47 (спустя 41 минута) [-]0[+]

[Цитировать] 

Nitey писал(а):

gmouse закрыл с формулировкой "рип слишком хороший и большой, его не будут сидировать через 2 года, и вообще лучше в 700MB avi"
Почти дословно.
С каким удовольствием я назову здесь этого безмозглого мыша своим именем - слепой, глухой и жалкий дегенерат
info [Профиль]  [ЛС] 

Жура

Пол: Пол:Муж

Стаж: 7 лет 8 месяцев

Сообщений: 143

Предупреждений: 1

Россия
Рейтинг

post 19-Окт-2010 21:44 (спустя 5 дней) [-]0[+]

[Цитировать] 

Nitey
Спасибо за рип, на рутрекере есть на 720p 3.94 гб, но выбрал ваш.
Просьба ко всем: выложите главы и субтитры английские на файлообменник пожалуйста, если есть.
info [Профиль]  [ЛС] 
Показать сообщения:    
Ответить на тему

Текущее время: 07-Дек 16:34

Часовой пояс: GMT + 4



Вы не можете начинать темы
Вы не можете отвечать на сообщения
Вы не можете редактировать свои сообщения
Вы не можете удалять свои сообщения
Вы не можете голосовать в опросах
Вы не можете прикреплять файлы к сообщениям
Вы не можете скачивать файлы