Ошибка

До окончания фрилича осталось:


Пять сантиметров в секунду / Byousoku 5 Centimeter / 5 Centimeters per Second [Movie][Романтика, драма][Blu-Ray Disc][1080p][Дублированный(JAP+SUB)]

Ответить на тему
 
Автор Сообщение

ANtreides

Пол: Пол:Муж

Стаж: 7 лет 4 месяца

Сообщений: 1014

Рейтинг

post 30-Авг-2010 20:43 2[+]

[Цитировать] 

Пять сантиметров в секунду
5 Centimeters per Second | Byousoku 5 Centimeter | 秒速5センチメートル

Премьера: 03.03.2007
Страна: Япония
Жанр: романтика, драма
Тип: полнометражный фильм
Продолжительность: 1:02:45
Перевод:
  • Озвучено:
    • Полное профессиональное дублирование - Reanimedia
  • Субтитры:
    • Профессиональный перевод - Reanimedia

Источник: и
Режиссер: Синкай Макото
Средний балл: 9.0 из 10 (World Art)
Студия:
Описание:
Окончание начальной школы становится для Такаки и его подруги Акари громадным разочарованием: из-за переезда родителей приходится распрощаться с планами на поступление в одну и ту же среднюю школу. Десятки километров — гигантское расстояние для ребенка и совсем небольшое — для взрослого… но умение преодолевать расстояния не всегда помогает преодолеть растущую пропасть между людьми.

Качество: Blu-Ray | Хардсаб: Отсутствует | Формат: BDMV
Видео: MPEG-4 AVC Video / High Profile 4.1 / 31493 kbps / 1920x1080 / 16:9 / 23,976 fps
Аудио:
1. Русский - AC3 5.1 48 kHz 448 kbps
2. Японский - LPCM 4.0 48 kHz 3072 kbps 16-bit
Диск пересобран из оригинального Blu-ray диска. Используемые программы: BD Reauthor от DVDLogic Software (http://www.dvd-logic.com) и Sonic Scenarist BD. Меню на русском языке.
Клип на заглавную песню - One more time, One more chance
Два рекламных ролика
 
Disc Title: 5 Centimeters per Second
Disc Size: 20 533 178 568 bytes
Protection: AACS
BD-Java: No
BDInfo: 0.5.5

Notes:

BDINFO HOME:
Cinema Squid
http://www.cinemasquid.com/blu-ray/tools/bdinfo

INCLUDES FORUMS REPORT FOR:
AVS Forum Blu-ray Audio and Video Specifications Thread
http://www.avsforum.com/avs-vb/showthread.php?t=1155731

********************
PLAYLIST: 00000.MPLS
********************

<--- BEGIN FORUMS PASTE --->

Код:

                                                                                                                Total   Video                                             
Title                                                           Codec   Length  Movie Size      Disc Size       Bitrate Bitrate Main Audio Track                          Secondary Audio Track
-----                                                           ------  ------- --------------  --------------  ------- ------- ------------------                        ---------------------
00000.MPLS                                                      AVC     1:02:45 17 334 386 688  20 533 178 568  36,83   31,49   DD AC3 5.1 448Kbps                       


Код:



DISC INFO:

Disc Title:     5 Centimeters per Second
Disc Size:      20 533 178 568 bytes
Protection:     AACS
BD-Java:        No
BDInfo:         0.5.5

PLAYLIST REPORT:

Name:                   00000.MPLS
Length:                 1:02:45 (h:m:s)
Size:                   17 334 386 688 bytes
Total Bitrate:          36,83 Mbps

VIDEO:

Codec                   Bitrate             Description     
-----                   -------             -----------     
MPEG-4 AVC Video        31493 kbps          1080p / 23,976 fps / 16:9 / High Profile 4.1

AUDIO:

Codec                           Language        Bitrate         Description     
-----                           --------        -------         -----------     
Dolby Digital Audio             Russian         448 kbps        5.1 / 48 kHz / 448 kbps / DN -4dB
LPCM Audio                      Japanese        3072 kbps       4.0 / 48 kHz / 3072 kbps / 16-bit

SUBTITLES:

Codec                           Language        Bitrate         Description     
-----                           --------        -------         -----------     
Presentation Graphics           Russian         21,767 kbps                     

FILES:

Name            Time In         Length          Size            Total Bitrate   
----            -------         ------          ----            -------------   
00000.M2TS      0:00:00.000     1:02:45.762     17 334 386 688  36 825         

CHAPTERS:

Number          Time In         Length          Avg Video Rate  Max 1-Sec Rate  Max 1-Sec Time  Max 5-Sec Rate  Max 5-Sec Time  Max 10Sec Rate  Max 10Sec Time  Avg Frame Size  Max Frame Size  Max Frame Time 
------          -------         ------          --------------  --------------  --------------  --------------  --------------  --------------  --------------  --------------  --------------  -------------- 
1               0:00:00.000     0:00:59.058     28 604 kbps     46 271 kbps     00:00:33.199    40 713 kbps     00:00:30.405    39 507 kbps     00:00:21.020    149 023 bytes   930 249 bytes   00:00:36.077   
2               0:00:59.058     0:04:41.281     31 766 kbps     54 158 kbps     00:03:28.750    42 118 kbps     00:03:24.746    40 631 kbps     00:03:19.741    165 612 bytes   936 722 bytes   00:02:34.112   
3               0:05:40.340     0:07:16.269     31 894 kbps     53 297 kbps     00:07:53.639    41 768 kbps     00:07:49.635    40 005 kbps     00:06:10.912    166 279 bytes   936 791 bytes   00:06:30.640   
4               0:12:56.609     0:06:11.537     33 331 kbps     46 802 kbps     00:19:03.225    40 468 kbps     00:18:59.304    40 014 kbps     00:17:35.512    173 773 bytes   932 669 bytes   00:15:36.226   
5               0:19:08.147     0:06:47.407     30 633 kbps     59 349 kbps     00:20:23.972    42 853 kbps     00:20:19.968    40 152 kbps     00:23:04.716    159 709 bytes   937 202 bytes   00:24:54.701   
6               0:25:55.554     0:06:53.413     32 180 kbps     47 606 kbps     00:28:51.312    41 000 kbps     00:28:47.308    40 012 kbps     00:29:59.631    167 771 bytes   937 222 bytes   00:31:48.239   
7               0:32:48.967     0:06:28.387     33 083 kbps     48 562 kbps     00:38:31.809    40 393 kbps     00:34:05.168    39 883 kbps     00:35:53.484    172 479 bytes   937 079 bytes   00:34:34.363   
8               0:39:17.355     0:04:28.935     29 338 kbps     47 993 kbps     00:39:19.565    40 326 kbps     00:40:04.276    39 935 kbps     00:39:59.271    152 957 bytes   937 130 bytes   00:41:13.345   
9               0:43:46.290     0:04:45.618     32 996 kbps     45 500 kbps     00:48:17.352    40 223 kbps     00:48:13.348    39 944 kbps     00:48:08.343    172 025 bytes   830 451 bytes   00:45:29.059   
10              0:48:31.909     0:06:13.748     33 406 kbps     49 538 kbps     00:51:02.184    40 917 kbps     00:49:26.838    40 044 kbps     00:53:22.824    174 163 bytes   937 159 bytes   00:51:30.087   
11              0:54:45.657     0:05:08.933     35 920 kbps     51 785 kbps     00:56:41.564    41 701 kbps     00:56:37.560    39 858 kbps     00:55:16.980    187 268 bytes   936 864 bytes   00:54:48.243   
12              0:59:54.591     0:02:49.168     12 667 kbps     24 474 kbps     01:01:54.293    23 686 kbps     01:01:50.331    22 744 kbps     01:01:45.535    66 041 bytes    263 817 bytes   01:01:54.711   
13              1:02:43.760     0:00:02.001     636 kbps        650 kbps        01:02:44.719    0 kbps          00:00:00.000    0 kbps          00:00:00.000    3 386 bytes     3 459 bytes     01:02:44.761   

STREAM DIAGNOSTICS:

File            PID             Type            Codec           Language                Seconds                 Bitrate                 Bytes           Packets         
----            ---             ----            -----           --------                --------------          --------------          -------------   -----           
00000.M2TS      4113 (0x1011)   0x1B            AVC                                     3765,595                31 495                  14 824 501 746  80 620 798     
00000.M2TS      4352 (0x1100)   0x81            AC3             rus (Russian)           3765,595                453                     213 230 080     1 189 900       
00000.M2TS      4353 (0x1101)   0x80            LPCM            jpn (Japanese)          3765,595                3 079                   1 449 066 372   8 284 683       
00000.M2TS      4608 (0x1200)   0x90            PGS             rus (Russian)           3765,595                22                      10 246 199      60 289         

<---- END FORUMS PASTE ---->

QUICK SUMMARY:

Disc Title: 5 Centimeters per Second
Disc Size: 20 533 178 568 bytes
Protection: AACS
BD-Java: No
Playlist: 00000.MPLS
Size: 17 334 386 688 bytes
Length: 1:02:45
Total Bitrate: 36,83 Mbps
Video: MPEG-4 AVC Video / 31493 kbps / 1080p / 23,976 fps / 16:9 / High Profile 4.1
Audio: Russian / Dolby Digital Audio / 5.1 / 48 kHz / 448 kbps / DN -4dB
Audio: Japanese / LPCM Audio / 4.0 / 48 kHz / 3072 kbps / 16-bit
Subtitle: Russian / 21,767 kbps

********************
PLAYLIST: 00001.MPLS
********************

<--- BEGIN FORUMS PASTE --->

Код:

                                                                                                                Total   Video                                             
Title                                                           Codec   Length  Movie Size      Disc Size       Bitrate Bitrate Main Audio Track                          Secondary Audio Track
-----                                                           ------  ------- --------------  --------------  ------- ------- ------------------                        ---------------------
00001.MPLS                                                      AVC     0:05:35 1 658 271 744   20 533 178 568  39,56   34,28   LPCM 2.0 1536Kbps (48kHz/16-bit)          LPCM 2.0 1536Kbps (48kHz/16-bit)


Код:



DISC INFO:

Disc Title:     5 Centimeters per Second
Disc Size:      20 533 178 568 bytes
Protection:     AACS
BD-Java:        No
BDInfo:         0.5.5

PLAYLIST REPORT:

Name:                   00001.MPLS
Length:                 0:05:35 (h:m:s)
Size:                   1 658 271 744 bytes
Total Bitrate:          39,56 Mbps

VIDEO:

Codec                   Bitrate             Description     
-----                   -------             -----------     
MPEG-4 AVC Video        34283 kbps          1080p / 23,976 fps / 16:9 / High Profile 4.1

AUDIO:

Codec                           Language        Bitrate         Description     
-----                           --------        -------         -----------     
LPCM Audio                      Japanese        1536 kbps       2.0 / 48 kHz / 1536 kbps / 16-bit
LPCM Audio                      Japanese        1536 kbps       2.0 / 48 kHz / 1536 kbps / 16-bit

SUBTITLES:

Codec                           Language        Bitrate         Description     
-----                           --------        -------         -----------     
Presentation Graphics           Japanese        25,037 kbps                     

FILES:

Name            Time In         Length          Size            Total Bitrate   
----            -------         ------          ----            -------------   
00001.M2TS      0:00:00.000     0:05:35.335     1 658 271 744   39 561         

CHAPTERS:

Number          Time In         Length          Avg Video Rate  Max 1-Sec Rate  Max 1-Sec Time  Max 5-Sec Rate  Max 5-Sec Time  Max 10Sec Rate  Max 10Sec Time  Avg Frame Size  Max Frame Size  Max Frame Time 
------          -------         ------          --------------  --------------  --------------  --------------  --------------  --------------  --------------  --------------  --------------  -------------- 
1               0:00:00.000     0:05:33.332     34 485 kbps     50 075 kbps     00:01:40.225    41 314 kbps     00:05:23.740    39 847 kbps     00:00:25.650    179 768 bytes   925 820 bytes   00:03:38.927   
2               0:05:33.332     0:00:02.002     636 kbps        650 kbps        00:05:34.292    0 kbps          00:00:00.000    0 kbps          00:00:00.000    3 386 bytes     3 459 bytes     00:05:34.333   

STREAM DIAGNOSTICS:

File            PID             Type            Codec           Language                Seconds                 Bitrate                 Bytes           Packets         
----            ---             ----            -----           --------                --------------          --------------          -------------   -----           
00001.M2TS      4113 (0x1011)   0x1B            AVC                                     335,168                 34 300                  1 437 045 016   7 814 794       
00001.M2TS      4352 (0x1100)   0x80            LPCM            jpn (Japanese)          335,168                 1 543                   64 652 588      402 402         
00001.M2TS      4353 (0x1101)   0x80            LPCM            jpn (Japanese)          335,168                 1 543                   64 652 588      402 402         
00001.M2TS      4608 (0x1200)   0x90            PGS             jpn (Japanese)          335,168                 25                      1 049 471       5 978           

<---- END FORUMS PASTE ---->

QUICK SUMMARY:

Disc Title: 5 Centimeters per Second
Disc Size: 20 533 178 568 bytes
Protection: AACS
BD-Java: No
Playlist: 00001.MPLS
Size: 1 658 271 744 bytes
Length: 0:05:35
Total Bitrate: 39,56 Mbps
Video: MPEG-4 AVC Video / 34283 kbps / 1080p / 23,976 fps / 16:9 / High Profile 4.1
Audio: Japanese / LPCM Audio / 2.0 / 48 kHz / 1536 kbps / 16-bit
Audio: Japanese / LPCM Audio / 2.0 / 48 kHz / 1536 kbps / 16-bit
Subtitle: Japanese / 25,037 kbps

********************
PLAYLIST: 00005.MPLS
********************

<--- BEGIN FORUMS PASTE --->

Код:

                                                                                                                Total   Video                                             
Title                                                           Codec   Length  Movie Size      Disc Size       Bitrate Bitrate Main Audio Track                          Secondary Audio Track
-----                                                           ------  ------- --------------  --------------  ------- ------- ------------------                        ---------------------
00005.MPLS                                                      AVC     0:05:04 916 058 112     20 533 178 568  24,07   18,00   LPCM 4.0 3072Kbps (48kHz/16-bit)          LPCM 2.0 1536Kbps (48kHz/16-bit)


Код:



DISC INFO:

Disc Title:     5 Centimeters per Second
Disc Size:      20 533 178 568 bytes
Protection:     AACS
BD-Java:        No
BDInfo:         0.5.5

PLAYLIST REPORT:

Name:                   00005.MPLS
Length:                 0:05:04 (h:m:s)
Size:                   916 058 112 bytes
Total Bitrate:          24,07 Mbps

VIDEO:

Codec                   Bitrate             Description     
-----                   -------             -----------     
MPEG-4 AVC Video        17995 kbps          1080p / 23,976 fps / 16:9 / High Profile 4.1

AUDIO:

Codec                           Language        Bitrate         Description     
-----                           --------        -------         -----------     
LPCM Audio                      Japanese        3072 kbps       4.0 / 48 kHz / 3072 kbps / 16-bit
LPCM Audio                      Japanese        1536 kbps       2.0 / 48 kHz / 1536 kbps / 16-bit

SUBTITLES:

Codec                           Language        Bitrate         Description     
-----                           --------        -------         -----------     
Presentation Graphics           English         0,038 kbps                     

FILES:

Name            Time In         Length          Size            Total Bitrate   
----            -------         ------          ----            -------------   
00006.M2TS      0:00:00.000     0:05:04.429     916 058 112     24 073         

CHAPTERS:

Number          Time In         Length          Avg Video Rate  Max 1-Sec Rate  Max 1-Sec Time  Max 5-Sec Rate  Max 5-Sec Time  Max 10Sec Rate  Max 10Sec Time  Avg Frame Size  Max Frame Size  Max Frame Time 
------          -------         ------          --------------  --------------  --------------  --------------  --------------  --------------  --------------  --------------  --------------  -------------- 
1               0:00:00.000     0:05:04.429     17 995 kbps     20 512 kbps     00:05:02.927    18 442 kbps     00:04:59.048    18 210 kbps     00:04:54.043    93 818 bytes    603 316 bytes   00:02:27.147   

STREAM DIAGNOSTICS:

File            PID             Type            Codec           Language                Seconds                 Bitrate                 Bytes           Packets         
----            ---             ----            -----           --------                --------------          --------------          -------------   -----           
00006.M2TS      4113 (0x1011)   0x1B            AVC                                     304,262                 18 005                  684 780 625     3 725 919       
00006.M2TS      4352 (0x1100)   0x80            LPCM            jpn (Japanese)          304,262                 1 543                   58 689 284      365 286         
00006.M2TS      4353 (0x1101)   0x80            LPCM            jpn (Japanese)          304,262                 3 080                   117 135 044     669 691         
00006.M2TS      4608 (0x1200)   0x90            PGS             eng (English)           304,262                 0                       1 447           15             

<---- END FORUMS PASTE ---->

QUICK SUMMARY:

Disc Title: 5 Centimeters per Second
Disc Size: 20 533 178 568 bytes
Protection: AACS
BD-Java: No
Playlist: 00005.MPLS
Size: 916 058 112 bytes
Length: 0:05:04
Total Bitrate: 24,07 Mbps
Video: MPEG-4 AVC Video / 17995 kbps / 1080p / 23,976 fps / 16:9 / High Profile 4.1
Audio: Japanese / LPCM Audio / 4.0 / 48 kHz / 3072 kbps / 16-bit
Audio: Japanese / LPCM Audio / 2.0 / 48 kHz / 1536 kbps / 16-bit
Subtitle: English / 0,038 kbps

********************
PLAYLIST: 00003.MPLS
********************

<--- BEGIN FORUMS PASTE --->

Код:

                                                                                                                Total   Video                                             
Title                                                           Codec   Length  Movie Size      Disc Size       Bitrate Bitrate Main Audio Track                          Secondary Audio Track
-----                                                           ------  ------- --------------  --------------  ------- ------- ------------------                        ---------------------
00003.MPLS                                                      AVC     0:01:41 445 446 144     20 533 178 568  35,25   30,18   LPCM 2.0 1536Kbps (48kHz/16-bit)          LPCM 2.0 1536Kbps (48kHz/16-bit)


Код:



DISC INFO:

Disc Title:     5 Centimeters per Second
Disc Size:      20 533 178 568 bytes
Protection:     AACS
BD-Java:        No
BDInfo:         0.5.5

PLAYLIST REPORT:

Name:                   00003.MPLS
Length:                 0:01:41 (h:m:s)
Size:                   445 446 144 bytes
Total Bitrate:          35,25 Mbps

VIDEO:

Codec                   Bitrate             Description     
-----                   -------             -----------     
MPEG-4 AVC Video        30175 kbps          1080p / 23,976 fps / 16:9 / High Profile 4.1

AUDIO:

Codec                           Language        Bitrate         Description     
-----                           --------        -------         -----------     
LPCM Audio                      Japanese        1536 kbps       2.0 / 48 kHz / 1536 kbps / 16-bit
LPCM Audio                      Japanese        1536 kbps       2.0 / 48 kHz / 1536 kbps / 16-bit

SUBTITLES:

Codec                           Language        Bitrate         Description     
-----                           --------        -------         -----------     
Presentation Graphics           English         0,114 kbps                     

FILES:

Name            Time In         Length          Size            Total Bitrate   
----            -------         ------          ----            -------------   
00003.M2TS      0:00:00.000     0:01:41.101     445 446 144     35 248         

CHAPTERS:

Number          Time In         Length          Avg Video Rate  Max 1-Sec Rate  Max 1-Sec Time  Max 5-Sec Rate  Max 5-Sec Time  Max 10Sec Rate  Max 10Sec Time  Avg Frame Size  Max Frame Size  Max Frame Time 
------          -------         ------          --------------  --------------  --------------  --------------  --------------  --------------  --------------  --------------  --------------  -------------- 
1               0:00:00.000     0:01:39.099     30 772 kbps     53 421 kbps     00:00:06.464    40 439 kbps     00:01:19.287    39 351 kbps     00:00:59.768    160 364 bytes   930 864 bytes   00:00:22.939   
2               0:01:39.099     0:00:02.001     636 kbps        650 kbps        00:01:40.058    0 kbps          00:00:00.000    0 kbps          00:00:00.000    3 386 bytes     3 459 bytes     00:01:40.100   

STREAM DIAGNOSTICS:

File            PID             Type            Codec           Language                Seconds                 Bitrate                 Bytes           Packets         
----            ---             ----            -----           --------                --------------          --------------          -------------   -----           
00003.M2TS      4113 (0x1011)   0x1B            AVC                                     100,934                 30 225                  381 343 545     2 073 970       
00003.M2TS      4352 (0x1100)   0x80            LPCM            jpn (Japanese)          100,934                 1 545                   19 493 044      121 326         
00003.M2TS      4353 (0x1101)   0x80            LPCM            jpn (Japanese)          100,934                 1 545                   19 493 044      121 326         
00003.M2TS      4608 (0x1200)   0x90            PGS             eng (English)           100,934                 0                       1 447           15             

<---- END FORUMS PASTE ---->

QUICK SUMMARY:

Disc Title: 5 Centimeters per Second
Disc Size: 20 533 178 568 bytes
Protection: AACS
BD-Java: No
Playlist: 00003.MPLS
Size: 445 446 144 bytes
Length: 0:01:41
Total Bitrate: 35,25 Mbps
Video: MPEG-4 AVC Video / 30175 kbps / 1080p / 23,976 fps / 16:9 / High Profile 4.1
Audio: Japanese / LPCM Audio / 2.0 / 48 kHz / 1536 kbps / 16-bit
Audio: Japanese / LPCM Audio / 2.0 / 48 kHz / 1536 kbps / 16-bit
Subtitle: English / 0,114 kbps

********************
PLAYLIST: 00002.MPLS
********************

<--- BEGIN FORUMS PASTE --->

Код:

                                                                                                                Total   Video                                             
Title                                                           Codec   Length  Movie Size      Disc Size       Bitrate Bitrate Main Audio Track                          Secondary Audio Track
-----                                                           ------  ------- --------------  --------------  ------- ------- ------------------                        ---------------------
00002.MPLS                                                      AVC     0:00:38 148 992 000     20 533 178 568  31,34   26,43   LPCM 2.0 1536Kbps (48kHz/16-bit)          LPCM 2.0 1536Kbps (48kHz/16-bit)


Код:



DISC INFO:

Disc Title:     5 Centimeters per Second
Disc Size:      20 533 178 568 bytes
Protection:     AACS
BD-Java:        No
BDInfo:         0.5.5

PLAYLIST REPORT:

Name:                   00002.MPLS
Length:                 0:00:38 (h:m:s)
Size:                   148 992 000 bytes
Total Bitrate:          31,34 Mbps

VIDEO:

Codec                   Bitrate             Description     
-----                   -------             -----------     
MPEG-4 AVC Video        26425 kbps          1080p / 23,976 fps / 16:9 / High Profile 4.1

AUDIO:

Codec                           Language        Bitrate         Description     
-----                           --------        -------         -----------     
LPCM Audio                      Japanese        1536 kbps       2.0 / 48 kHz / 1536 kbps / 16-bit
LPCM Audio                      Japanese        1536 kbps       2.0 / 48 kHz / 1536 kbps / 16-bit

SUBTITLES:

Codec                           Language        Bitrate         Description     
-----                           --------        -------         -----------     
Presentation Graphics           English         0,304 kbps                     

FILES:

Name            Time In         Length          Size            Total Bitrate   
----            -------         ------          ----            -------------   
00002.M2TS      0:00:00.000     0:00:38.038     148 992 000     31 335         

CHAPTERS:

Number          Time In         Length          Avg Video Rate  Max 1-Sec Rate  Max 1-Sec Time  Max 5-Sec Rate  Max 5-Sec Time  Max 10Sec Rate  Max 10Sec Time  Avg Frame Size  Max Frame Size  Max Frame Time 
------          -------         ------          --------------  --------------  --------------  --------------  --------------  --------------  --------------  --------------  --------------  -------------- 
1               0:00:00.000     0:00:36.035     27 858 kbps     45 348 kbps     00:00:03.044    38 806 kbps     00:00:27.193    37 263 kbps     00:00:22.147    145 072 bytes   897 231 bytes   00:00:04.004   
2               0:00:36.035     0:00:02.002     636 kbps        650 kbps        00:00:36.995    0 kbps          00:00:00.000    0 kbps          00:00:00.000    3 386 bytes     3 459 bytes     00:00:37.037   

STREAM DIAGNOSTICS:

File            PID             Type            Codec           Language                Seconds                 Bitrate                 Bytes           Packets         
----            ---             ----            -----           --------                --------------          --------------          -------------   -----           
00002.M2TS      4113 (0x1011)   0x1B            AVC                                     37,871                  26 542                  125 646 159     683 381         
00002.M2TS      4352 (0x1100)   0x80            LPCM            jpn (Japanese)          37,871                  1 549                   7 334 112       45 648         
00002.M2TS      4353 (0x1101)   0x80            LPCM            jpn (Japanese)          37,871                  1 549                   7 334 112       45 648         
00002.M2TS      4608 (0x1200)   0x90            PGS             eng (English)           37,871                  0                       1 447           15             

<---- END FORUMS PASTE ---->

QUICK SUMMARY:

Disc Title: 5 Centimeters per Second
Disc Size: 20 533 178 568 bytes
Protection: AACS
BD-Java: No
Playlist: 00002.MPLS
Size: 148 992 000 bytes
Length: 0:00:38
Total Bitrate: 31,34 Mbps
Video: MPEG-4 AVC Video / 26425 kbps / 1080p / 23,976 fps / 16:9 / High Profile 4.1
Audio: Japanese / LPCM Audio / 2.0 / 48 kHz / 1536 kbps / 16-bit
Audio: Japanese / LPCM Audio / 2.0 / 48 kHz / 1536 kbps / 16-bit
Subtitle: English / 0,304 kbps

********************
PLAYLIST: 00004.MPLS
********************

<--- BEGIN FORUMS PASTE --->

Код:

                                                                                                                Total   Video                                             
Title                                                           Codec   Length  Movie Size      Disc Size       Bitrate Bitrate Main Audio Track                          Secondary Audio Track
-----                                                           ------  ------- --------------  --------------  ------- ------- ------------------                        ---------------------
00004.MPLS                                                      AVC     0:00:23 22 923 264      20 533 178 568  7,97    4,03    LPCM 2.0 1536Kbps (48kHz/16-bit)          LPCM 2.0 1536Kbps (48kHz/16-bit)


Код:



DISC INFO:

Disc Title:     5 Centimeters per Second
Disc Size:      20 533 178 568 bytes
Protection:     AACS
BD-Java:        No
BDInfo:         0.5.5

PLAYLIST REPORT:

Name:                   00004.MPLS
Length:                 0:00:23 (h:m:s)
Size:                   22 923 264 bytes
Total Bitrate:          7,97 Mbps

VIDEO:

Codec                   Bitrate             Description     
-----                   -------             -----------     
MPEG-4 AVC Video        4033 kbps           1080p / 23,976 fps / 16:9 / High Profile 4.1

AUDIO:

Codec                           Language        Bitrate         Description     
-----                           --------        -------         -----------     
LPCM Audio                      Japanese        1536 kbps       2.0 / 48 kHz / 1536 kbps / 16-bit
LPCM Audio                      Japanese        1536 kbps       2.0 / 48 kHz / 1536 kbps / 16-bit

FILES:

Name            Time In         Length          Size            Total Bitrate   
----            -------         ------          ----            -------------   
00004.M2TS      0:00:00.000     0:00:23.023     22 923 264      7 965           

CHAPTERS:

Number          Time In         Length          Avg Video Rate  Max 1-Sec Rate  Max 1-Sec Time  Max 5-Sec Rate  Max 5-Sec Time  Max 10Sec Rate  Max 10Sec Time  Avg Frame Size  Max Frame Size  Max Frame Time 
------          -------         ------          --------------  --------------  --------------  --------------  --------------  --------------  --------------  --------------  --------------  -------------- 
1               0:00:00.000     0:00:23.023     4 033 kbps      13 375 kbps     00:00:01.000    5 897 kbps      00:00:07.966    5 290 kbps      00:00:00.959    21 025 bytes    324 296 bytes   00:00:02.001   

STREAM DIAGNOSTICS:

File            PID             Type            Codec           Language                Seconds                 Bitrate                 Bytes           Packets         
----            ---             ----            -----           --------                --------------          --------------          -------------   -----           
00004.M2TS      4113 (0x1011)   0x1B            AVC                                     22,856                  4 062                   11 606 041      63 344         
00004.M2TS      4352 (0x1100)   0x80            LPCM            jpn (Japanese)          22,856                  1 554                   4 439 220       27 630         
00004.M2TS      4353 (0x1101)   0x80            LPCM            jpn (Japanese)          22,856                  1 554                   4 439 220       27 630         

<---- END FORUMS PASTE ---->

QUICK SUMMARY:

Disc Title: 5 Centimeters per Second
Disc Size: 20 533 178 568 bytes
Protection: AACS
BD-Java: No
Playlist: 00004.MPLS
Size: 22 923 264 bytes
Length: 0:00:23
Total Bitrate: 7,97 Mbps
Video: MPEG-4 AVC Video / 4033 kbps / 1080p / 23,976 fps / 16:9 / High Profile 4.1
Audio: Japanese / LPCM Audio / 2.0 / 48 kHz / 1536 kbps / 16-bit
Audio: Japanese / LPCM Audio / 2.0 / 48 kHz / 1536 kbps / 16-bit
info [Профиль]  [ЛС] 

MycuQ

Пол: Пол:Муж

Стаж: 7 лет 8 месяцев

Сообщений: 20

Россия
Рейтинг

post 31-Авг-2010 00:17 (спустя 3 часа) [-]1[+]

[Цитировать] 

Крутое!

_________________
Ложки нет!
info [Профиль]  [ЛС] 

Radma512

Пол: Пол:Муж

Стаж: 6 лет 8 месяцев

Сообщений: 39

Япония
Рейтинг

post 31-Авг-2010 02:20 (спустя 2 часа 3 минуты) [-]1[+]

[Цитировать] 

Да смотрел оч понравилось ^_^

_________________
info [Профиль]  [ЛС] 

lisnake

Пол: Пол:Муж

Стаж: 6 лет 9 месяцев

Сообщений: 814

Предупреждений: 2

Рейтинг

post 01-Сен-2010 01:40 (спустя 23 часа) [-]-2[+]

[Цитировать] 

MycuQ писал(а):

Крутое!
Эт точно. Кроме пейзажей тут ничего особого и точного нет, однако какой сю-ли там..

_________________
Анимешник – это состояние души, и по этому свободу слова им.
p.s. Перманентный отпуск.
info [Профиль]  [ЛС] 

iKogep

Пол: Пол:Муж

Стаж: 6 лет 4 месяца

Сообщений: 2

Предупреждений: 1

Россия
Рейтинг

post 01-Сен-2010 21:46 (спустя 20 часов) [-]2[+]

[Цитировать] 

Это просто шедевр в жанре драма! И точка. И невероятно красивая рисовка.

_________________
info [Профиль]  [ЛС] 

Neolight

Пол: Пол:Муж

Стаж: 6 лет 6 месяцев

Сообщений: 3

Япония
Рейтинг

post 14-Ноя-2012 15:44 (спустя 2 года 2 месяца) [-]1[+]

[Цитировать] 

Друзья, пожалуйста, вернитесь на раздачу этого шедевра!

Буду Вам очень признателен!!!
info [Профиль]  [ЛС] 

rotem15

Стаж: 4 года 11 месяцев

Сообщений: 52

Антарктида
Рейтинг

post 19-Ноя-2012 07:35 (спустя 4 дня) [-]2[+]

[Цитировать] 

спасибо
info [Профиль]  [ЛС] 

saabb

Пол: Пол:Муж

Стаж: 4 года 11 месяцев

Сообщений: 99

Россия
Рейтинг

post 19-Ноя-2012 07:36 (спустя 45 секунд) [-]1[+]

[Цитировать] 

спасибо
info [Профиль]  [ЛС] 

MeatMaker

Пол: Пол:Муж

Стаж: 6 лет 9 месяцев

Сообщений: 79

Рейтинг

post 11-Фев-2013 20:17 (спустя 2 месяца 22 дня) [-]-1[+]

[Цитировать] 

Раздал бы кто :3
info [Профиль]  [ЛС] 

levelost

Пол: Пол:Муж

Стаж: 3 года 10 месяцев

Сообщений: 18

Россия
Рейтинг

post 25-Авг-2014 10:13 (спустя 1 год 6 месяцев) [-]-3[+]

[Цитировать] 

Я, конечно, ни кого не хочу обидеть, но таких отвратных розовых соплей давно не видел. К художникам претензий нет. Однако сюжет для 12-летних девочек-эмо...
info [Профиль]  [ЛС] 
Показать сообщения:    
Ответить на тему

Текущее время: 10-Дек 07:08

Часовой пояс: GMT + 4



Вы не можете начинать темы
Вы не можете отвечать на сообщения
Вы не можете редактировать свои сообщения
Вы не можете удалять свои сообщения
Вы не можете голосовать в опросах
Вы не можете прикреплять файлы к сообщениям
Вы не можете скачивать файлы