Ошибка

Metallica - Клипография - 1989-2009 [Thrash Metal; DVD-VOB]

Ответить на тему
 
Автор Сообщение

Resistance

Пол: Пол:Муж

Стаж: 7 лет 2 месяца

Сообщений: 3639

Россия
Рейтинг

post 26-Авг-2010 20:21 0[+]

[Цитировать] 

pic="http://s45.radikal.ru/i107/1008/1f/8338e5eb199f.jpg"


Жанр: Thrash Metal || Происхождение исполнителя: USA || Качество: DVD

Цитата:

Metallica — американская метал-группа, исполняющая музыку в стилях трэш-метал и хэви-метал, образованная в 1981 году.

Metallica оказала большое влияние на развитие метала и входит (наряду с такими группами, как Slayer, Megadeth и Anthrax) в «большую четвёрку трэш-метала». Альбомы Metallica были проданы в общей сложности в количестве более 100 миллионов экземпляров по всему миру, что делает её одним из самых коммерчески успешных металических коллективов.
Альбом: ...And Justice For All
Режиссер: Bill Pope, Michael Salomon
General
Complete name : F:\Фильмы\Metallica - Клипография\01 - One.vob
Format : MPEG-PS
File size : 370 MiB
Duration : 7mn 46s
Overall bit rate : 6 656 Kbps

Video
ID : 224 (0xE0)
Format : MPEG Video
Format version : Version 2
Format profile : Main@Main
Format settings, BVOP : Yes
Format settings, Matrix : Default
Format settings, GOP : M=3, N=15
Duration : 7mn 46s
Bit rate mode : Variable
Bit rate : 4 987 Kbps
Nominal bit rate : 7 700 Kbps
Width : 720 pixels
Height : 480 pixels
Display aspect ratio : 4:3
Frame rate : 29.970 fps
Standard : NTSC
Color space : YUV
Chroma subsampling : 4:2:0
Bit depth : 8 bits
Scan type : Interlaced
Scan order : Top Field First
Bits/(Pixel*Frame) : 0.482
Stream size : 278 MiB (75%)

Audio
ID : 160 (0xA0)
Format : PCM
Format settings, Endianness : Big
Format settings, Sign : Signed
Muxing mode : DVD-Video
Duration : 7mn 46s
Bit rate mode : Constant
Bit rate : 1 536 Kbps
Channel(s) : 2 channels
Channel positions : Front: L R
Sampling rate : 48.0 KHz
Bit depth : 16 bits
Video delay : -66ms
Stream size : 85.4 MiB (23%)

Menu
Альбом: 2 Of One
Режиссер: Bill Pope, Michael Salomon
General
Complete name : F:\Фильмы\Metallica - Клипография\02 - One (Jammin' Version).vob
Format : MPEG-PS
File size : 142 MiB
Duration : 5mn 0s
Overall bit rate : 3 961 Kbps
Writing library : (c) 1998-2008 Womble Multimedia, Inc. / MPEG Video Wizard (12/2008) / Mar 31 2009

Video
ID : 224 (0xE0)
Format : MPEG Video
Format version : Version 2
Format profile : Main@Main
Format settings, BVOP : Yes
Format settings, Matrix : Default
Format settings, GOP : M=3, N=15
Duration : 5mn 0s
Bit rate mode : Variable
Bit rate : 2 346 Kbps
Nominal bit rate : 7 700 Kbps
Width : 720 pixels
Height : 480 pixels
Display aspect ratio : 4:3
Frame rate : 29.970 fps
Standard : NTSC
Color space : YUV
Chroma subsampling : 4:2:0
Bit depth : 8 bits
Scan type : Interlaced
Scan order : Top Field First
Bits/(Pixel*Frame) : 0.227
Stream size : 84.0 MiB (59%)
Writing library : (c) 1998-2008 Womble Multimedia, Inc. / MPEG Video Wizard (12/2008) / Mar 31 2009

Audio
ID : 160 (0xA0)
Format : PCM
Format settings, Endianness : Big
Format settings, Sign : Signed
Muxing mode : DVD-Video
Duration : 5mn 0s
Bit rate mode : Constant
Bit rate : 1 536 Kbps
Channel(s) : 2 channels
Channel positions : Front: L R
Sampling rate : 48.0 KHz
Bit depth : 16 bits
Video delay : -67ms
Stream size : 55.0 MiB (39%)

Menu
Альбом: Metallica
Режиссер: Wayne Isham
General
Complete name : F:\Фильмы\Metallica - Клипография\03 - Enter Sandman.vob
Format : MPEG-PS
File size : 269 MiB
Duration : 5mn 30s
Overall bit rate : 6 827 Kbps

Video
ID : 224 (0xE0)
Format : MPEG Video
Format version : Version 2
Format profile : Main@Main
Format settings, BVOP : Yes
Format settings, Matrix : Default
Format settings, GOP : M=3, N=15
Duration : 5mn 30s
Bit rate mode : Variable
Bit rate : 5 155 Kbps
Nominal bit rate : 7 700 Kbps
Width : 720 pixels
Height : 480 pixels
Display aspect ratio : 4:3
Frame rate : 29.970 fps
Standard : NTSC
Color space : YUV
Chroma subsampling : 4:2:0
Bit depth : 8 bits
Scan type : Interlaced
Scan order : Top Field First
Bits/(Pixel*Frame) : 0.498
Stream size : 203 MiB (76%)

Audio
ID : 160 (0xA0)
Format : PCM
Format settings, Endianness : Big
Format settings, Sign : Signed
Muxing mode : DVD-Video
Duration : 5mn 30s
Bit rate mode : Constant
Bit rate : 1 536 Kbps
Channel(s) : 2 channels
Channel positions : Front: L R
Sampling rate : 48.0 KHz
Bit depth : 16 bits
Video delay : -289ms
Stream size : 60.6 MiB (22%)

Menu
Альбом: Metallica
Режиссер: Matt Mahurin
General
Complete name : F:\Фильмы\Metallica - Клипография\04 - The Unforgiven.vob
Format : MPEG-PS
File size : 302 MiB
Duration : 6mn 24s
Overall bit rate : 6 601 Kbps

Video
ID : 224 (0xE0)
Format : MPEG Video
Format version : Version 2
Format profile : Main@Main
Format settings, BVOP : Yes
Format settings, Matrix : Default
Format settings, GOP : M=3, N=15
Duration : 6mn 24s
Bit rate mode : Variable
Bit rate : 4 933 Kbps
Nominal bit rate : 7 700 Kbps
Width : 720 pixels
Height : 480 pixels
Display aspect ratio : 4:3
Frame rate : 29.970 fps
Standard : NTSC
Color space : YUV
Chroma subsampling : 4:2:0
Bit depth : 8 bits
Scan type : Interlaced
Scan order : Top Field First
Bits/(Pixel*Frame) : 0.476
Stream size : 226 MiB (75%)

Audio
ID : 160 (0xA0)
Format : PCM
Format settings, Endianness : Big
Format settings, Sign : Signed
Muxing mode : DVD-Video
Duration : 6mn 24s
Bit rate mode : Constant
Bit rate : 1 536 Kbps
Channel(s) : 2 channels
Channel positions : Front: L R
Sampling rate : 48.0 KHz
Bit depth : 16 bits
Video delay : -280ms
Stream size : 70.4 MiB (23%)

Menu
Альбом: Metallica
Режиссер: Matt Mahurin
General
Complete name : F:\Фильмы\Metallica - Клипография\05 - The Unforgiven (Theatrical Version).vob
Format : MPEG-PS
File size : 315 MiB
Duration : 11mn 33s
Overall bit rate : 3 814 Kbps

Video
ID : 224 (0xE0)
Format : MPEG Video
Format version : Version 2
Format profile : Main@Main
Format settings, BVOP : Yes
Format settings, Matrix : Default
Format settings, GOP : M=3, N=15
Duration : 11mn 33s
Bit rate mode : Variable
Bit rate : 2 202 Kbps
Nominal bit rate : 7 700 Kbps
Width : 720 pixels
Height : 480 pixels
Display aspect ratio : 4:3
Frame rate : 29.970 fps
Standard : NTSC
Color space : YUV
Chroma subsampling : 4:2:0
Bit depth : 8 bits
Scan type : Interlaced
Scan order : Top Field First
Bits/(Pixel*Frame) : 0.213
Stream size : 182 MiB (58%)

Audio
ID : 160 (0xA0)
Format : PCM
Format settings, Endianness : Big
Format settings, Sign : Signed
Muxing mode : DVD-Video
Duration : 11mn 33s
Bit rate mode : Constant
Bit rate : 1 536 Kbps
Channel(s) : 2 channels
Channel positions : Front: L R
Sampling rate : 48.0 KHz
Bit depth : 16 bits
Video delay : -289ms
Stream size : 127 MiB (40%)

Menu
Альбом: Metallica
Режиссер: Adam Dubin
General
Complete name : F:\Фильмы\Metallica - Клипография\06 - Nothing Else Matters.vob
Format : MPEG-PS
File size : 315 MiB
Duration : 6mn 26s
Overall bit rate : 6 826 Kbps

Video
ID : 224 (0xE0)
Format : MPEG Video
Format version : Version 2
Format profile : Main@Main
Format settings, BVOP : Yes
Format settings, Matrix : Default
Format settings, GOP : M=3, N=15
Duration : 6mn 26s
Bit rate mode : Variable
Bit rate : 5 154 Kbps
Nominal bit rate : 7 700 Kbps
Width : 720 pixels
Height : 480 pixels
Display aspect ratio : 4:3
Frame rate : 29.970 fps
Standard : NTSC
Color space : YUV
Chroma subsampling : 4:2:0
Bit depth : 8 bits
Scan type : Interlaced
Scan order : Top Field First
Bits/(Pixel*Frame) : 0.498
Stream size : 238 MiB (76%)

Audio
ID : 160 (0xA0)
Format : PCM
Format settings, Endianness : Big
Format settings, Sign : Signed
Muxing mode : DVD-Video
Duration : 6mn 26s
Bit rate mode : Constant
Bit rate : 1 536 Kbps
Channel(s) : 2 channels
Channel positions : Front: L R
Sampling rate : 48.0 KHz
Bit depth : 16 bits
Video delay : -279ms
Stream size : 70.8 MiB (23%)

Menu
Альбом: Metallica
Режиссер: Wayne Isham
General
Complete name : F:\Фильмы\Metallica - Клипография\07 - Wherever I May Roam.vob
Format : MPEG-PS
File size : 300 MiB
Duration : 6mn 8s
Overall bit rate : 6 815 Kbps

Video
ID : 224 (0xE0)
Format : MPEG Video
Format version : Version 2
Format profile : Main@Main
Format settings, BVOP : Yes
Format settings, Matrix : Default
Format settings, GOP : M=3, N=15
Duration : 6mn 8s
Bit rate mode : Variable
Bit rate : 5 143 Kbps
Nominal bit rate : 7 700 Kbps
Width : 720 pixels
Height : 480 pixels
Display aspect ratio : 4:3
Frame rate : 29.970 fps
Standard : NTSC
Color space : YUV
Chroma subsampling : 4:2:0
Bit depth : 8 bits
Scan type : Interlaced
Scan order : Top Field First
Bits/(Pixel*Frame) : 0.497
Stream size : 226 MiB (75%)

Audio
ID : 160 (0xA0)
Format : PCM
Format settings, Endianness : Big
Format settings, Sign : Signed
Muxing mode : DVD-Video
Duration : 6mn 8s
Bit rate mode : Constant
Bit rate : 1 536 Kbps
Channel(s) : 2 channels
Channel positions : Front: L R
Sampling rate : 48.0 KHz
Bit depth : 16 bits
Video delay : -280ms
Stream size : 67.4 MiB (23%)

Menu
Альбом: Metallica
Режиссер: Wayne Isham
General
Complete name : F:\Фильмы\Metallica - Клипография\08 - Sad But True.vob
Format : MPEG-PS
File size : 269 MiB
Duration : 5mn 29s
Overall bit rate : 6 838 Kbps

Video
ID : 224 (0xE0)
Format : MPEG Video
Format version : Version 2
Format profile : Main@Main
Format settings, BVOP : Yes
Format settings, Matrix : Default
Format settings, GOP : M=3, N=15
Duration : 5mn 29s
Bit rate mode : Variable
Bit rate : 5 166 Kbps
Nominal bit rate : 7 700 Kbps
Width : 720 pixels
Height : 480 pixels
Display aspect ratio : 4:3
Frame rate : 29.970 fps
Standard : NTSC
Color space : YUV
Chroma subsampling : 4:2:0
Bit depth : 8 bits
Scan type : Interlaced
Scan order : Top Field First
Bits/(Pixel*Frame) : 0.499
Stream size : 203 MiB (76%)

Audio
ID : 160 (0xA0)
Format : PCM
Format settings, Endianness : Big
Format settings, Sign : Signed
Muxing mode : DVD-Video
Duration : 5mn 29s
Bit rate mode : Constant
Bit rate : 1 536 Kbps
Channel(s) : 2 channels
Channel positions : Front: L R
Sampling rate : 48.0 KHz
Bit depth : 16 bits
Video delay : -285ms
Stream size : 60.3 MiB (22%)

Menu
Альбом: Load
Режиссер: Samuel Bayer
General
Complete name : F:\Фильмы\Metallica - Клипография\09 - Until It Sleeps.vob
Format : MPEG-PS
File size : 225 MiB
Duration : 4mn 35s
Overall bit rate : 6 847 Kbps

Video
ID : 224 (0xE0)
Format : MPEG Video
Format version : Version 2
Format profile : Main@Main
Format settings, BVOP : Yes
Format settings, Matrix : Default
Format settings, GOP : M=3, N=15
Duration : 4mn 35s
Bit rate mode : Variable
Bit rate : 5 174 Kbps
Nominal bit rate : 7 700 Kbps
Width : 720 pixels
Height : 480 pixels
Display aspect ratio : 4:3
Frame rate : 29.970 fps
Standard : NTSC
Color space : YUV
Chroma subsampling : 4:2:0
Bit depth : 8 bits
Scan type : Interlaced
Scan order : Top Field First
Bits/(Pixel*Frame) : 0.500
Stream size : 170 MiB (76%)

Audio
ID : 160 (0xA0)
Format : PCM
Format settings, Endianness : Big
Format settings, Sign : Signed
Muxing mode : DVD-Video
Duration : 4mn 35s
Bit rate mode : Constant
Bit rate : 1 536 Kbps
Channel(s) : 2 channels
Channel positions : Front: L R
Sampling rate : 48.0 KHz
Bit depth : 16 bits
Video delay : -281ms
Stream size : 50.4 MiB (22%)

Menu
Альбом: Load
Режиссер: Anton Corbijn
General
Complete name : F:\Фильмы\Metallica - Клипография\10 - Hero Of The Day.vob
Format : MPEG-PS
File size : 219 MiB
Duration : 4mn 33s
Overall bit rate : 6 721 Kbps

Video
ID : 224 (0xE0)
Format : MPEG Video
Format version : Version 2
Format profile : Main@Main
Format settings, BVOP : Yes
Format settings, Matrix : Default
Format settings, GOP : M=3, N=15
Duration : 4mn 33s
Bit rate mode : Variable
Bit rate : 5 051 Kbps
Nominal bit rate : 7 700 Kbps
Width : 720 pixels
Height : 480 pixels
Display aspect ratio : 4:3
Frame rate : 29.970 fps
Standard : NTSC
Color space : YUV
Chroma subsampling : 4:2:0
Bit depth : 8 bits
Scan type : Interlaced
Scan order : Top Field First
Bits/(Pixel*Frame) : 0.488
Stream size : 165 MiB (75%)

Audio
ID : 160 (0xA0)
Format : PCM
Format settings, Endianness : Big
Format settings, Sign : Signed
Muxing mode : DVD-Video
Duration : 4mn 33s
Bit rate mode : Constant
Bit rate : 1 536 Kbps
Channel(s) : 2 channels
Channel positions : Front: L R
Sampling rate : 48.0 KHz
Bit depth : 16 bits
Video delay : -282ms
Stream size : 50.0 MiB (23%)

Menu
Альбом: Load
Режиссер: Anton Corbijn
General
Complete name : F:\Фильмы\Metallica - Клипография\11 - Mama Said.vob
Format : MPEG-PS
File size : 237 MiB
Duration : 4mn 54s
Overall bit rate : 6 753 Kbps

Video
ID : 224 (0xE0)
Format : MPEG Video
Format version : Version 2
Format profile : Main@Main
Format settings, BVOP : Yes
Format settings, Matrix : Default
Format settings, GOP : M=3, N=15
Duration : 4mn 54s
Bit rate mode : Variable
Bit rate : 5 083 Kbps
Nominal bit rate : 7 700 Kbps
Width : 720 pixels
Height : 480 pixels
Display aspect ratio : 4:3
Frame rate : 29.970 fps
Standard : NTSC
Color space : YUV
Chroma subsampling : 4:2:0
Bit depth : 8 bits
Scan type : Interlaced
Scan order : Top Field First
Bits/(Pixel*Frame) : 0.491
Stream size : 179 MiB (75%)

Audio
ID : 160 (0xA0)
Format : PCM
Format settings, Endianness : Big
Format settings, Sign : Signed
Muxing mode : DVD-Video
Duration : 4mn 54s
Bit rate mode : Constant
Bit rate : 1 536 Kbps
Channel(s) : 2 channels
Channel positions : Front: L R
Sampling rate : 48.0 KHz
Bit depth : 16 bits
Video delay : -279ms
Stream size : 54.0 MiB (23%)

Menu
Альбом: Load
Режиссер: Matt Mahurin
General
Complete name : F:\Фильмы\Metallica - Клипография\12 - King Nothing.vob
Format : MPEG-PS
File size : 254 MiB
Duration : 5mn 15s
Overall bit rate : 6 751 Kbps

Video
ID : 224 (0xE0)
Format : MPEG Video
Format version : Version 2
Format profile : Main@Main
Format settings, BVOP : Yes
Format settings, Matrix : Default
Format settings, GOP : M=3, N=15
Duration : 5mn 15s
Bit rate mode : Variable
Bit rate : 5 081 Kbps
Nominal bit rate : 7 700 Kbps
Width : 720 pixels
Height : 480 pixels
Display aspect ratio : 4:3
Frame rate : 29.970 fps
Standard : NTSC
Color space : YUV
Chroma subsampling : 4:2:0
Bit depth : 8 bits
Scan type : Interlaced
Scan order : Top Field First
Bits/(Pixel*Frame) : 0.491
Stream size : 191 MiB (75%)

Audio
ID : 160 (0xA0)
Format : PCM
Format settings, Endianness : Big
Format settings, Sign : Signed
Muxing mode : DVD-Video
Duration : 5mn 15s
Bit rate mode : Constant
Bit rate : 1 536 Kbps
Channel(s) : 2 channels
Channel positions : Front: L R
Sampling rate : 48.0 KHz
Bit depth : 16 bits
Video delay : -285ms
Stream size : 57.8 MiB (23%)

Menu
Альбом: Reload
Режиссер: Paul Andresen
General
Complete name : F:\Фильмы\Metallica - Клипография\13 - The Memory Remains.vob
Format : MPEG-PS
File size : 228 MiB
Duration : 4mn 40s
Overall bit rate : 6 833 Kbps

Video
ID : 224 (0xE0)
Format : MPEG Video
Format version : Version 2
Format profile : Main@Main
Format settings, BVOP : Yes
Format settings, Matrix : Default
Format settings, GOP : M=3, N=15
Duration : 4mn 40s
Bit rate mode : Variable
Bit rate : 5 161 Kbps
Nominal bit rate : 7 700 Kbps
Width : 720 pixels
Height : 480 pixels
Display aspect ratio : 4:3
Frame rate : 29.970 fps
Standard : NTSC
Color space : YUV
Chroma subsampling : 4:2:0
Bit depth : 8 bits
Scan type : Interlaced
Scan order : Top Field First
Bits/(Pixel*Frame) : 0.498
Stream size : 172 MiB (76%)

Audio
ID : 160 (0xA0)
Format : PCM
Format settings, Endianness : Big
Format settings, Sign : Signed
Muxing mode : DVD-Video
Duration : 4mn 40s
Bit rate mode : Constant
Bit rate : 1 536 Kbps
Channel(s) : 2 channels
Channel positions : Front: L R
Sampling rate : 48.0 KHz
Bit depth : 16 bits
Video delay : -279ms
Stream size : 51.3 MiB (22%)

Menu
Альбом: Reload
Режиссер: Matt Mahurin
General
Complete name : F:\Фильмы\Metallica - Клипография\14 - The Unforgiven II.vob
Format : MPEG-PS
File size : 298 MiB
Duration : 6mn 35s
Overall bit rate : 6 315 Kbps

Video
ID : 224 (0xE0)
Format : MPEG Video
Format version : Version 2
Format profile : Main@Main
Format settings, BVOP : Yes
Format settings, Matrix : Default
Format settings, GOP : M=3, N=15
Duration : 6mn 35s
Bit rate mode : Variable
Bit rate : 4 653 Kbps
Nominal bit rate : 7 700 Kbps
Width : 720 pixels
Height : 480 pixels
Display aspect ratio : 4:3
Frame rate : 29.970 fps
Standard : NTSC
Color space : YUV
Chroma subsampling : 4:2:0
Bit depth : 8 bits
Scan type : Interlaced
Scan order : Top Field First
Bits/(Pixel*Frame) : 0.449
Stream size : 219 MiB (74%)

Audio
ID : 160 (0xA0)
Format : PCM
Format settings, Endianness : Big
Format settings, Sign : Signed
Muxing mode : DVD-Video
Duration : 6mn 35s
Bit rate mode : Constant
Bit rate : 1 536 Kbps
Channel(s) : 2 channels
Channel positions : Front: L R
Sampling rate : 48.0 KHz
Bit depth : 16 bits
Video delay : -287ms
Stream size : 72.4 MiB (24%)

Menu
Альбом: Reload
Режиссер: Wayne Isham
General
Complete name : F:\Фильмы\Metallica - Клипография\15 - Fuel.vob
Format : MPEG-PS
File size : 256 MiB
Duration : 4mn 38s
Overall bit rate : 7 711 Kbps

Video
ID : 224 (0xE0)
Format : MPEG Video
Format version : Version 2
Format profile : Main@Main
Format settings, BVOP : Yes
Format settings, Matrix : Default
Format settings, GOP : M=3, N=15
Duration : 4mn 38s
Bit rate mode : Variable
Bit rate : 6 022 Kbps
Nominal bit rate : 7 700 Kbps
Width : 720 pixels
Height : 480 pixels
Display aspect ratio : 4:3
Frame rate : 29.970 fps
Standard : NTSC
Color space : YUV
Chroma subsampling : 4:2:0
Bit depth : 8 bits
Scan type : Interlaced
Scan order : Top Field First
Bits/(Pixel*Frame) : 0.581
Stream size : 200 MiB (78%)

Audio
ID : 160 (0xA0)
Format : PCM
Format settings, Endianness : Big
Format settings, Sign : Signed
Muxing mode : DVD-Video
Duration : 4mn 38s
Bit rate mode : Constant
Bit rate : 1 536 Kbps
Channel(s) : 2 channels
Channel positions : Front: L R
Sampling rate : 48.0 KHz
Bit depth : 16 bits
Video delay : -284ms
Stream size : 51.0 MiB (20%)

Menu
Альбом: Garage Inc.
Режиссер: Jonas Akerlund
General
Complete name : F:\Фильмы\Metallica - Клипография\16 - Turn The Page.vob
Format : MPEG-PS
File size : 279 MiB
Duration : 5mn 49s
Overall bit rate : 6 709 Kbps

Video
ID : 224 (0xE0)
Format : MPEG Video
Format version : Version 2
Format profile : Main@Main
Format settings, BVOP : Yes
Format settings, Matrix : Default
Format settings, GOP : M=3, N=15
Duration : 5mn 49s
Bit rate mode : Variable
Bit rate : 5 039 Kbps
Nominal bit rate : 7 700 Kbps
Width : 720 pixels
Height : 480 pixels
Display aspect ratio : 4:3
Frame rate : 29.970 fps
Standard : NTSC
Color space : YUV
Chroma subsampling : 4:2:0
Bit depth : 8 bits
Scan type : Interlaced
Scan order : Top Field First
Bits/(Pixel*Frame) : 0.487
Stream size : 210 MiB (75%)

Audio
ID : 160 (0xA0)
Format : PCM
Format settings, Endianness : Big
Format settings, Sign : Signed
Muxing mode : DVD-Video
Duration : 5mn 49s
Bit rate mode : Constant
Bit rate : 1 536 Kbps
Channel(s) : 2 channels
Channel positions : Front: L R
Sampling rate : 48.0 KHz
Bit depth : 16 bits
Video delay : -285ms
Stream size : 64.0 MiB (23%)

Menu
Альбом: Garage Inc.
Режиссер: Jonas Akerlund
General
Complete name : F:\Фильмы\Metallica - Клипография\17 - Whiskey In The Jar.vob
Format : MPEG-PS
File size : 233 MiB
Duration : 4mn 46s
Overall bit rate : 6 820 Kbps

Video
ID : 224 (0xE0)
Format : MPEG Video
Format version : Version 2
Format profile : Main@Main
Format settings, BVOP : Yes
Format settings, Matrix : Default
Format settings, GOP : M=3, N=15
Duration : 4mn 46s
Bit rate mode : Variable
Bit rate : 5 148 Kbps
Nominal bit rate : 7 700 Kbps
Width : 720 pixels
Height : 480 pixels
Display aspect ratio : 4:3
Frame rate : 29.970 fps
Standard : NTSC
Color space : YUV
Chroma subsampling : 4:2:0
Bit depth : 8 bits
Scan type : Interlaced
Scan order : Top Field First
Bits/(Pixel*Frame) : 0.497
Stream size : 176 MiB (75%)

Audio
ID : 160 (0xA0)
Format : PCM
Format settings, Endianness : Big
Format settings, Sign : Signed
Muxing mode : DVD-Video
Duration : 4mn 46s
Bit rate mode : Constant
Bit rate : 1 536 Kbps
Channel(s) : 2 channels
Channel positions : Front: L R
Sampling rate : 48.0 KHz
Bit depth : 16 bits
Video delay : -284ms
Stream size : 52.4 MiB (23%)

Menu
Альбом: S&M
Режиссер: Wayne Isham
General
Complete name : F:\Фильмы\Metallica - Клипография\18 - No Leaf Clover.vob
Format : MPEG-PS
File size : 274 MiB
Duration : 5mn 36s
Overall bit rate : 6 846 Kbps

Video
ID : 224 (0xE0)
Format : MPEG Video
Format version : Version 2
Format profile : Main@Main
Format settings, BVOP : Yes
Format settings, Matrix : Default
Format settings, GOP : M=3, N=15
Duration : 5mn 36s
Bit rate mode : Variable
Bit rate : 5 173 Kbps
Nominal bit rate : 7 700 Kbps
Width : 720 pixels
Height : 480 pixels
Display aspect ratio : 4:3
Frame rate : 29.970 fps
Standard : NTSC
Color space : YUV
Chroma subsampling : 4:2:0
Bit depth : 8 bits
Scan type : Interlaced
Scan order : Top Field First
Bits/(Pixel*Frame) : 0.499
Stream size : 207 MiB (76%)

Audio
ID : 160 (0xA0)
Format : PCM
Format settings, Endianness : Big
Format settings, Sign : Signed
Muxing mode : DVD-Video
Duration : 5mn 36s
Bit rate mode : Constant
Bit rate : 1 536 Kbps
Channel(s) : 2 channels
Channel positions : Front: L R
Sampling rate : 48.0 KHz
Bit depth : 16 bits
Video delay : -283ms
Stream size : 61.6 MiB (22%)

Menu
Альбом: M:i-2 Soundtrack
Режиссер: Wayne Isham
General
Complete name : F:\Фильмы\Metallica - Клипография\19 - I Disappear.vob
Format : MPEG-PS
File size : 222 MiB
Duration : 4mn 30s
Overall bit rate : 6 902 Kbps

Video
ID : 224 (0xE0)
Format : MPEG Video
Format version : Version 2
Format profile : Main@Main
Format settings, BVOP : Yes
Format settings, Matrix : Default
Format settings, GOP : M=3, N=15
Duration : 4mn 30s
Bit rate mode : Variable
Bit rate : 5 229 Kbps
Nominal bit rate : 7 700 Kbps
Width : 720 pixels
Height : 480 pixels
Display aspect ratio : 4:3
Frame rate : 29.970 fps
Standard : NTSC
Color space : YUV
Chroma subsampling : 4:2:0
Bit depth : 8 bits
Scan type : Interlaced
Scan order : Top Field First
Bits/(Pixel*Frame) : 0.505
Stream size : 168 MiB (76%)

Audio
ID : 160 (0xA0)
Format : PCM
Format settings, Endianness : Big
Format settings, Sign : Signed
Muxing mode : DVD-Video
Duration : 4mn 29s
Bit rate mode : Constant
Bit rate : 1 536 Kbps
Channel(s) : 2 channels
Channel positions : Front: L R
Sampling rate : 48.0 KHz
Bit depth : 16 bits
Video delay : -279ms
Stream size : 49.4 MiB (22%)

Menu
Альбом: St. Anger
Режиссер: The Malloys
General
Complete name : F:\Фильмы\Metallica - Клипография\20 - St. Anger.vob
Format : MPEG-PS
File size : 293 MiB
Duration : 5mn 49s
Overall bit rate : 7 041 Kbps

Video
ID : 224 (0xE0)
Format : MPEG Video
Format version : Version 2
Format profile : Main@Main
Format settings, BVOP : Yes
Format settings, Matrix : Default
Format settings, GOP : M=3, N=15
Duration : 5mn 49s
Bit rate mode : Variable
Bit rate : 5 365 Kbps
Nominal bit rate : 7 700 Kbps
Width : 720 pixels
Height : 480 pixels
Display aspect ratio : 4:3
Frame rate : 29.970 fps
Standard : NTSC
Color space : YUV
Chroma subsampling : 4:2:0
Bit depth : 8 bits
Scan type : Interlaced
Scan order : Top Field First
Bits/(Pixel*Frame) : 0.518
Stream size : 223 MiB (76%)

Audio
ID : 160 (0xA0)
Format : PCM
Format settings, Endianness : Big
Format settings, Sign : Signed
Muxing mode : DVD-Video
Duration : 5mn 48s
Bit rate mode : Constant
Bit rate : 1 536 Kbps
Channel(s) : 2 channels
Channel positions : Front: L R
Sampling rate : 48.0 KHz
Bit depth : 16 bits
Video delay : -288ms
Stream size : 63.9 MiB (22%)

Menu
Альбом: St. Anger
Режиссер: Wayne Isham
General
Complete name : F:\Фильмы\Metallica - Клипография\21 - Frantic.vob
Format : MPEG-PS
File size : 257 MiB
Duration : 4mn 57s
Overall bit rate : 7 235 Kbps

Video
ID : 224 (0xE0)
Format : MPEG Video
Format version : Version 2
Format profile : Main@Main
Format settings, BVOP : Yes
Format settings, Matrix : Default
Format settings, GOP : M=3, N=15
Duration : 4mn 57s
Bit rate mode : Variable
Bit rate : 5 555 Kbps
Nominal bit rate : 7 700 Kbps
Width : 720 pixels
Height : 480 pixels
Display aspect ratio : 4:3
Frame rate : 29.970 fps
Standard : NTSC
Color space : YUV
Chroma subsampling : 4:2:0
Bit depth : 8 bits
Scan type : Interlaced
Scan order : Top Field First
Bits/(Pixel*Frame) : 0.536
Stream size : 197 MiB (77%)

Audio
ID : 160 (0xA0)
Format : PCM
Format settings, Endianness : Big
Format settings, Sign : Signed
Muxing mode : DVD-Video
Duration : 4mn 57s
Bit rate mode : Constant
Bit rate : 1 536 Kbps
Channel(s) : 2 channels
Channel positions : Front: L R
Sampling rate : 48.0 KHz
Bit depth : 16 bits
Video delay : -277ms
Stream size : 54.5 MiB (21%)

Menu
Альбом: St. Anger
Режиссер: The Malloys
General
Complete name : F:\Фильмы\Metallica - Клипография\22 - The Unnamed Feeling.vob
Format : MPEG-PS
File size : 263 MiB
Duration : 5mn 30s
Overall bit rate : 6 666 Kbps

Video
ID : 224 (0xE0)
Format : MPEG Video
Format version : Version 2
Format profile : Main@Main
Format settings, BVOP : Yes
Format settings, Matrix : Default
Format settings, GOP : M=3, N=15
Duration : 5mn 30s
Bit rate mode : Variable
Bit rate : 4 998 Kbps
Nominal bit rate : 7 700 Kbps
Width : 720 pixels
Height : 480 pixels
Display aspect ratio : 4:3
Frame rate : 29.970 fps
Standard : NTSC
Color space : YUV
Chroma subsampling : 4:2:0
Bit depth : 8 bits
Scan type : Interlaced
Scan order : Top Field First
Bits/(Pixel*Frame) : 0.482
Stream size : 197 MiB (75%)

Audio
ID : 160 (0xA0)
Format : PCM
Format settings, Endianness : Big
Format settings, Sign : Signed
Muxing mode : DVD-Video
Duration : 5mn 30s
Bit rate mode : Constant
Bit rate : 1 536 Kbps
Channel(s) : 2 channels
Channel positions : Front: L R
Sampling rate : 48.0 KHz
Bit depth : 16 bits
Video delay : -285ms
Stream size : 60.6 MiB (23%)

Menu
Альбом: St. Anger
Режиссер: Alan Smithee
General
Complete name : F:\Фильмы\Metallica - Клипография\23 - Some Kind Of Monster.vob
Format : MPEG-PS
File size : 227 MiB
Duration : 4mn 31s
Overall bit rate : 7 016 Kbps
Writing library : (c) 1998-2008 Womble Multimedia, Inc. / MPEG Video Wizard (12/2008) / Mar 31 2009

Video
ID : 224 (0xE0)
Format : MPEG Video
Format version : Version 2
Format profile : Main@Main
Format settings, BVOP : Yes
Format settings, Matrix : Default
Format settings, GOP : M=3, N=15
Duration : 4mn 31s
Bit rate mode : Variable
Bit rate : 5 340 Kbps
Nominal bit rate : 7 700 Kbps
Width : 720 pixels
Height : 480 pixels
Display aspect ratio : 4:3
Frame rate : 29.970 fps
Standard : NTSC
Color space : YUV
Chroma subsampling : 4:2:0
Bit depth : 8 bits
Scan type : Interlaced
Scan order : Top Field First
Bits/(Pixel*Frame) : 0.516
Stream size : 173 MiB (76%)
Writing library : (c) 1998-2008 Womble Multimedia, Inc. / MPEG Video Wizard (12/2008) / Mar 31 2009

Audio
ID : 160 (0xA0)
Format : PCM
Format settings, Endianness : Big
Format settings, Sign : Signed
Muxing mode : DVD-Video
Duration : 4mn 31s
Bit rate mode : Constant
Bit rate : 1 536 Kbps
Channel(s) : 2 channels
Channel positions : Front: L R
Sampling rate : 48.0 KHz
Bit depth : 16 bits
Video delay : -67ms
Stream size : 49.7 MiB (22%)

Menu
Альбом: Death Magnetic
Режиссер: Peter Hjors, Thomas Vinterberg
General
Complete name : F:\Фильмы\Metallica - Клипография\24 - The Day That Never Comes.vob
Format : MPEG-PS
File size : 346 MiB
Duration : 8mn 24s
Overall bit rate : 5 748 Kbps

Video
ID : 224 (0xE0)
Format : MPEG Video
Format version : Version 2
Format profile : Main@Main
Format settings, BVOP : Yes
Format settings, Matrix : Default
Format settings, GOP : M=3, N=13
Duration : 8mn 24s
Bit rate mode : Variable
Bit rate : 5 442 Kbps
Nominal bit rate : 9 000 Kbps
Width : 720 pixels
Height : 480 pixels
Display aspect ratio : 2.35:1
Frame rate : 29.970 fps
Standard : NTSC
Color space : YUV
Chroma subsampling : 4:2:0
Bit depth : 8 bits
Scan type : Interlaced
Scan order : Top Field First
Bits/(Pixel*Frame) : 0.525
Stream size : 328 MiB (95%)

Audio
ID : 128 (0x80)
Format : AC-3
Format/Info : Audio Coding 3
Mode extension : CM (complete main)
Duration : 8mn 24s
Bit rate mode : Constant
Bit rate : 192 Kbps
Channel(s) : 2 channels
Channel positions : Front: L R
Sampling rate : 48.0 KHz
Stream size : 11.6 MiB (3%)

Menu
Альбом: Death Magnetic
Режиссер: Roboshobo
General
Complete name : F:\Фильмы\Metallica - Клипография\25 - All Nightmare Long.vob
Format : MPEG-PS
File size : 621 MiB
Duration : 8mn 56s
Overall bit rate : 9 712 Kbps

Video
ID : 224 (0xE0)
Format : MPEG Video
Format version : Version 2
Format profile : Main@Main
Format settings, BVOP : Yes
Format settings, Matrix : Default
Format settings, GOP : M=3, N=12
Duration : 8mn 56s
Bit rate mode : Constant
Bit rate : 8 000 Kbps
Width : 720 pixels
Height : 576 pixels
Display aspect ratio : 4:3
Frame rate : 25.000 fps
Standard : PAL
Color space : YUV
Chroma subsampling : 4:2:0
Bit depth : 8 bits
Scan type : Progressive
Bits/(Pixel*Frame) : 0.772
Stream size : 510 MiB (82%)

Audio
ID : 160 (0xA0)
Format : PCM
Format settings, Endianness : Big
Format settings, Sign : Signed
Muxing mode : DVD-Video
Duration : 8mn 56s
Bit rate mode : Constant
Bit rate : 1 536 Kbps
Channel(s) : 2 channels
Channel positions : Front: L R
Sampling rate : 48.0 KHz
Bit depth : 16 bits
Video delay : -80ms
Stream size : 98.2 MiB (16%)

Menu
Альбом: Death Magnetic
Режиссер: Wayne Isham
General
Complete name : F:\Фильмы\Metallica - Клипография\26 - Broken, Beat & Scarred.vob
Format : MPEG-PS
File size : 238 MiB
Duration : 6mn 15s
Overall bit rate : 5 304 Kbps

Video
ID : 224 (0xE0)
Format : MPEG Video
Format version : Version 2
Format profile : Main@Main
Format settings, BVOP : Yes
Format settings, Matrix : Default
Format settings, GOP : M=3, N=13
Duration : 6mn 15s
Bit rate mode : Variable
Bit rate : 5 007 Kbps
Nominal bit rate : 9 500 Kbps
Width : 720 pixels
Height : 480 pixels
Display aspect ratio : 4:3
Frame rate : 29.970 fps
Standard : NTSC
Color space : YUV
Chroma subsampling : 4:2:0
Bit depth : 8 bits
Scan type : Interlaced
Scan order : Top Field First
Bits/(Pixel*Frame) : 0.483
Stream size : 224 MiB (94%)

Audio
ID : 128 (0x80)
Format : AC-3
Format/Info : Audio Coding 3
Mode extension : CM (complete main)
Duration : 6mn 15s
Bit rate mode : Constant
Bit rate : 192 Kbps
Channel(s) : 2 channels
Channel positions : Front: L R
Sampling rate : 48.0 KHz
Stream size : 8.60 MiB (4%)

Menu
info [Профиль]  [ЛС] 

Metternix

Пол: Пол:Муж

Стаж: 7 лет 1 месяц

Сообщений: 142

Австрия
Рейтинг

post 27-Авг-2010 00:30 (спустя 4 часа) [-]0[+]

[Цитировать] 

сама группа мне не нравится - но за проделанную работу огромное спасибо!

_________________
info [Профиль]  [ЛС] 

post 27-Авг-2010 16:50 (спустя 16 часов) [-]0[+]

Топик был перенесен из форума Оформление раздач в форум Зарубежный Rock (video)

Oneguns
 

Resistance

Пол: Пол:Муж

Стаж: 7 лет 2 месяца

Сообщений: 3639

Россия
Рейтинг

post 27-Авг-2010 16:51 (спустя 16 часов) [-]0[+]

[Цитировать] 

К модераторам просьба - можно прикрепить раздачу?
info [Профиль]  [ЛС] 

KipFun

Стаж: 7 лет 8 месяцев

Сообщений: 188

Россия
Рейтинг

post 27-Авг-2010 17:41 (спустя 50 минут) [-]0[+]

[Цитировать] 

Отличная подборка!
info [Профиль]  [ЛС] 

Resistance

Пол: Пол:Муж

Стаж: 7 лет 2 месяца

Сообщений: 3639

Россия
Рейтинг

post 27-Авг-2010 17:50 (спустя 8 минут) [-]0[+]

[Цитировать] 

KipFun
Это не подборка, а все официальные клипы Metallica в DVD качестве.
info [Профиль]  [ЛС] 

Kenny69

Пол: Пол:Муж

Стаж: 7 лет 3 месяца

Сообщений: 1766

Россия
Рейтинг

post 27-Авг-2010 18:23 (спустя 33 минуты) [-]0[+]

[Цитировать] 

Oneguns
Пускай пока так полежит. А что обложки не сделал?

_________________
info [Профиль]  [ЛС] 

Resistance

Пол: Пол:Муж

Стаж: 7 лет 2 месяца

Сообщений: 3639

Россия
Рейтинг

post 27-Авг-2010 18:28 (спустя 4 минуты) [-]0[+]

[Цитировать] 

Kenny69
Обложки? Можно в принципе взять с синглов, надо?
info [Профиль]  [ЛС] 

Kenny69

Пол: Пол:Муж

Стаж: 7 лет 3 месяца

Сообщений: 1766

Россия
Рейтинг

post 27-Авг-2010 18:30 (спустя 2 минуты) [-]0[+]

[Цитировать] 

Oneguns
Посмотри на рутрекере , такая же раздача. Вот оттуда возьми Улыбаюсь

_________________
info [Профиль]  [ЛС] 

Resistance

Пол: Пол:Муж

Стаж: 7 лет 2 месяца

Сообщений: 3639

Россия
Рейтинг

post 27-Авг-2010 19:52 (спустя 1 час 22 минуты) [-]0[+]

[Цитировать] 

Kenny69
Неее, я лучше сам поищу, а то там они какие то маленькие Улыбаюсь
info [Профиль]  [ЛС] 

kastelo

Пол: Пол:Муж

Стаж: 6 лет 8 месяцев

Сообщений: 51

Россия
Рейтинг

post 10-Окт-2010 00:31 (спустя 1 месяц 13 дней) [-]0[+]

[Цитировать] 

спасибо) где бы еще взять их концентры в хорошем качестве с оркестром)

_________________
F1 !!! F1 !!! F1 !!!
ЗЕМЛЯ ДЛЯ ЗЕМЛЯН!!!!
info [Профиль]  [ЛС] 

serik1967

Пол: Пол:Муж

Стаж: 4 года 11 месяцев

Сообщений: 8

Украина
Рейтинг

post 15-Янв-2012 15:06 (спустя 1 год 3 месяца) [-]0[+]

[Цитировать] 

Oneguns писал(а):

KipFun
Это не подборка, а все официальные клипы Metallica в DVD качестве.
Это именно ПОДБОРКА, только видео в ней в виде переименованных VTS_xx_xx.VOB файлов, выдернутых из ДВД диска (ов). Не понимаю такого извращения, проще и главное правильнее было бы сделать DVDRip с оригинального ДВД (видео "весило" бы меньше), с сохранением оригинального звука или перекодировать в АС-3 - так "вес" видео еще больше уменьшится.

_________________
-=Sёrik=-
info [Профиль]  [ЛС] 
Показать сообщения:    
Ответить на тему

Текущее время: 03-Дек 10:54

Часовой пояс: GMT + 4



Вы не можете начинать темы
Вы не можете отвечать на сообщения
Вы не можете редактировать свои сообщения
Вы не можете удалять свои сообщения
Вы не можете голосовать в опросах
Вы не можете прикреплять файлы к сообщениям
Вы не можете скачивать файлы