Ошибка

(Hard Rock) Queen - Дискография (первопрессы) - 15 студийных альбомов (1973-1995), FLAC (image+.cue), lossless

Ответить на тему
 
Автор Сообщение

Zazobra

Пол: Пол:Муж

Стаж: 7 лет 7 месяцев

Сообщений: 323

Рейтинг

post 04-Апр-2010 15:00 0[+]

[Цитировать] 


Жанр: Progressive Rock, Rock
Дата выпуска: 6 July 1973 - 6 November 1995
Страна: Germany, Holland, UK
Формат: FLAC (image+cue)
Битрейт: 693-880 kbps
Продолжительность: 15 CD, 11:10:32
Сканы: Присутствуют

Цитата:

Queen (в переводе с англ. — «Королева», произносится «Кви́н») — британская рок-группа, добившаяся широчайшей известности в середине 70-х годов XX столетия, является одной из наиболее успешных групп в истории рок-музыки, общемировой тираж их альбомов превышает 300 миллионов. Средства массовой информации называют группу «культовой» и пишут, что она и по сей день имеет сотни миллионов поклонников. Критики считают классикой рока такие песни группы как «Bohemian Rhapsody», «We Will Rock You», «We Are the Champions», «Innuendo», «The Show Must Go On», «Radio Ga Ga». Группой было выпущено пятнадцать студийных альбомов, пять концертных и многочисленные сборники. Восемнадцать альбомов «Queen» занимали первые места в чартах разных стран. Концертные выступления группы также были признаны одними из самых ярких и значимых за всю историю рока.

Широкую известность получили и видеоклипы «Queen» за новаторство в области спецэффектов и монтажа. В частности, снятый в 1975 году ролик на песню «Bohemian Rhapsody» называют ключевым в истории музыкальных видеоклипов, поскольку его успех вдохновил развитие этой индустрии.

Исполнитель: Queen
Альбом: Queen (CDP 7 46204 2) [West German Pressing 1986] [non-Target]
Тип релиза: Студийная запись
Жанр: Rock
Дата выпуска: 6 July 1973
Страна: UK/(Germany)
Лейбл: EMI, CDP 7 46204 2, (1986)
Формат: FLAC (image+cue)
Битрейт: 821 kbps
Продолжительность: 00:38:45
Источник: Скачано с torrents.ru
Треклист:
01. Keep Yourself Alive [00:03:47]
02. Doing All Right [00:04:09]
03. Great King Rat [00:05:43]
04. My Fairy King [00:04:08]
05. Liar [00:06:25]
06. The Night Comes Down [00:04:23]
07. Modern Times Rock 'N' Roll [00:01:48]
08. Son and Daughter [00:03:20]
09. Jesus [00:03:44]
10. Seven Seas of Rhye [00:01:15]
Доп. информация:
Credits:

Freddie Mercury - vocals, piano
Brian May - guitars, vocals, piano on Doing All Right
Deacon John - bass guitar
Roger Meddows-Taylor - drums, percussion, vocals

Produced by: Queen, Roy Thomas Baker and John Anthony.
The Night Comes Down produced by Queen, recorded and engineered by Louis Austin.

Recorded: January 1972 - January 1973 at Trident Studios, London. The Night Comes Down recorded September 1971 at De Lane Lea Studios, London.

Код:

Exact Audio Copy V0.99 prebeta 4 from 23. January 2008

EAC extraction logfile from 18. March 2010, 2:13

Queen / Queen (CDP 7 46204 2)

Used drive  : PIONEER DVD-RW  DVR-105   Adapter: 0  ID: 1

Read mode               : Secure
Utilize accurate stream : Yes
Defeat audio cache      : Yes
Make use of C2 pointers : No

Read offset correction                      : 48
Overread into Lead-In and Lead-Out          : No
Fill up missing offset samples with silence : Yes
Delete leading and trailing silent blocks   : No
Null samples used in CRC calculations       : Yes
Used interface                              : Installed external ASPI interface

Used output format              : User Defined Encoder
Selected bitrate                : 768 kBit/s
Quality                         : High
Add ID3 tag                     : No
Command line compressor         : C:\Program Files\Exact Audio Copy\Flac\flac.exe
Additional command line options : -8 -V -T "ARTIST=%a" -T "TITLE=%t" -T "ALBUM=%g" -T "DATE=%y" -T "TRACKNUMBER=%n" -T "GENRE=%m" -T "COMMENT=%e" %s -o %d

TOC of the extracted CD

     Track |   Start  |  Length  | Start sector | End sector
    ---------------------------------------------------------
        1  |  0:00.33 |  3:47.42 |        33    |    17099   
        2  |  3:48.00 |  4:09.40 |     17100    |    35814   
        3  |  7:57.40 |  5:43.18 |     35815    |    61557   
        4  | 13:40.58 |  4:08.30 |     61558    |    80187   
        5  | 17:49.13 |  6:25.60 |     80188    |   109122   
        6  | 24:14.73 |  4:23.12 |    109123    |   128859   
        7  | 28:38.10 |  1:48.28 |    128860    |   136987   
        8  | 30:26.38 |  3:23.30 |    136988    |   152242   
        9  | 33:49.68 |  3:44.30 |    152243    |   169072   
       10  | 37:34.23 |  1:15.05 |    169073    |   174702   

Range status and errors

Selected range

     Filename C:\Queen . 1973 . Queen (CDP 7 46204 2)\Queen . 1973 . Queen (CDP 7 46204 2).wav

     Peak level 100.0 %
     Range quality 100.0 %
     Test CRC 5AA712C6
     Copy CRC 5AA712C6
     Copy OK

No errors occurred

 
AccurateRip summary
 
Track  1  accurately ripped (confidence 45)  [86593594]
Track  2  accurately ripped (confidence 45)  [71D633B2]
Track  3  accurately ripped (confidence 45)  [AEB25196]
Track  4  accurately ripped (confidence 46)  [64AE9CB7]
Track  5  accurately ripped (confidence 46)  [06BF6DC4]
Track  6  accurately ripped (confidence 46)  [D9BA5D1E]
Track  7  accurately ripped (confidence 45)  [507A35F3]
Track  8  accurately ripped (confidence 45)  [070D741E]
Track  9  accurately ripped (confidence 43)  [76E40BDE]
Track 10  accurately ripped (confidence 45)  [0BCC4B9A]
 
All tracks accurately ripped

End of status report

Код:

REM GENRE Rock/Classic
REM DATE 1973
REM DISCID 7209190A
REM COMMENT "ExactAudioCopy v0.99pb4"
PERFORMER "Queen"
TITLE "Queen (CDP 7 46204 2)"
FILE "Queen . 1973 . Queen (CDP 7 46204 2).flac" WAVE
  TRACK 01 AUDIO
    TITLE "Keep Yourself Alive"
    PERFORMER "Queen"
    INDEX 00 00:00:00
    INDEX 01 00:00:33
  TRACK 02 AUDIO
    TITLE "Doing All Right"
    PERFORMER "Queen"
    INDEX 00 03:47:73
    INDEX 01 03:48:00
  TRACK 03 AUDIO
    TITLE "Great King Rat"
    PERFORMER "Queen"
    INDEX 00 07:57:38
    INDEX 01 07:57:40
  TRACK 04 AUDIO
    TITLE "My Fairy King"
    PERFORMER "Queen"
    INDEX 00 13:40:55
    INDEX 01 13:40:58
  TRACK 05 AUDIO
    TITLE "Liar"
    PERFORMER "Queen"
    INDEX 00 17:49:09
    INDEX 01 17:49:13
  TRACK 06 AUDIO
    TITLE "The Night Comes Down"
    PERFORMER "Queen"
    INDEX 00 24:14:65
    INDEX 01 24:14:73
  TRACK 07 AUDIO
    TITLE "Modern Times Rock 'N' Roll"
    PERFORMER "Queen"
    INDEX 00 28:38:08
    INDEX 01 28:38:10
  TRACK 08 AUDIO
    TITLE "Son and Daughter"
    PERFORMER "Queen"
    INDEX 00 30:26:34
    INDEX 01 30:26:38
  TRACK 09 AUDIO
    TITLE "Jesus"
    PERFORMER "Queen"
    INDEX 00 33:46:65
    INDEX 01 33:49:68
  TRACK 10 AUDIO
    TITLE "Seven Seas of Rhye"
    PERFORMER "Queen"
    INDEX 00 37:34:20
    INDEX 01 37:34:23
Исполнитель: Queen
Альбом: Queen II (CDP 7 46205 2) [West German Pressing 1986] [non-Target]
Тип релиза: Студийная запись
Жанр: Rock
Дата выпуска: 8 March 1974
Страна: UK/(Germany)
Лейбл: EMI, CDP 7 46205 2, (1986)
Формат: FLAC (image+cue)
Битрейт: 767 kbps
Продолжительность: 00:40:31
Источник: Скачано с torrents.ru
Треклист:
01. Procession [00:01:12]
02. Father To Son [00:06:12]
03. White Queen (As It Began) [00:04:33]
04. Some Day One Day [00:04:21]
05. The Loser In The End [00:04:01]
06. Ogre Battle [00:04:08]
07. The Fairy Feller's Master-Stroke [00:02:39]
08. Nevermore [00:01:17]
09. The March Of The Black Queen [00:06:03]
10. Funny How Love Is [00:03:14]
11. Seven Seas Of Rhye [00:02:47]
Доп. информация: Credits:
Freddie Mercury - vocals, piano, harpsichord on The Fairy Feller's Master-Stroke
Brian May - guitars, vocals, piano on Father To Son, lead vocals on Some Day, One Day, bells on The March Of The Black Queen
John Deacon - bass guitar, acoustic guitar on Father To Son
Roger Meddows-Taylor - drums, percussion, vocals, marimba and lead vocals on The Loser In The End
Roy Thomas Baker - virtuoso castanets on The Fairy Feller's Master-Stroke

Produced by Queen and Roy Thomas Baker.
Nevermore and Funny How Love Is produced by Queen and Robin Geoffrey Cable. The March Of The Black Queen produced by Queen, Roy Thomas Baker, and Robin Geoffrey Cable.

Recorded August 1973 at Trident Studios, London.
Exact Audio Copy V0.99 prebeta 4 from 23. January 2008

EAC extraction logfile from 23. March 2010, 5:39

Queen / Queen II (CDP 7 46205 2)

Used drive : PIONEER DVD-RW DVR-105 Adapter: 0 ID: 1

Read mode : Secure
Utilize accurate stream : Yes
Defeat audio cache : Yes
Make use of C2 pointers : No

Read offset correction : 48
Overread into Lead-In and Lead-Out : No
Fill up missing offset samples with silence : Yes
Delete leading and trailing silent blocks : No
Null samples used in CRC calculations : Yes
Used interface : Installed external ASPI interface

Used output format : User Defined Encoder
Selected bitrate : 768 kBit/s
Quality : High
Add ID3 tag : No
Command line compressor : C:\Program Files\Exact Audio Copy\Flac\flac.exe
Additional command line options : -8 -V -T "ARTIST=%a" -T "TITLE=%t" -T "ALBUM=%g" -T "DATE=%y" -T "TRACKNUMBER=%n" -T "GENRE=%m" -T "COMMENT=%e" %s -o %d

TOC of the extracted CD

Track | Start | Length | Start sector | End sector
---------------------------------------------------------
1 | 0:00.33 | 1:12.50 | 33 | 5482
2 | 1:13.08 | 6:12.20 | 5483 | 33402
3 | 7:25.28 | 4:34.62 | 33403 | 54014
4 | 12:00.15 | 4:21.05 | 54015 | 73594
5 | 16:21.20 | 4:01.23 | 73595 | 91692
6 | 20:22.43 | 4:08.17 | 91693 | 110309
7 | 24:30.60 | 2:39.73 | 110310 | 122307
8 | 27:10.58 | 1:17.50 | 122308 | 128132
9 | 28:28.33 | 6:03.62 | 128133 | 155419
10 | 34:32.20 | 3:15.63 | 155420 | 170107
11 | 37:48.08 | 2:48.60 | 170108 | 182767

Range status and errors

Selected range

Filename C:\Queen . 1974 . Queen II (CDP 7 46205 2)\Queen . 1974 . Queen II (CDP 7 46205 2).wav

Peak level 98.1 %
Range quality 100.0 %
Test CRC CAB254C3
Copy CRC CAB254C3
Copy OK

No errors occurred

AccurateRip summary
Track 1 accurately ripped (confidence 52) [13C2431F]
Track 2 accurately ripped (confidence 52) [7EA861F2]
Track 3 accurately ripped (confidence 51) [0CE40D2F]
Track 4 accurately ripped (confidence 52) [4F9C7590]
Track 5 accurately ripped (confidence 52) [865E257E]
Track 6 accurately ripped (confidence 50) [83CE6937]
Track 7 accurately ripped (confidence 51) [FA0A4A3C]
Track 8 accurately ripped (confidence 51) [30DC64EB]
Track 9 accurately ripped (confidence 50) [878834B5]
Track 10 accurately ripped (confidence 50) [9392F879]
Track 11 accurately ripped (confidence 51) [9CA5BA87]
All tracks accurately ripped

End of status report

Код:

REM GENRE Rock
REM DATE 1974
REM DISCID 8009840B
REM COMMENT "ExactAudioCopy v0.99pb4"
PERFORMER "Queen"
TITLE "Queen II  (CDP 7 46205 2)"
FILE "Queen . 1974 . Queen II  (CDP 7 46205 2).flac" WAVE
  TRACK 01 AUDIO
    TITLE "Procession"
    PERFORMER "Queen"
    INDEX 00 00:00:00
    INDEX 01 00:00:33
  TRACK 02 AUDIO
    TITLE "Father To Son"
    PERFORMER "Queen"
    INDEX 00 01:13:06
    INDEX 01 01:13:08
  TRACK 03 AUDIO
    TITLE "White Queen (As It Began)"
    PERFORMER "Queen"
    INDEX 00 07:25:27
    INDEX 01 07:25:28
  TRACK 04 AUDIO
    TITLE "Some Day One Day"
    PERFORMER "Queen"
    INDEX 00 11:58:45
    INDEX 01 12:00:15
  TRACK 05 AUDIO
    TITLE "The Loser In The End"
    PERFORMER "Queen"
    INDEX 00 16:21:18
    INDEX 01 16:21:20
  TRACK 06 AUDIO
    TITLE "Ogre Battle"
    PERFORMER "Queen"
    INDEX 00 20:22:40
    INDEX 01 20:22:43
  TRACK 07 AUDIO
    TITLE "The Fairy Feller's Master-Stroke"
    PERFORMER "Queen"
    INDEX 00 24:30:58
    INDEX 01 24:30:60
  TRACK 08 AUDIO
    TITLE "Nevermore"
    PERFORMER "Queen"
    INDEX 00 27:10:55
    INDEX 01 27:10:58
  TRACK 09 AUDIO
    TITLE "The March Of The Black Queen"
    PERFORMER "Queen"
    INDEX 00 28:28:30
    INDEX 01 28:28:33
  TRACK 10 AUDIO
    TITLE "Funny How Love Is"
    PERFORMER "Queen"
    INDEX 00 34:32:18
    INDEX 01 34:32:20
  TRACK 11 AUDIO
    TITLE "Seven Seas Of Rhye"
    PERFORMER "Queen"
    INDEX 00 37:46:25
    INDEX 01 37:48:08
Исполнитель: Queen
Альбом: (1974) Sheer Heart Attack (CDP 7 46206 2) [West German Pressing 1986]
Тип релиза: Студийная запись
Жанр: Progressive Rock
Дата выпуска: 1 November 1974
Страна: UK/(Germany)
Лейбл: CDP 7 46206 2, (1986)
Формат: FLAC (image+cue)
Битрейт: 816 kbps
Продолжительность: 00:39:00
Источник: Скачано с torrents.ru
Треклист:
01. Brighton Rock [00:05:10]
02. Killer Queen [00:03:00]
03. Tenement Funster [00:02:46]
04. Flick of The Wrist [00:03:17]
05. Lily of The Valley [00:01:45]
06. Now I'm Here [00:04:13]
07. In The Lap of The Gods [00:03:22]
08. Stone Cold Crazy [00:02:14]
09. Dear Friends [00:01:07]
10. Misfire [00:01:49]
11. Bring Back That Leroy Brown [00:02:15]
12. She Makes Me (Stormtrooper in Stilettos) [00:04:09]
13. In The Lap of The Gods . . . Revisited [00:03:45]
Доп. информация:

Credits:
Roger Taylor - drums, percussion, vocals, screams, lead vocals on Tenement Funster
Freddie Mercury - vocals, piano, organ on Now I'm Here, jangle piano on Killer Queen and Bring Back That Leroy Brown, vocal extravaganzas
John Deacon - bass guitar, double bass on Bring Back That Leroy Brown, acoustic guitar on Tenement Funster, In The Lap Of The Gods, Misfire, and She Makes Me (Stormtrooper In Stilettoes), almost all guitars on Misfire
Brian May - guitars, vocals, piano on Now I'm Here and Dear Friends, genuine George Formy ukulele-banjo on Bring Back That Leroy Brown, lead vocals on She Makes Me (Stormtrooper In Stilettoes), guitar orchestrations

Produced by Queen and Roy Thomas Baker.

Recorded July - September 1974 at Trident Studios, Wessex Studios, and AIR Studios, London; Rockfield Studios, Monmouth.

Код:

Exact Audio Copy V0.99 prebeta 4 from 23. January 2008

EAC extraction logfile from 18. March 2010, 1:06

Queen  / Sheer Heart Attack (CDP 7 46206 2)

Used drive  : PIONEER DVD-RW  DVR-105   Adapter: 0  ID: 1

Read mode               : Secure
Utilize accurate stream : Yes
Defeat audio cache      : Yes
Make use of C2 pointers : No

Read offset correction                      : 48
Overread into Lead-In and Lead-Out          : No
Fill up missing offset samples with silence : Yes
Delete leading and trailing silent blocks   : No
Null samples used in CRC calculations       : Yes
Used interface                              : Installed external ASPI interface

Used output format              : User Defined Encoder
Selected bitrate                : 768 kBit/s
Quality                         : High
Add ID3 tag                     : No
Command line compressor         : C:\Program Files\Exact Audio Copy\Flac\flac.exe
Additional command line options : -8 -V -T "ARTIST=%a" -T "TITLE=%t" -T "ALBUM=%g" -T "DATE=%y" -T "TRACKNUMBER=%n" -T "GENRE=%m" -T "COMMENT=%e" %s -o %d

TOC of the extracted CD

     Track |   Start  |  Length  | Start sector | End sector
    ---------------------------------------------------------
        1  |  0:00.33 |  5:11.22 |        33    |    23379   
        2  |  5:11.55 |  3:00.68 |     23380    |    36947   
        3  |  8:12.48 |  2:46.72 |     36948    |    49469   
        4  | 10:59.45 |  3:17.45 |     49470    |    64289   
        5  | 14:17.15 |  1:45.03 |     64290    |    72167   
        6  | 16:02.18 |  4:15.50 |     72168    |    91342   
        7  | 20:17.68 |  3:22.55 |     91343    |   106547   
        8  | 23:40.48 |  2:16.72 |    106548    |   116819   
        9  | 25:57.45 |  1:08.70 |    116820    |   121989   
       10  | 27:06.40 |  1:49.70 |    121990    |   130234   
       11  | 28:56.35 |  2:15.48 |    130235    |   140407   
       12  | 31:12.08 |  4:09.60 |    140408    |   159142   
       13  | 35:21.68 |  3:45.42 |    159143    |   176059   

Range status and errors

Selected range

     Filename C:\Queen . 1974 . Sheer Heart Attack (CDP 7 46206 2)\Queen . 1974 . Sheer Heart Attack (CDP 7 46206 2).wav

     Peak level 100.0 %
     Range quality 100.0 %
     Test CRC 41071952
     Copy CRC 41071952
     Copy OK

No errors occurred

 
AccurateRip summary
 
Track  1  accurately ripped (confidence 32)  [8A61C330]
Track  2  accurately ripped (confidence 32)  [EA72AFC2]
Track  3  accurately ripped (confidence 32)  [F6CC0C12]
Track  4  accurately ripped (confidence 32)  [F84786F0]
Track  5  accurately ripped (confidence 32)  [641D3C73]
Track  6  accurately ripped (confidence 31)  [24F5CFBC]
Track  7  accurately ripped (confidence 31)  [E89D5D3A]
Track  8  accurately ripped (confidence 31)  [29F35780]
Track  9  accurately ripped (confidence 32)  [8F92D619]
Track 10  accurately ripped (confidence 32)  [FDADEF69]
Track 11  accurately ripped (confidence 32)  [48D4913E]
Track 12  accurately ripped (confidence 31)  [3F03C978]
Track 13  accurately ripped (confidence 32)  [1661D026]
 
All tracks accurately ripped

End of status report

Код:

REM GENRE "Progressive Rock"
REM DATE 1974
REM DISCID BA092B0D
REM COMMENT "ExactAudioCopy v0.99pb4"
PERFORMER "Queen "
TITLE "Sheer Heart Attack (CDP 7 46206 2)"
FILE "Queen  . 1974 . Sheer Heart Attack (CDP 7 46206 2).flac" WAVE
  TRACK 01 AUDIO
    TITLE "Brighton Rock"
    PERFORMER "Queen "
    INDEX 00 00:00:00
    INDEX 01 00:00:33
  TRACK 02 AUDIO
    TITLE "Killer Queen"
    PERFORMER "Queen "
    INDEX 00 05:11:00
    INDEX 01 05:11:55
  TRACK 03 AUDIO
    TITLE "Tenement Funster"
    PERFORMER "Queen "
    INDEX 00 08:12:00
    INDEX 01 08:12:48
  TRACK 04 AUDIO
    TITLE "Flick of The Wrist"
    PERFORMER "Queen "
    INDEX 00 10:59:43
    INDEX 01 10:59:45
  TRACK 05 AUDIO
    TITLE "Lily of The Valley"
    PERFORMER "Queen "
    INDEX 00 14:17:13
    INDEX 01 14:17:15
  TRACK 06 AUDIO
    TITLE "Now I'm Here"
    PERFORMER "Queen "
    INDEX 00 16:02:15
    INDEX 01 16:02:18
  TRACK 07 AUDIO
    TITLE "In The Lap of The Gods"
    PERFORMER "Queen "
    INDEX 00 20:16:10
    INDEX 01 20:17:68
  TRACK 08 AUDIO
    TITLE "Stone Cold Crazy"
    PERFORMER "Queen "
    INDEX 00 23:40:45
    INDEX 01 23:40:48
  TRACK 09 AUDIO
    TITLE "Dear Friends"
    PERFORMER "Queen "
    INDEX 00 25:55:33
    INDEX 01 25:57:45
  TRACK 10 AUDIO
    TITLE "Misfire"
    PERFORMER "Queen "
    INDEX 00 27:05:18
    INDEX 01 27:06:40
  TRACK 11 AUDIO
    TITLE "Bring Back That Leroy Brown"
    PERFORMER "Queen "
    INDEX 00 28:56:33
    INDEX 01 28:56:35
  TRACK 12 AUDIO
    TITLE "She Makes Me (Stormtrooper in Stilettos)"
    PERFORMER "Queen "
    INDEX 00 31:12:05
    INDEX 01 31:12:08
  TRACK 13 AUDIO
    TITLE "In The Lap of The Gods . . . Revisited"
    PERFORMER "Queen "
    INDEX 00 35:21:65
    INDEX 01 35:21:68
Исполнитель: Queen
Альбом: A Night At The Opera (CDP 7 46207 2) [West German Pressing 1986]
Тип релиза: Студийная запись
Жанр: Rock
Дата выпуска: 21 November 1975
Страна: UK/(Germany)
Лейбл: EMI, CDP 7 46207 2, (1986)
Формат: FLAC (image+cue)
Битрейт: 811 kbps
Продолжительность: 00:42:58
Источник: Скачано с torrents.ru
Треклист:
01. Death on Two Legs [00:03:44]
02. Lazing on a Sunday Afternoon [00:01:07]
03. I'm in Love with My Car [00:03:05]
04. You're My Best Friend [00:02:50]
05. '39 [00:03:30]
06. Sweet Lady [00:04:02]
07. Seaside Rendezvous [00:02:14]
08. The Prophet's Song [00:08:20]
09. Love of My Life [00:03:34]
10. Good Company [00:03:17]
11. Bohemian Rhapsody [00:05:59]
12. God Save the Queen [00:01:12]


Credits:
Freddie Mercury - vocals, vocals, Bechstein Debauchery, and more vocals, jangle piano and vocal orchestration of woodwinds on Seaside Rendezvous, operatic vocals on Bohemian Rhapsody
Brian May - guitars, orchestral backdrops, vocals, lead vocals on '39 and Good Company, toy koto on The Prophets Song, orchestral harp on Love Of My Life, genuine 'aloha' ukulele (made in Japan) and guitar jazz band on Good Company, operatic vocals on Bohemian Rhapsody
Roger Taylor - drums, percussion, vocals, lead vocals on I'm In Love With My Car, bass drum and tambourine on '39, vocal orchestrations of brass on Seaside Rendezvous, operatic vocals on Bohemian Rhapsody, timpani and gong on Bohemian Rhapsody and God Save The Queen, orchestral cymbals on God Save The Queen
John Deacon - bass guitar, electric piano on You're My Best Friend, double bass on '39

Produced by Queen and Roy Thomas Baker.

Recorded August - November 1975 at Sarm Studios, Olympic Studios, Scorpio Studios, Lansdowne Studios, Roundhouse Studios, London; Rockfield Studios, Monmouth. (God Save The Queen recorded July - October 1974 at Wessex Studios.)

Код:

Exact Audio Copy V0.99 prebeta 4 from 23. January 2008

EAC extraction logfile from 18. March 2010, 21:10

Queen / A Night at the Opera (CDP 7 46207 2)

Used drive  : PIONEER DVD-RW  DVR-105   Adapter: 0  ID: 1

Read mode               : Secure
Utilize accurate stream : Yes
Defeat audio cache      : Yes
Make use of C2 pointers : No

Read offset correction                      : 48
Overread into Lead-In and Lead-Out          : No
Fill up missing offset samples with silence : Yes
Delete leading and trailing silent blocks   : No
Null samples used in CRC calculations       : Yes
Used interface                              : Installed external ASPI interface

Used output format              : User Defined Encoder
Selected bitrate                : 768 kBit/s
Quality                         : High
Add ID3 tag                     : No
Command line compressor         : C:\Program Files\Exact Audio Copy\Flac\flac.exe
Additional command line options : -8 -V -T "ARTIST=%a" -T "TITLE=%t" -T "ALBUM=%g" -T "DATE=%y" -T "TRACKNUMBER=%n" -T "GENRE=%m" -T "COMMENT=%e" %s -o %d

TOC of the extracted CD

     Track |   Start  |  Length  | Start sector | End sector
    ---------------------------------------------------------
        1  |  0:00.33 |  3:44.12 |        33    |    16844   
        2  |  3:44.45 |  1:07.18 |     16845    |    21887   
        3  |  4:51.63 |  3:05.07 |     21888    |    35769   
        4  |  7:56.70 |  2:52.30 |     35770    |    48699   
        5  | 10:49.25 |  3:30.38 |     48700    |    64487   
        6  | 14:19.63 |  4:03.50 |     64488    |    82762   
        7  | 18:23.38 |  2:15.45 |     82763    |    92932   
        8  | 20:39.08 |  8:20.17 |     92933    |   130449   
        9  | 28:59.25 |  3:38.55 |    130450    |   146854   
       10  | 32:38.05 |  3:17.43 |    146855    |   161672   
       11  | 35:55.48 |  5:59.45 |    161673    |   188642   
       12  | 41:55.18 |  1:12.60 |    188643    |   194102   

Range status and errors

Selected range

     Filename C:\Queen . 1975 . A Night at the Opera (CDP 7 46207 2)\Queen . 1975 . A Night at the Opera (CDP 7 46207 2).wav

     Peak level 100.0 %
     Range quality 100.0 %
     Test CRC E3A59D53
     Copy CRC E3A59D53
     Copy OK

No errors occurred

 
AccurateRip summary
 
Track  1  accurately ripped (confidence 83)  [F07A3A25]
Track  2  accurately ripped (confidence 81)  [A888461D]
Track  3  accurately ripped (confidence 84)  [FDBDB8C0]
Track  4  accurately ripped (confidence 84)  [65BB0EC9]
Track  5  accurately ripped (confidence 82)  [7E5ED987]
Track  6  accurately ripped (confidence 83)  [8A5B6FE7]
Track  7  accurately ripped (confidence 84)  [E72DBBA8]
Track  8  accurately ripped (confidence 82)  [A59016C7]
Track  9  accurately ripped (confidence 82)  [011DD88E]
Track 10  accurately ripped (confidence 82)  [47C42188]
Track 11  accurately ripped (confidence 79)  [512C1B22]
Track 12  accurately ripped (confidence 84)  [1FB01132]
 
All tracks accurately ripped

End of status report

Код:

REM GENRE Rock
REM DATE 1975
REM DISCID 920A1C0C
REM COMMENT "ExactAudioCopy v0.99pb4"
PERFORMER "Queen"
TITLE "A Night at the Opera (CDP 7 46207 2)"
FILE "Queen . 1975 . A Night at the Opera (CDP 7 46207 2).flac" WAVE
  TRACK 01 AUDIO
    TITLE "Death on Two Legs"
    PERFORMER "Queen"
    INDEX 00 00:00:00
    INDEX 01 00:00:33
  TRACK 02 AUDIO
    TITLE "Lazing on a Sunday Afternoon"
    PERFORMER "Queen"
    INDEX 00 03:44:43
    INDEX 01 03:44:45
  TRACK 03 AUDIO
    TITLE "I'm in Love with My Car"
    PERFORMER "Queen"
    INDEX 00 04:51:60
    INDEX 01 04:51:63
  TRACK 04 AUDIO
    TITLE "You're My Best Friend"
    PERFORMER "Queen"
    INDEX 00 07:56:68
    INDEX 01 07:56:70
  TRACK 05 AUDIO
    TITLE "'39"
    PERFORMER "Queen"
    INDEX 00 10:47:45
    INDEX 01 10:49:25
  TRACK 06 AUDIO
    TITLE "Sweet Lady"
    PERFORMER "Queen"
    INDEX 00 14:19:60
    INDEX 01 14:19:63
  TRACK 07 AUDIO
    TITLE "Seaside Rendezvous"
    PERFORMER "Queen"
    INDEX 00 18:22:03
    INDEX 01 18:23:38
  TRACK 08 AUDIO
    TITLE "The Prophet's Song"
    PERFORMER "Queen"
    INDEX 00 20:37:73
    INDEX 01 20:39:08
  TRACK 09 AUDIO
    TITLE "Love of My Life"
    PERFORMER "Queen"
    INDEX 00 28:59:23
    INDEX 01 28:59:25
  TRACK 10 AUDIO
    TITLE "Good Company"
    PERFORMER "Queen"
    INDEX 00 32:33:28
    INDEX 01 32:38:05
  TRACK 11 AUDIO
    TITLE "Bohemian Rhapsody"
    PERFORMER "Queen"
    INDEX 00 35:55:45
    INDEX 01 35:55:48
  TRACK 12 AUDIO
    TITLE "God Save the Queen"
    PERFORMER "Queen"
    INDEX 00 41:55:15
    INDEX 01 41:55:18
Исполнитель: Queen
Альбом: A Day At The Races (CDP 7 46208 2) [West German Pressing 1986]
Тип релиза: Студийная запись
Жанр: Rock
Дата выпуска: 10 December 1976
Страна: UK/(Germany)
Лейбл: EMI, CDP 7 46208 2, (1986)
Формат: FLAC (image+cue)
Битрейт: 783 kbps
Продолжительность: 00:44:12
Источник: Скачано с torrents.ru
Треклист:
01. Tie Your Mother Down [00:04:47]
02. You Take My Breath Away [00:04:40]
03. Long Away [00:04:00]
04. The Millionaire Waltz [00:04:54]
05. You And I [00:03:26]
06. Somebody To Love [00:04:57]
07. White Man [00:04:58]
08. Good Old Fashioned Lover Boy [00:02:54]
09. Drowse [00:03:43]
10. Teo Torriatte (Let Us Cling Together) [00:05:50]
Доп. информация:

Credits:
Freddie Mercury - vocals, piano, choir meister, tantrums, choir vocals on Somebody To Love
Brian May - guitars, vocals, leader of the orchestra, introduction on Tie Your Mother Down, lead vocals on Long Away, guitar orchestrations on The Millionaire Waltz, choir vocals on Somebody To Love, slide guitar on Drowse, harmonium, piano and plastic piano on Teo Torriatte (Let Us Cling Together)
Roger Taylor - drums, vocals, percussion, pandemonium, choir vocals on Somebody To Love, rhythm guitar and lead vocals on Drowse
John Deacon - Fender bass, acoustic guitar on You And I
Mike Stone - additional vocals on Good Old-Fashioned Lover Boy

Produced by Queen.

Recorded July - November 1976 at The Manor, Wessex Studios, and Sarm Studios, London.

Код:

Exact Audio Copy V0.99 prebeta 4 from 23. January 2008

EAC extraction logfile from 18. March 2010, 21:40

Queen / A Day At The Races (CDP 7 46208 2)

Used drive  : PIONEER DVD-RW  DVR-105   Adapter: 0  ID: 1

Read mode               : Secure
Utilize accurate stream : Yes
Defeat audio cache      : Yes
Make use of C2 pointers : No

Read offset correction                      : 48
Overread into Lead-In and Lead-Out          : No
Fill up missing offset samples with silence : Yes
Delete leading and trailing silent blocks   : No
Null samples used in CRC calculations       : Yes
Used interface                              : Installed external ASPI interface

Used output format              : User Defined Encoder
Selected bitrate                : 768 kBit/s
Quality                         : High
Add ID3 tag                     : No
Command line compressor         : C:\Program Files\Exact Audio Copy\Flac\flac.exe
Additional command line options : -8 -V -T "ARTIST=%a" -T "TITLE=%t" -T "ALBUM=%g" -T "DATE=%y" -T "TRACKNUMBER=%n" -T "GENRE=%m" -T "COMMENT=%e" %s -o %d

TOC of the extracted CD

     Track |   Start  |  Length  | Start sector | End sector
    ---------------------------------------------------------
        1  |  0:00.30 |  4:49.18 |        30    |    21722   
        2  |  4:49.48 |  4:40.15 |     21723    |    42737   
        3  |  9:29.63 |  4:00.37 |     42738    |    60774   
        4  | 13:30.25 |  4:55.53 |     60775    |    82952   
        5  | 18:26.03 |  3:27.00 |     82953    |    98477   
        6  | 21:53.03 |  4:59.12 |     98478    |   120914   
        7  | 26:52.15 |  4:58.65 |    120915    |   143329   
        8  | 31:51.05 |  2:54.15 |    143330    |   156394   
        9  | 34:45.20 |  3:45.40 |    156395    |   173309   
       10  | 38:30.60 |  5:52.15 |    173310    |   199724   

Range status and errors

Selected range

     Filename C:\Queen . 1976 . A Day At The Races (CDP 7 46208 2)\Queen . 1976 . A Day At The Races (CDP 7 46208 2).wav

     Peak level 100.0 %
     Range quality 100.0 %
     Test CRC E8AE5F79
     Copy CRC E8AE5F79
     Copy OK

No errors occurred

 
AccurateRip summary
 
Track  1  accurately ripped (confidence 38)  [99A82F47]
Track  2  accurately ripped (confidence 37)  [E759465B]
Track  3  accurately ripped (confidence 37)  [A6F0E234]
Track  4  accurately ripped (confidence 37)  [F34E4206]
Track  5  accurately ripped (confidence 37)  [8151B3AA]
Track  6  accurately ripped (confidence 39)  [79A3D557]
Track  7  accurately ripped (confidence 37)  [56FCE284]
Track  8  accurately ripped (confidence 38)  [486A2480]
Track  9  accurately ripped (confidence 38)  [53D36C41]
Track 10  accurately ripped (confidence 37)  [F76FA43E]
 
All tracks accurately ripped

End of status report

Код:

REM GENRE Rock
REM DATE 1976
REM DISCID 6D0A670A
REM COMMENT "ExactAudioCopy v0.99pb4"
PERFORMER "Queen"
TITLE "A Day At The Races (CDP 7 46208 2)"
FILE "Queen . 1976 . A Day At The Races (CDP 7 46208 2).flac" WAVE
  TRACK 01 AUDIO
    TITLE "Tie Your Mother Down"
    PERFORMER "Queen"
    INDEX 00 00:00:00
    INDEX 01 00:00:30
  TRACK 02 AUDIO
    TITLE "You Take My Breath Away"
    PERFORMER "Queen"
    INDEX 00 04:47:48
    INDEX 01 04:49:48
  TRACK 03 AUDIO
    TITLE "Long Away"
    PERFORMER "Queen"
    INDEX 00 09:29:60
    INDEX 01 09:29:63
  TRACK 04 AUDIO
    TITLE "The Millionaire Waltz"
    PERFORMER "Queen"
    INDEX 00 13:30:23
    INDEX 01 13:30:25
  TRACK 05 AUDIO
    TITLE "You And I"
    PERFORMER "Queen"
    INDEX 00 18:25:15
    INDEX 01 18:26:03
  TRACK 06 AUDIO
    TITLE "Somebody To Love"
    PERFORMER "Queen"
    INDEX 00 21:52:08
    INDEX 01 21:53:03
  TRACK 07 AUDIO
    TITLE "White Man"
    PERFORMER "Queen"
    INDEX 00 26:50:08
    INDEX 01 26:52:15
  TRACK 08 AUDIO
    TITLE "Good Old Fashioned Lover Boy"
    PERFORMER "Queen"
    INDEX 00 31:50:60
    INDEX 01 31:51:05
  TRACK 09 AUDIO
    TITLE "Drowse"
    PERFORMER "Queen"
    INDEX 00 34:45:18
    INDEX 01 34:45:20
  TRACK 10 AUDIO
    TITLE "Teo Torriatte (Let Us Cling Together)"
    PERFORMER "Queen"
    INDEX 00 38:28:55
    INDEX 01 38:30:60
Исполнитель: Queen
Альбом: (1977) News Of The World (CDP 7 46209 2) [UK Pressing 1986]
Тип релиза: Студийная запись
Жанр: Rock
Дата выпуска: 28 October 1977
Страна: UK
Лейбл: EMI, CDP 7 46209 2, (1986)
Формат: FLAC (image+cue)
Битрейт: 880 kbps
Продолжительность: 00:39:12
Источник: Скачано с torrents.ru
Треклист:
01. We Will Rock You [00:02:01]
02. We Are the Champions [00:02:59]
03. Sheer Heart Attack [00:03:24]
04. All Dead, All Dead [00:03:09]
05. Spread Your Wings [00:04:32]
06. Fight from the Inside [00:03:03]
07. Get Down, Make Love [00:03:51]
08. Sleeping on the Sidewalk [00:03:07]
09. Who Needs You [00:03:07]
10. It's Late [00:06:27]
11. My Melancholy Blues [00:03:27]
Доп. информация:

Credits:
John Deacon - bass guitar, acoustic guitar on Spread Your Wings and Who Needs You
Brian May - guitars, vocals, piano on All Dead, All Dead, lead vocals on All Dead, All Dead and Sleeping On The Sidewalk, maracas and acoustic guitar on Who Needs You
Freddie Mercury - vocals, piano, harmony vocals on All Dead, All Dead, cowbell on Who Needs You
Roger Taylor - drums, percussion, vocals, rhythm and bass guitars on Sheer Heart Attack and Fight From The Inside, lead vocals on Fight From The Inside

Produced by Queen, assisted by Mike Stone.

Recorded July - September 1977 at Basing Street Studios and Wessex Studios, London.

Код:

Exact Audio Copy V0.99 prebeta 4 from 23. January 2008

EAC extraction logfile from 18. March 2010, 22:02

Queen / News Of The World (CDP 7 46209 2)

Used drive  : PIONEER DVD-RW  DVR-105   Adapter: 0  ID: 1

Read mode               : Secure
Utilize accurate stream : Yes
Defeat audio cache      : Yes
Make use of C2 pointers : No

Read offset correction                      : 48
Overread into Lead-In and Lead-Out          : No
Fill up missing offset samples with silence : Yes
Delete leading and trailing silent blocks   : No
Null samples used in CRC calculations       : Yes
Used interface                              : Installed external ASPI interface

Used output format              : User Defined Encoder
Selected bitrate                : 768 kBit/s
Quality                         : High
Add ID3 tag                     : No
Command line compressor         : C:\Program Files\Exact Audio Copy\Flac\flac.exe
Additional command line options : -8 -V -T "ARTIST=%a" -T "TITLE=%t" -T "ALBUM=%g" -T "DATE=%y" -T "TRACKNUMBER=%n" -T "GENRE=%m" -T "COMMENT=%e" %s -o %d

TOC of the extracted CD

     Track |   Start  |  Length  | Start sector | End sector
    ---------------------------------------------------------
        1  |  0:00.33 |  2:01.52 |        33    |     9159   
        2  |  2:02.10 |  2:59.18 |      9160    |    22602   
        3  |  5:01.28 |  3:27.05 |     22603    |    38132   
        4  |  8:28.33 |  3:10.07 |     38133    |    52389   
        5  | 11:38.40 |  4:35.13 |     52390    |    73027   
        6  | 16:13.53 |  3:04.22 |     73028    |    86849   
        7  | 19:18.00 |  3:51.20 |     86850    |   104194   
        8  | 23:09.20 |  3:08.48 |    104195    |   118342   
        9  | 26:17.68 |  3:08.72 |    118343    |   132514   
       10  | 29:26.65 |  6:28.68 |    132515    |   161682   
       11  | 35:55.58 |  3:29.15 |    161683    |   177372   

Range status and errors

Selected range

     Filename C:\Queen . 1977 . News Of The World (CDP 7 46209 2)\Queen . 1977 . News Of The World (CDP 7 46209 2).wav

     Peak level 100.0 %
     Range quality 99.9 %
     Test CRC 3FF939A8
     Copy CRC 3FF939A8
     Copy OK

No errors occurred

 
AccurateRip summary
 
Track  1  accurately ripped (confidence 46)  [1ED56D8D]
Track  2  accurately ripped (confidence 45)  [A1E66044]
Track  3  accurately ripped (confidence 46)  [5B97AAEC]
Track  4  accurately ripped (confidence 46)  [860D8DB9]
Track  5  accurately ripped (confidence 45)  [1E6144BA]
Track  6  accurately ripped (confidence 45)  [BE1B04B4]
Track  7  accurately ripped (confidence 46)  [AEA6B654]
Track  8  accurately ripped (confidence 47)  [6462A303]
Track  9  accurately ripped (confidence 45)  [4EEAE9CB]
Track 10  accurately ripped (confidence 47)  [EB0BFE8E]
Track 11  accurately ripped (confidence 46)  [116A0997]
 
All tracks accurately ripped

End of status report

Код:

REM GENRE Rock
REM DATE 1977
REM DISCID 82093C0B
REM COMMENT "ExactAudioCopy v0.99pb4"
PERFORMER "Queen"
TITLE "News Of The World (CDP 7 46209 2)"
FILE "Queen . 1977 . News Of The World (CDP 7 46209 2).flac" WAVE
  TRACK 01 AUDIO
    TITLE "We Will Rock You"
    PERFORMER "Queen"
    INDEX 00 00:00:00
    INDEX 01 00:00:33
  TRACK 02 AUDIO
    TITLE "We Are the Champions"
    PERFORMER "Queen"
    INDEX 00 02:02:08
    INDEX 01 02:02:10
  TRACK 03 AUDIO
    TITLE "Sheer Heart Attack"
    PERFORMER "Queen"
    INDEX 00 05:01:25
    INDEX 01 05:01:28
  TRACK 04 AUDIO
    TITLE "All Dead, All Dead"
    PERFORMER "Queen"
    INDEX 00 08:26:00
    INDEX 01 08:28:33
  TRACK 05 AUDIO
    TITLE "Spread Your Wings"
    PERFORMER "Queen"
    INDEX 00 11:37:45
    INDEX 01 11:38:40
  TRACK 06 AUDIO
    TITLE "Fight from the Inside"
    PERFORMER "Queen"
    INDEX 00 16:11:25
    INDEX 01 16:13:53
  TRACK 07 AUDIO
    TITLE "Get Down, Make Love"
    PERFORMER "Queen"
    INDEX 00 19:17:23
    INDEX 01 19:18:00
  TRACK 08 AUDIO
    TITLE "Sleeping on the Sidewalk"
    PERFORMER "Queen"
    INDEX 00 23:09:18
    INDEX 01 23:09:20
  TRACK 09 AUDIO
    TITLE "Who Needs You"
    PERFORMER "Queen"
    INDEX 00 26:16:63
    INDEX 01 26:17:68
  TRACK 10 AUDIO
    TITLE "It's Late"
    PERFORMER "Queen"
    INDEX 00 29:25:13
    INDEX 01 29:26:65
  TRACK 11 AUDIO
    TITLE "My Melancholy Blues"
    PERFORMER "Queen"
    INDEX 00 35:54:38
    INDEX 01 35:55:58
Исполнитель: Queen
Альбом: Jazz (CDP 7 46210 2) [UK Pressing 1986]
Тип релиза: Студийная запись
Жанр: Rock
Дата выпуска: 10 November 1978
Страна: UK
Лейбл: EMI, CDP 7 46210 2, (1986)
Формат: FLAC (image+cue)
Битрейт: 828 kbps
Продолжительность: 00:44:45
Источник: Скачано с torrents.ru
Треклист:
01. Mustapha [00:03:01]
02. Fat Bottomed Girls [00:04:16]
03. Jealousy [00:03:13]
04. Bicycle Race [00:03:01]
05. If You Can't Beat Them [00:04:15]
06. Let Me Entertain You [00:03:01]
07. Dead On Time [00:03:23]
08. In Only Seven Days [00:02:30]
09. Dreamer's Ball [00:03:30]
10. Fun It [00:03:29]
11. Leaving Home Ain't Easy [00:03:15]
12. Don't Stop Me Now [00:03:29]
13. More Of That Jazz [00:04:16]
Доп. информация:

Credits:
John Deacon - bass guitar, acoustic guitar on In Only Seven Days
Brian May - guitars, vocals, lead vocals on Leaving Home Ain't Easy
Freddie Mercury - vocals, piano
Roger Taylor - drums, percussion, vocals, co-lead vocals on Fun It, lead vocals, bass and rhythm guitars on More Of That Jazz

Produced by Queen and Roy Thomas Baker.

Recorded July - October 1978 at Superbear Studios, Nice, and Mountain Studios, Montreux.

Код:

Exact Audio Copy V0.99 prebeta 4 from 23. January 2008

EAC extraction logfile from 18. March 2010, 22:40

Queen / Jazz (CDP 7 46210 2)

Used drive  : PIONEER DVD-RW  DVR-105   Adapter: 0  ID: 1

Read mode               : Secure
Utilize accurate stream : Yes
Defeat audio cache      : Yes
Make use of C2 pointers : No

Read offset correction                      : 48
Overread into Lead-In and Lead-Out          : No
Fill up missing offset samples with silence : Yes
Delete leading and trailing silent blocks   : No
Null samples used in CRC calculations       : Yes
Used interface                              : Installed external ASPI interface

Used output format              : User Defined Encoder
Selected bitrate                : 768 kBit/s
Quality                         : High
Add ID3 tag                     : No
Command line compressor         : C:\Program Files\Exact Audio Copy\Flac\flac.exe
Additional command line options : -8 -V -T "ARTIST=%a" -T "TITLE=%t" -T "ALBUM=%g" -T "DATE=%y" -T "TRACKNUMBER=%n" -T "GENRE=%m" -T "COMMENT=%e" %s -o %d

TOC of the extracted CD

     Track |   Start  |  Length  | Start sector | End sector
    ---------------------------------------------------------
        1  |  0:00.33 |  3:01.17 |        33    |    13624   
        2  |  3:01.50 |  4:17.40 |     13625    |    32939   
        3  |  7:19.15 |  3:14.00 |     32940    |    47489   
        4  | 10:33.15 |  3:02.35 |     47490    |    61174   
        5  | 13:35.50 |  4:15.35 |     61175    |    80334   
        6  | 17:51.10 |  3:01.33 |     80335    |    93942   
        7  | 20:52.43 |  3:23.22 |     93943    |   109189   
        8  | 24:15.65 |  2:30.15 |    109190    |   120454   
        9  | 26:46.05 |  3:31.20 |    120455    |   136299   
       10  | 30:17.25 |  3:29.65 |    136300    |   152039   
       11  | 33:47.15 |  3:15.18 |    152040    |   166682   
       12  | 37:02.33 |  3:29.52 |    166683    |   182409   
       13  | 40:32.10 |  4:16.45 |    182410    |   201654   

Range status and errors

Selected range

     Filename C:\Queen . 1978 . Jazz (CDP 7 46210 2)\Queen . 1978 . Jazz (CDP 7 46210 2).wav

     Peak level 95.5 %
     Range quality 99.9 %
     Test CRC A818C1E5
     Copy CRC A818C1E5
     Copy OK

No errors occurred

 
AccurateRip summary
 
Track  1  accurately ripped (confidence 20)  [44387A5B]
Track  2  accurately ripped (confidence 20)  [F1F42B99]
Track  3  accurately ripped (confidence 20)  [B8B5ACB8]
Track  4  accurately ripped (confidence 20)  [E08F0A4D]
Track  5  accurately ripped (confidence 19)  [71A070F5]
Track  6  accurately ripped (confidence 19)  [4FE0F77F]
Track  7  accurately ripped (confidence 20)  [022FC602]
Track  8  accurately ripped (confidence 20)  [98EC3C30]
Track  9  accurately ripped (confidence 19)  [0F3729CD]
Track 10  accurately ripped (confidence 20)  [389CDFF1]
Track 11  accurately ripped (confidence 20)  [AF5C076A]
Track 12  accurately ripped (confidence 19)  [4B6E9A0D]
Track 13  accurately ripped (confidence 19)  [E48D092E]
 
All tracks accurately ripped

End of status report

Код:

REM GENRE Rock
REM DATE 1978
REM DISCID A30A800D
REM COMMENT "ExactAudioCopy v0.99pb4"
PERFORMER "Queen"
TITLE "Jazz (CDP 7 46210 2)"
FILE "Queen . 1978 . Jazz (CDP 7 46210 2).flac" WAVE
  TRACK 01 AUDIO
    TITLE "Mustapha"
    PERFORMER "Queen"
    INDEX 00 00:00:00
    INDEX 01 00:00:33
  TRACK 02 AUDIO
    TITLE "Fat Bottomed Girls"
    PERFORMER "Queen"
    INDEX 00 03:01:48
    INDEX 01 03:01:50
  TRACK 03 AUDIO
    TITLE "Jealousy"
    PERFORMER "Queen"
    INDEX 00 07:18:28
    INDEX 01 07:19:15
  TRACK 04 AUDIO
    TITLE "Bicycle Race"
    PERFORMER "Queen"
    INDEX 00 10:33:13
    INDEX 01 10:33:15
  TRACK 05 AUDIO
    TITLE "If You Can't Beat Them"
    PERFORMER "Queen"
    INDEX 00 13:34:58
    INDEX 01 13:35:50
  TRACK 06 AUDIO
    TITLE "Let Me Entertain You"
    PERFORMER "Queen"
    INDEX 00 17:51:08
    INDEX 01 17:51:10
  TRACK 07 AUDIO
    TITLE "Dead On Time"
    PERFORMER "Queen"
    INDEX 00 20:52:40
    INDEX 01 20:52:43
  TRACK 08 AUDIO
    TITLE "In Only Seven Days"
    PERFORMER "Queen"
    INDEX 00 24:15:63
    INDEX 01 24:15:65
  TRACK 09 AUDIO
    TITLE "Dreamer's Ball"
    PERFORMER "Queen"
    INDEX 00 26:46:03
    INDEX 01 26:46:05
  TRACK 10 AUDIO
    TITLE "Fun It"
    PERFORMER "Queen"
    INDEX 00 30:16:48
    INDEX 01 30:17:25
  TRACK 11 AUDIO
    TITLE "Leaving Home Ain't Easy"
    PERFORMER "Queen"
    INDEX 00 33:47:13
    INDEX 01 33:47:15
  TRACK 12 AUDIO
    TITLE "Don't Stop Me Now"
    PERFORMER "Queen"
    INDEX 00 37:02:30
    INDEX 01 37:02:33
  TRACK 13 AUDIO
    TITLE "More Of That Jazz"
    PERFORMER "Queen"
    INDEX 00 40:32:08
    INDEX 01 40:32:10
Исполнитель: Queen
Альбом: The Game (CDP 7 46213 2) [UK Pressing 1986]
Тип релиза: Студийная запись
Жанр: Rock
Дата выпуска: 30 June 1980
Страна: UK
Лейбл: EMI, CDP 7 46213 2, (1986)
Формат: FLAC (image+cue)
Битрейт: 818 kbps
Продолжительность: 00:35:32
Источник: Скачано с torrents.ru
Треклист:
01. Play The Game [00:03:30]
02. Dragon Attack [00:04:18]
03. Another One Bites The Dust [00:03:35]
04. Need Your Loving Tonight [00:02:48]
05. Crazy Little Thing Called Love [00:02:44]
06. Rock It (Prime Jive) [00:04:31]
07. Don't Try Suicide [00:03:52]
08. Sail Away Sweet Sister [00:03:32]
09. Coming Soon [00:02:50]
10. Save Me [00:03:47]
Доп. информация:

Credits:
John Deacon - bass guitar, rhythm guitar and piano on Another One Bites The Dust, acoustic rhythm guitar on Need Your Loving Tonight
Brian May - guitars, vocals, synthesizer, piano on Save Me, lead vocals on Sail Away Sweet Sister
Freddie Mercury - vocals, piano, synthesizer, acoustic rhythm guitar on Crazy Little Thing Called Love, intro vocals on Rock It (Prime Jive), bridge vocals on Sail Away Sweet Sister
Roger Taylor - drums, percussion, vocals, synthesizer, rhythm guitar and co-lead vocals on Coming Soon, lead vocals on Rock It (Prime Jive)
Mack - synthesizer

Produced by Queen and Mack.

Recorded June - July 1979 (Crazy Little Thing Called Love, Sail Away Sweet Sister, Coming Soon, and Save Me) and February - May 1980 (all other tracks) at Musicland Studios, Munich.

Код:

Exact Audio Copy V0.99 prebeta 4 from 23. January 2008

EAC extraction logfile from 18. March 2010, 23:03

Queen / The Game (CDP 7 46213 2)

Used drive  : PIONEER DVD-RW  DVR-105   Adapter: 0  ID: 1

Read mode               : Secure
Utilize accurate stream : Yes
Defeat audio cache      : Yes
Make use of C2 pointers : No

Read offset correction                      : 48
Overread into Lead-In and Lead-Out          : No
Fill up missing offset samples with silence : Yes
Delete leading and trailing silent blocks   : No
Null samples used in CRC calculations       : Yes
Used interface                              : Installed external ASPI interface

Used output format              : User Defined Encoder
Selected bitrate                : 768 kBit/s
Quality                         : High
Add ID3 tag                     : No
Command line compressor         : C:\Program Files\Exact Audio Copy\Flac\flac.exe
Additional command line options : -8 -V -T "ARTIST=%a" -T "TITLE=%t" -T "ALBUM=%g" -T "DATE=%y" -T "TRACKNUMBER=%n" -T "GENRE=%m" -T "COMMENT=%e" %s -o %d

TOC of the extracted CD

     Track |   Start  |  Length  | Start sector | End sector
    ---------------------------------------------------------
        1  |  0:00.33 |  3:30.47 |        33    |    15829   
        2  |  3:31.05 |  4:18.50 |     15830    |    35229   
        3  |  7:49.55 |  3:36.30 |     35230    |    51459   
        4  | 11:26.10 |  2:49.58 |     51460    |    64192   
        5  | 14:15.68 |  2:45.42 |     64193    |    76609   
        6  | 17:01.35 |  4:31.73 |     76610    |    97007   
        7  | 21:33.33 |  3:52.52 |     97008    |   114459   
        8  | 25:26.10 |  3:33.00 |    114460    |   130434   
        9  | 28:59.10 |  2:51.53 |    130435    |   143312   
       10  | 31:50.63 |  3:48.45 |    143313    |   160457   

Range status and errors

Selected range

     Filename C:\Queen . 1980 . The Game (CDP 7 46213 2)\Queen . 1980 . The Game (CDP 7 46213 2).wav

     Peak level 100.0 %
     Range quality 100.0 %
     Test CRC 340E2644
     Copy CRC 340E2644
     Copy OK

No errors occurred

 
AccurateRip summary
 
Track  1  accurately ripped (confidence 20)  [7A7CC772]
Track  2  accurately ripped (confidence 20)  [086609EF]
Track  3  accurately ripped (confidence 20)  [B74E1EE0]
Track  4  accurately ripped (confidence 20)  [1AE0BF5B]
Track  5  accurately ripped (confidence 20)  [6805B6F5]
Track  6  accurately ripped (confidence 20)  [3C15D5A7]
Track  7  accurately ripped (confidence 20)  [E8936114]
Track  8  accurately ripped (confidence 19)  [5A55E31A]
Track  9  accurately ripped (confidence 20)  [44ADC7AA]
Track 10  accurately ripped (confidence 20)  [4326B8FE]
 
All tracks accurately ripped

End of status report

Код:

REM GENRE Rock
REM DATE 1980
REM DISCID 7F085B0A
REM COMMENT "ExactAudioCopy v0.99pb4"
PERFORMER "Queen"
TITLE "The Game (CDP 7 46213 2)"
FILE "Queen . 1980 . The Game (CDP 7 46213 2).flac" WAVE
  TRACK 01 AUDIO
    TITLE "Play The Game"
    PERFORMER "Queen"
    INDEX 00 00:00:00
    INDEX 01 00:00:33
  TRACK 02 AUDIO
    TITLE "Dragon Attack"
    PERFORMER "Queen"
    INDEX 00 03:31:03
    INDEX 01 03:31:05
  TRACK 03 AUDIO
    TITLE "Another One Bites The Dust"
    PERFORMER "Queen"
    INDEX 00 07:49:53
    INDEX 01 07:49:55
  TRACK 04 AUDIO
    TITLE "Need Your Loving Tonight"
    PERFORMER "Queen"
    INDEX 00 11:24:55
    INDEX 01 11:26:10
  TRACK 05 AUDIO
    TITLE "Crazy Little Thing Called Love"
    PERFORMER "Queen"
    INDEX 00 14:15:03
    INDEX 01 14:15:68
  TRACK 06 AUDIO
    TITLE "Rock It (Prime Jive)"
    PERFORMER "Queen"
    INDEX 00 16:59:70
    INDEX 01 17:01:35
  TRACK 07 AUDIO
    TITLE "Don't Try Suicide"
    PERFORMER "Queen"
    INDEX 00 21:33:30
    INDEX 01 21:33:33
  TRACK 08 AUDIO
    TITLE "Sail Away Sweet Sister"
    PERFORMER "Queen"
    INDEX 00 25:26:08
    INDEX 01 25:26:10
  TRACK 09 AUDIO
    TITLE "Coming Soon"
    PERFORMER "Queen"
    INDEX 00 28:59:08
    INDEX 01 28:59:10
  TRACK 10 AUDIO
    TITLE "Save Me"
    PERFORMER "Queen"
    INDEX 00 31:49:38
    INDEX 01 31:50:63
Исполнитель: Queen
Альбом: Flash Gordon (Original Soundtrack Music) (CDP 7 46214 2) (Dutch Pressing) 1986
Тип релиза: Студийная запись
Жанр: Rock
Дата выпуска: 1980
Страна: UK
Лейбл: EMI, CDP 7 46214 2, (1986)
Формат: FLAC (image+cue)
Битрейт: 693 kbps
Продолжительность: 00:35:10
Источник: Скачано с torrents.ru
Треклист:
01. Flash's Theme [00:03:29]
02. In The Space Capsule (The Love Theme) [00:02:42]
03. Ming's Theme (In The Court Of Ming The Merciless) [00:02:40]
04. The Ring (Hypnotic Seduction Of Dale) [00:00:57]
05. Football Fight [00:01:28]
06. In The Death Cell (Love Theme Reprise) [00:02:24]
07. Execution Of Flash [00:01:05]
08. The Kiss (Aura Resurrects Flash) [00:01:44]
09. Arboria (Planet Of The Tree Men) [00:01:41]
10. Escape From The Swamp [00:01:43]
11. Flash To The Rescue [00:02:44]
12. Vultan's Theme (Attack Of The Hawk Men) [00:01:12]
13. Battle Theme [00:02:18]
14. The Wedding March [00:00:56]
15. Marriage Of Dale And Ming (And Flash Approaching) [00:02:04]
16. Crash Dive On Mingo City [00:01:00]
17. Flash's Theme Reprise (Victory Celebrations) [00:01:23]
18. The Hero [00:03:31]
Доп. информация:

Credits:
John Deacon - bass guitar, synthesizer, guitar
Brian May - guitars, vocals, piano, organ, synthesizer
Freddie Mercury - vocals, synthesizer
Roger Taylor - drums, vocals, timpani
Howard Blake - orchestral arrangements

Produced by Brian May and Mack.

Recorded October - November 1980 at The Townhouse, Advision Studios, The Music Centre, London. The Hero recorded at Utopia Studios, London. Orchestrations recorded at Anvil Studios, London.

Код:

Exact Audio Copy V0.99 prebeta 5 from 4. May 2009
Отчёт EAC об извлечении, выполненном 13. апреля 2010, 18:06
Queen / Flash Gordon
Дисковод: Optiarc DVD RW AD-7240S   Adapter: 1  ID: 0
Режим чтения                 : Достоверность
Использование точного потока : Да
Отключение кэша аудио        : Да
Использование указателей C2  : Нет
Коррекция смещения при чтении                     : 48
Способность читать области Lead-in и Lead-out     : Нет
Заполнение пропущенных сэмплов тишиной            : Да
Удаление блоков с тишиной в начале и конце        : Нет
При вычислениях CRC использовались нулевые сэмплы : Да
Интерфейс                                         : Встроенный Win32-интерфейс для Win NT/2000
Выходной формат          : Пользовательский кодировщик
Выбранный битрейт        : 768 kBit/s
Качество                 : Высокий
Добавление ID3-тэга      : Нет
Утилита сжатия           : C:\Program Files\Exact Audio Copy\FLAC\FLAC.EXE
Дополнительные параметры : -6 -V -T "ARTIST=%a" -T "TITLE=%t" -T "ALBUM=%g" -T "DATE=%y" -T "TRACKNUMBER=%n" -T "GENRE=%m" -T "COMMENT=%e" %s -o %d
TOC извлечённого CD
     Трек |   Старт  | Длительность | Начальный сектор | Конечный сектор
    ---------------------------------------------------------------------
       1  |  0:00.33 |    3:29.72   |          33      |      15779
       2  |  3:30.30 |    2:42.55   |       15780      |      27984
       3  |  6:13.10 |    2:40.68   |       27985      |      40052
       4  |  8:54.03 |    0:57.27   |       40053      |      44354
       5  |  9:51.30 |    1:28.55   |       44355      |      51009
       6  | 11:20.10 |    2:24.68   |       51010      |      61877
       7  | 13:45.03 |    1:05.67   |       61878      |      66819
       8  | 14:50.70 |    1:44.58   |       66820      |      74677
       9  | 16:35.53 |    1:41.30   |       74678      |      82282
      10  | 18:17.08 |    1:43.12   |       82283      |      90019
      11  | 20:00.20 |    2:44.33   |       90020      |     102352
      12  | 22:44.53 |    1:12.17   |      102353      |     107769
      13  | 23:56.70 |    2:18.43   |      107770      |     118162
      14  | 26:15.38 |    0:56.05   |      118163      |     122367
      15  | 27:11.43 |    2:04.40   |      122368      |     131707
      16  | 29:16.08 |    1:00.50   |      131708      |     136257
      17  | 30:16.58 |    1:23.57   |      136258      |     142539
      18  | 31:40.40 |    3:31.08   |      142540      |     158372
Характеристики диапазона извлечения и сообщения об ошибках
Выбранный диапазон
     Имя файла E:\music\Музон\Queen Flash Gordon\Queen - Flash Gordon.wav
     Пиковый уровень 100.0 %
     Качество диапазона 100.0 %
     CRC теста 93530C58
     CRC копии 93530C58
     Копирование... OK
Ошибок не произошло
AccurateRip: сводка
Трек  1  точное извлечение (доверие 5)  [EC801FBB]
Трек  2  точное извлечение (доверие 5)  [FFBBFF08]
Трек  3  точное извлечение (доверие 5)  [C4EDE50B]
Трек  4  точное извлечение (доверие 5)  [D20A60A8]
Трек  5  точное извлечение (доверие 5)  [ACE93966]
Трек  6  точное извлечение (доверие 5)  [48A37D04]
Трек  7  точное извлечение (доверие 5)  [93D9F154]
Трек  8  точное извлечение (доверие 5)  [389585B3]
Трек  9  точное извлечение (доверие 5)  [1B25A738]
Трек 10  точное извлечение (доверие 5)  [A23D4394]
Трек 11  точное извлечение (доверие 5)  [33A06A76]
Трек 12  точное извлечение (доверие 5)  [D7F2564B]
Трек 13  точное извлечение (доверие 5)  [8D9A070F]
Трек 14  точное извлечение (доверие 5)  [6F7ADED9]
Трек 15  точное извлечение (доверие 5)  [566FBC36]
Трек 16  точное извлечение (доверие 5)  [D135D5D3]
Трек 17  точное извлечение (доверие 5)  [C054D432]
Трек 18  точное извлечение (доверие 5)  [A667D360]
Все треки извлечены точно
Конец отчёта
REM GENRE Soundtrack
REM DATE 1980
REM DISCID 0F083F12
REM COMMENT "ExactAudioCopy v0.99pb5"
PERFORMER "Queen"
TITLE "Flash Gordon"
FILE "Queen - Flash Gordon.flac" WAVE
TRACK 01 AUDIO
TITLE "Flash's Theme"
PERFORMER "Queen"
INDEX 00 00:00:00
INDEX 01 00:00:33
TRACK 02 AUDIO
TITLE "In The Space Capsule (The Love Theme)"
PERFORMER "Queen"
INDEX 00 03:30:28
INDEX 01 03:30:30
TRACK 03 AUDIO
TITLE "Ming's Theme (In The Court Of Ming The Merciless)"
PERFORMER "Queen"
INDEX 00 06:13:08
INDEX 01 06:13:10
TRACK 04 AUDIO
TITLE "The Ring (Hypnotic Seduction Of Dale)"
PERFORMER "Queen"
INDEX 00 08:54:00
INDEX 01 08:54:03
TRACK 05 AUDIO
TITLE "Football Fight"
PERFORMER "Queen"
INDEX 00 09:51:28
INDEX 01 09:51:30
TRACK 06 AUDIO
TITLE "In The Death Cell (The Love Theme Reprise)"
PERFORMER "Queen"
INDEX 00 11:20:08
INDEX 01 11:20:10
TRACK 07 AUDIO
TITLE "Execution Of Flash"
PERFORMER "Queen"
INDEX 00 13:45:00
INDEX 01 13:45:03
TRACK 08 AUDIO
TITLE "The Kiss (Aura Resurrects Flash)"
PERFORMER "Queen"
INDEX 00 14:50:68
INDEX 01 14:50:70
TRACK 09 AUDIO
TITLE "Arboria (Planet Of The Tree Men)"
PERFORMER "Queen"
INDEX 00 16:35:50
INDEX 01 16:35:53
TRACK 10 AUDIO
TITLE "Escape From The Swamp"
PERFORMER "Queen"
INDEX 00 18:17:05
INDEX 01 18:17:08
TRACK 11 AUDIO
TITLE "Flash To The Rescue"
PERFORMER "Queen"
INDEX 00 20:00:18
INDEX 01 20:00:20
TRACK 12 AUDIO
TITLE "Vultan's Theme (Attack Of The Hawk Men)"
PERFORMER "Queen"
INDEX 00 22:44:50
INDEX 01 22:44:53
TRACK 13 AUDIO
TITLE "Battle Theme"
PERFORMER "Queen"
INDEX 00 23:56:68
INDEX 01 23:56:70
TRACK 14 AUDIO
TITLE "The Wedding March"
PERFORMER "Queen"
INDEX 00 26:15:35
INDEX 01 26:15:38
TRACK 15 AUDIO
TITLE "Marriage Of Dale And Ming (And Flash Approaching)"
PERFORMER "Queen"
INDEX 00 27:11:40
INDEX 01 27:11:43
TRACK 16 AUDIO
TITLE "Crash Dive On Mingo City"
PERFORMER "Queen"
INDEX 00 29:16:05
INDEX 01 29:16:08
TRACK 17 AUDIO
TITLE "Flash's Theme Reprise (Victory Celebrations)"
PERFORMER "Queen"
INDEX 00 30:16:55
INDEX 01 30:16:58
TRACK 18 AUDIO
TITLE "The Hero"
PERFORMER "Queen"
INDEX 00 31:40:38
INDEX 01 31:40:40

Код:

Исполнитель: Queen
Альбом: Hot Space (CDP 7 46215 2) [West German Pressing 1986]
Тип релиза: Студийная запись
Жанр: Rock
Дата выпуска: 21 May 1982
Страна: UK/(Germany)
Лейбл: EMI, CDP 7 46215 2, (1986)
Формат: FLAC (image+cue)
Битрейт: 831 kbps
Продолжительность: 00:43:24
Источник: Скачано с torrents.ru
Треклист:
01. Staying Power [00:04:12]
02. Dancer [00:03:46]
03. Back Chat [00:04:33]
04. Body Language [00:04:31]
05. Action This Day [00:03:33]
06. Put Out The Fire [00:03:18]
07. Life Is Real (Song For Lennon) [00:03:31]
08. Calling All Girls [00:03:51]
09. Las palabras de amor (The Words Of Love) [00:04:31]
10. Cool Cat [00:03:29]
11. Under Pressure [00:04:04]
Доп. информация:

Credits:
John Deacon - bass guitar, synthesizer, rhythm guitar on Staying Power, Back Chat, and Cool Cat, drum programming on Cool Cat
Brian May - guitars, vocals, synthesizer, synth bass on Dancer, piano on Las Palabras De Amor (The Words Of Love)
Freddie Mercury - vocals, piano, synthesizer, synth bass and drum programming on Staying Power and Body Language
Roger Taylor - drums, electronic drums, vocals, synthesizer, rhythm guitar on Calling All Girls
Mack - synthesizers
David Bowie - vocals on Under Pressure

Produced by Queen and Mack.
Under Pressure produced by Queen and David Bowie. Horns on Staying Power produced by Arif Mardin.

Recorded July - September 1981 at Mountain Studios, Montreux, and December 1981 - March 1982 at Musicland Studios, Munich. Additional recording done at an unknown studio in New York, for Under Pressure and Staying Power (horns only).

Код:

Exact Audio Copy V0.99 prebeta 4 from 23. January 2008

EAC extraction logfile from 20. March 2010, 0:40

Queen / Hot Space (CDP 7 46215 2)

Used drive  : PIONEER DVD-RW  DVR-105   Adapter: 0  ID: 1

Read mode               : Secure
Utilize accurate stream : Yes
Defeat audio cache      : Yes
Make use of C2 pointers : No

Read offset correction                      : 48
Overread into Lead-In and Lead-Out          : No
Fill up missing offset samples with silence : Yes
Delete leading and trailing silent blocks   : No
Null samples used in CRC calculations       : Yes
Used interface                              : Installed external ASPI interface

Used output format              : User Defined Encoder
Selected bitrate                : 768 kBit/s
Quality                         : High
Add ID3 tag                     : No
Command line compressor         : C:\Program Files\Exact Audio Copy\Flac\flac.exe
Additional command line options : -8 -V -T "ARTIST=%a" -T "TITLE=%t" -T "ALBUM=%g" -T "DATE=%y" -T "TRACKNUMBER=%n" -T "GENRE=%m" -T "COMMENT=%e" %s -o %d

TOC of the extracted CD

     Track |   Start  |  Length  | Start sector | End sector
    ---------------------------------------------------------
        1  |  0:00.33 |  4:13.25 |        33    |    19032   
        2  |  4:13.58 |  3:47.65 |     19033    |    36122   
        3  |  8:01.48 |  4:36.05 |     36123    |    56827   
        4  | 12:37.53 |  4:31.62 |     56828    |    77214   
        5  | 17:09.40 |  3:35.08 |     77215    |    93347   
        6  | 20:44.48 |  3:20.05 |     93348    |   108352   
        7  | 24:04.53 |  3:31.30 |    108353    |   124207   
        8  | 27:36.08 |  3:52.30 |    124208    |   141637   
        9  | 31:28.38 |  4:31.60 |    141638    |   162022   
       10  | 36:00.23 |  3:29.47 |    162023    |   177744   
       11  | 39:29.70 |  4:05.25 |    177745    |   196144   

Range status and errors

Selected range

     Filename C:\Queen . 1982 . Hot Space (CDP 7 46215 2)\Queen . 1982 . Hot Space (CDP 7 46215 2).wav

     Peak level 100.0 %
     Range quality 100.0 %
     Test CRC 89DE085B
     Copy CRC 89DE085B
     Copy OK

No errors occurred

 
AccurateRip summary
 
Track  1  accurately ripped (confidence 19)  [006699E9]
Track  2  accurately ripped (confidence 19)  [F962AEA9]
Track  3  accurately ripped (confidence 19)  [D5CDFCB4]
Track  4  accurately ripped (confidence 18)  [F974927B]
Track  5  accurately ripped (confidence 18)  [2E6700A3]
Track  6  accurately ripped (confidence 19)  [8419865F]
Track  7  accurately ripped (confidence 19)  [DA8FE3A8]
Track  8  accurately ripped (confidence 19)  [C1DADEB7]
Track  9  accurately ripped (confidence 18)  [992C70FF]
Track 10  accurately ripped (confidence 18)  [CC947394]
Track 11  accurately ripped (confidence 18)  [F2F1DC65]
 
All tracks accurately ripped

End of status report

Код:

REM GENRE Rock
REM DATE 1982
REM DISCID 910A370B
REM COMMENT "ExactAudioCopy v0.99pb4"
PERFORMER "Queen"
TITLE "Hot Space (CDP 7 46215 2)"
FILE "Queen . 1982 . Hot Space (CDP 7 46215 2).flac" WAVE
  TRACK 01 AUDIO
    TITLE "Staying Power"
    PERFORMER "Queen"
    INDEX 00 00:00:00
    INDEX 01 00:00:33
  TRACK 02 AUDIO
    TITLE "Dancer"
    PERFORMER "Queen"
    INDEX 00 04:13:18
    INDEX 01 04:13:58
  TRACK 03 AUDIO
    TITLE "Back Chat"
    PERFORMER "Queen"
    INDEX 00 08:00:18
    INDEX 01 08:01:48
  TRACK 04 AUDIO
    TITLE "Body Language"
    PERFORMER "Queen"
    INDEX 00 12:35:13
    INDEX 01 12:37:53
  TRACK 05 AUDIO
    TITLE "Action This Day"
    PERFORMER "Queen"
    INDEX 00 17:09:38
    INDEX 01 17:09:40
  TRACK 06 AUDIO
    TITLE "Put Out The Fire"
    PERFORMER "Queen"
    INDEX 00 20:43:08
    INDEX 01 20:44:48
  TRACK 07 AUDIO
    TITLE "Life Is Real (Song For Lennon)"
    PERFORMER "Queen"
    INDEX 00 24:02:55
    INDEX 01 24:04:53
  TRACK 08 AUDIO
    TITLE "Calling All Girls"
    PERFORMER "Queen"
    INDEX 00 27:36:05
    INDEX 01 27:36:08
  TRACK 09 AUDIO
    TITLE "Las palabras de amor (The Words Of Love)"
    PERFORMER "Queen"
    INDEX 00 31:27:73
    INDEX 01 31:28:38
  TRACK 10 AUDIO
    TITLE "Cool Cat"
    PERFORMER "Queen"
    INDEX 00 35:59:50
    INDEX 01 36:00:23
  TRACK 11 AUDIO
    TITLE "Under Pressure"
    PERFORMER "Queen"
    INDEX 00 39:29:30
    INDEX 01 39:29:70

Исполнитель: Queen
Альбом: (1984) The Works (CDP 7 46216 2) [Dutch Pressing 1986]
Тип релиза: Студийная запись
Жанр: Rock
Дата выпуска: 27 February 1984
Страна: UK/(Holland)
Лейбл: EMI, CDP 7 46216 2, (1986)
Формат: FLAC (image+cue)
Битрейт: 829 kbps
Продолжительность: 00:37:08
Источник: Скачано с torrents.ru
Треклист:
01. Radio Ga Ga [00:05:46]
02. Tear It Up [00:03:24]
03. It's A Hard Life [00:04:07]
04. Man On The Prowl [00:03:26]
05. Machines (Back To Humans) [00:05:07]
06. I Want To Break Free [00:03:20]
07. Keep Passing The Open Windows [00:05:19]
08. Hammer To Fall [00:04:25]
09. Is This The World We Created ...? [00:02:10]
Доп. информация:

Credits:
John Deacon - bass guitar, acoustic rhythm guitar on I Want To Break Free, synthesizer
Brian May - guitars, vocals
Freddie Mercury - vocals, piano, synthesizer
Roger Taylor - drums, electronic drums, vocals, synthesizer
Fred Mandel - piano finale on Man On The Prowl, synthesizers on Radio Ga Ga and I Want To Break Free, programming on Radio Ga Ga, and candy-floss on Hammer To Fall
Mack - Demolition Fairlight programming on Machines (Or 'Back To Humans')

Produced by Queen and Mack.

Recorded August 1983 - January 1984 at The Record Plant, Los Angeles, and Musicland Studios, Munich

P.S.: Вообще-то первое издание "The Works" вышло в Японии в 1984 г., так что это - всего лишь европейский первопресс.

Код:

Exact Audio Copy V0.99 prebeta 4 from 23. January 2008

EAC extraction logfile from 20. March 2010, 0:08

Queen / The Works (CDP 7 46016 2)

Used drive  : PIONEER DVD-RW  DVR-105   Adapter: 0  ID: 1

Read mode               : Secure
Utilize accurate stream : Yes
Defeat audio cache      : Yes
Make use of C2 pointers : No

Read offset correction                      : 48
Overread into Lead-In and Lead-Out          : No
Fill up missing offset samples with silence : Yes
Delete leading and trailing silent blocks   : No
Null samples used in CRC calculations       : Yes
Used interface                              : Installed external ASPI interface

Used output format              : User Defined Encoder
Selected bitrate                : 768 kBit/s
Quality                         : High
Add ID3 tag                     : No
Command line compressor         : C:\Program Files\Exact Audio Copy\Flac\flac.exe
Additional command line options : -8 -V -T "ARTIST=%a" -T "TITLE=%t" -T "ALBUM=%g" -T "DATE=%y" -T "TRACKNUMBER=%n" -T "GENRE=%m" -T "COMMENT=%e" %s -o %d

TOC of the extracted CD

     Track |   Start  |  Length  | Start sector | End sector
    ---------------------------------------------------------
        1  |  0:00.30 |  5:49.18 |        30    |    26222   
        2  |  5:49.48 |  3:28.22 |     26223    |    41844   
        3  |  9:17.70 |  4:08.23 |     41845    |    60467   
        4  | 13:26.18 |  3:28.17 |     60468    |    76084   
        5  | 16:54.35 |  5:09.43 |     76085    |    99302   
        6  | 22:04.03 |  3:20.30 |     99303    |   114332   
        7  | 25:24.33 |  5:21.40 |    114333    |   138447   
        8  | 30:45.73 |  4:28.15 |    138448    |   158562   
        9  | 35:14.13 |  2:12.72 |    158563    |   168534   

Range status and errors

Selected range

     Filename C:\Queen . 1984 . The Works (CDP 7 46016 2)\Queen . 1984 . The Works (CDP 7 46016 2).wav

     Peak level 91.2 %
     Range quality 100.0 %
     Test CRC 40F6296F
     Copy CRC 40F6296F
     Copy OK

No errors occurred

 
AccurateRip summary
 
Track  1  accurately ripped (confidence 11)  [7398F1E1]
Track  2  accurately ripped (confidence 10)  [0FF18C29]
Track  3  accurately ripped (confidence 12)  [2A2B0757]
Track  4  accurately ripped (confidence 11)  [9D6C5AF9]
Track  5  accurately ripped (confidence 12)  [8AA6FC05]
Track  6  accurately ripped (confidence 12)  [4B238C74]
Track  7  accurately ripped (confidence 12)  [9C81C4C1]
Track  8  accurately ripped (confidence 11)  [22ED0126]
Track  9  accurately ripped (confidence 11)  [FF9269B9]
 
All tracks accurately ripped

End of status report

Код:

REM GENRE Rock
REM DATE 1984
REM DISCID 6E08C709
REM COMMENT "ExactAudioCopy v0.99pb4"
PERFORMER "Queen"
TITLE "The Works (CDP 7 46016 2)"
FILE "Queen . 1984 . The Works (CDP 7 46016 2).flac" WAVE
  TRACK 01 AUDIO
    TITLE "Radio Ga Ga"
    PERFORMER "Queen"
    INDEX 00 00:00:00
    INDEX 01 00:00:30
  TRACK 02 AUDIO
    TITLE "Tear It Up"
    PERFORMER "Queen"
    INDEX 00 05:46:60
    INDEX 01 05:49:48
  TRACK 03 AUDIO
    TITLE "It's A Hard Life"
    PERFORMER "Queen"
    INDEX 00 09:14:40
    INDEX 01 09:17:70
  TRACK 04 AUDIO
    TITLE "Man On The Prowl"
    PERFORMER "Queen"
    INDEX 00 13:25:08
    INDEX 01 13:26:18
  TRACK 05 AUDIO
    TITLE "Machines (Back To Humans)"
    PERFORMER "Queen"
    INDEX 00 16:52:23
    INDEX 01 16:54:35
  TRACK 06 AUDIO
    TITLE "I Want To Break Free"
    PERFORMER "Queen"
    INDEX 00 22:02:28
    INDEX 01 22:04:03
  TRACK 07 AUDIO
    TITLE "Keep Passing The Open Windows"
    PERFORMER "Queen"
    INDEX 00 25:24:30
    INDEX 01 25:24:33
  TRACK 08 AUDIO
    TITLE "Hammer To Fall"
    PERFORMER "Queen"
    INDEX 00 30:44:08
    INDEX 01 30:45:73
  TRACK 09 AUDIO
    TITLE "Is This The World We Created ...?"
    PERFORMER "Queen"
    INDEX 00 35:11:63
    INDEX 01 35:14:13
Исполнитель: Queen
Альбом: A Kind of Magic (CDP 7 46267 2) [UK Pressing 1986]
Тип релиза: Студийная запись
Жанр: Rock
Дата выпуска: 2 June 1986
Страна: UK
Лейбл: EMI, CDP 7 46267 2, (1986)
Формат: FLAC (image+cue)
Битрейт: 804 kbps
Продолжительность: 00:53:25
Источник: Скачано с torrents.ru
Треклист:
01. One Vision [00:05:10]
02. A Kind of Magic [00:04:24]
03. One Year of Love [00:04:26]
04. Pain Is So Close to Pleasure [00:04:21]
05. Friends Will Be Friends [00:04:07]
06. Who Wants to Live Forever [00:05:15]
07. Gimme the Prize [00:04:34]
08. Don't Lose Your Head [00:04:38]
09. Princes of the Universe [00:03:32]
10. A Kind of 'A Kind of Magic' (Extra Magical Ingredient) [00:03:36]
11. Friends Will Be Friends Will Be Friends... (Extra Magical Ingredient) [00:05:57]
12. Forever (Extra Magical Ingredient) [00:03:19]
Credits:
Freddie Mercury - vocals, piano, keyboards
John Deacon - bass guitar, keyboards, occasional guitar
Roger Taylor - drums, occasional vocals, keyboards
Brian May - guitars, occasional vocals, keyboards, orchestral arrangements on Who Wants To Live Forever
Spike Edney - extra keyboards
UMI & BBC B - computer keyboards
Lynton Naiff - string arrangement on One Year Of Love
Steve Gregory - saxophone on One Year Of Love
Michael Kamen - orchestral arrangements on Who Wants To Live Forever
National Philharmonic Orchestra - strings on Who Wants To Live Forever
Joan Armatrading - incidental vocals on Don't Lose Your Head

Produced by Queen and Mack (One Vision, One Year Of Love, Pain Is So Close To Pleasure, Friends Will Be Friends, Princes Of The Universe, Friends Will Be Friends Will Be Friends..., and One Vision (Extended Vision); Queen and David Richards (all other tracks).

Recorded September 1985 - March 1986 at The Townhouse, London, Musicland Studios, Munich, and Mountain Studios, Montreux. Orchestra recorded by Eric Tomlinson at Abbey Road Studios, St. John's Wood.

Код:

Exact Audio Copy V0.99 prebeta 4 from 23. January 2008

EAC extraction logfile from 19. March 2010, 2:11

Queen / A Kind of Magic (CDP 7 46267 2)

Used drive  : PIONEER DVD-RW  DVR-105   Adapter: 0  ID: 1

Read mode               : Secure
Utilize accurate stream : Yes
Defeat audio cache      : Yes
Make use of C2 pointers : No

Read offset correction                      : 48
Overread into Lead-In and Lead-Out          : No
Fill up missing offset samples with silence : Yes
Delete leading and trailing silent blocks   : No
Null samples used in CRC calculations       : Yes
Used interface                              : Installed external ASPI interface

Used output format              : User Defined Encoder
Selected bitrate                : 768 kBit/s
Quality                         : High
Add ID3 tag                     : No
Command line compressor         : C:\Program Files\Exact Audio Copy\Flac\flac.exe
Additional command line options : -8 -V -T "ARTIST=%a" -T "TITLE=%t" -T "ALBUM=%g" -T "DATE=%y" -T "TRACKNUMBER=%n" -T "GENRE=%m" -T "COMMENT=%e" %s -o %d

TOC of the extracted CD

     Track |   Start  |  Length  | Start sector | End sector
    ---------------------------------------------------------
        1  |  0:00.33 |  5:11.00 |        33    |    23357   
        2  |  5:11.33 |  4:24.47 |     23358    |    43204   
        3  |  9:36.05 |  4:27.23 |     43205    |    63252   
        4  | 14:03.28 |  4:22.27 |     63253    |    82929   
        5  | 18:25.55 |  4:07.63 |     82930    |   101517   
        6  | 22:33.43 |  5:17.00 |    101518    |   125292   
        7  | 27:50.43 |  4:34.55 |    125293    |   145897   
        8  | 32:25.23 |  4:38.20 |    145898    |   166767   
        9  | 37:03.43 |  3:33.15 |    166768    |   182757   
       10  | 40:36.58 |  3:37.65 |    182758    |   199097   
       11  | 44:14.48 |  5:58.15 |    199098    |   225962   
       12  | 50:12.63 |  3:20.72 |    225963    |   241034   

Range status and errors

Selected range

     Filename C:\Queen . 1986 . A Kind of Magic (CDP 7 46267 2)\Queen . 1986 . A Kind of Magic (CDP 7 46267 2).wav

     Peak level 89.1 %
     Range quality 100.0 %
     Test CRC AA326AD1
     Copy CRC AA326AD1
     Copy OK

No errors occurred

 
AccurateRip summary
 
Track  1  accurately ripped (confidence 81)  [E37BFB05]
Track  2  accurately ripped (confidence 80)  [589F54A4]
Track  3  accurately ripped (confidence 82)  [2A1A29A8]
Track  4  accurately ripped (confidence 84)  [710ABA84]
Track  5  accurately ripped (confidence 83)  [E631EC99]
Track  6  accurately ripped (confidence 84)  [3591DF60]
Track  7  accurately ripped (confidence 83)  [454F8851]
Track  8  accurately ripped (confidence 82)  [0F4D7DA3]
Track  9  accurately ripped (confidence 81)  [6B72C8EE]
Track 10  accurately ripped (confidence 80)  [F1FB49E0]
Track 11  accurately ripped (confidence 79)  [C80A497B]
Track 12  accurately ripped (confidence 79)  [7C6D24F4]
 
All tracks accurately ripped

End of status report

Код:

REM GENRE Rock
REM DATE 1986
REM DISCID A10C8D0C
REM COMMENT "ExactAudioCopy v0.99pb4"
PERFORMER "Queen"
TITLE "A Kind of Magic (CDP 7 46267 2)"
FILE "Queen . 1986 . A Kind of Magic (CDP 7 46267 2).flac" WAVE
  TRACK 01 AUDIO
    TITLE "One Vision"
    PERFORMER "Queen"
    INDEX 00 00:00:00
    INDEX 01 00:00:33
  TRACK 02 AUDIO
    TITLE "A Kind of Magic"
    PERFORMER "Queen"
    INDEX 00 05:11:30
    INDEX 01 05:11:33
  TRACK 03 AUDIO
    TITLE "One Year of Love"
    PERFORMER "Queen"
    INDEX 00 09:36:03
    INDEX 01 09:36:05
  TRACK 04 AUDIO
    TITLE "Pain Is So Close to Pleasure"
    PERFORMER "Queen"
    INDEX 00 14:02:73
    INDEX 01 14:03:28
  TRACK 05 AUDIO
    TITLE "Friends Will Be Friends"
    PERFORMER "Queen"
    INDEX 00 18:25:08
    INDEX 01 18:25:55
  TRACK 06 AUDIO
    TITLE "Who Wants to Live Forever"
    PERFORMER "Queen"
    INDEX 00 22:33:10
    INDEX 01 22:33:43
  TRACK 07 AUDIO
    TITLE "Gimme the Prize"
    PERFORMER "Queen"
    INDEX 00 27:49:10
    INDEX 01 27:50:43
  TRACK 08 AUDIO
    TITLE "Don't Lose Your Head"
    PERFORMER "Queen"
    INDEX 00 32:24:63
    INDEX 01 32:25:23
  TRACK 09 AUDIO
    TITLE "Princes of the Universe"
    PERFORMER "Queen"
    INDEX 00 37:03:40
    INDEX 01 37:03:43
  TRACK 10 AUDIO
    TITLE "A Kind of 'A Kind of Magic' (Extra Magical Ingredient)"
    PERFORMER "Queen"
    INDEX 00 40:35:60
    INDEX 01 40:36:58
  TRACK 11 AUDIO
    TITLE "Friends Will Be Friends Will Be Friends... (Extra Magical Ingredient)"
    PERFORMER "Queen"
    INDEX 00 44:13:30
    INDEX 01 44:14:48
  TRACK 12 AUDIO
    TITLE "Forever (Extra Magical Ingredient)"
    PERFORMER "Queen"
    INDEX 00 50:11:63
    INDEX 01 50:12:63
Исполнитель: Queen
Альбом: (1989) The Miracle (CDP 79 2357 2) [West German Pressing 1989]
Тип релиза: Студийная запись
Жанр: Rock
Дата выпуска: 5 June 1989
Страна: UK/(Germany)
Лейбл: EMI, CDP 79 2357 2, (1989)
Формат: FLAC (image+cue)
Битрейт: 855 kbps
Продолжительность: 00:52:12
Источник: Скачано с torrents.ru
Треклист:
01. Party [00:02:24]
02. Khashoggi's Ship [00:02:47]
03. The Miracle [00:05:01]
04. I Want It All [00:04:41]
05. The Invisible Man [00:03:57]
06. Breakthru [00:04:08]
07. Rain Must Fall [00:04:22]
08. Scandal [00:04:42]
09. My Baby Does Me [00:03:23]
10. Was It All Worth It [00:05:45]
11. Hang On In There (Bonus Track) [00:03:46]
12. Chinese Torture (Bonus Track) [00:01:44]
13. The Invisible Man (12' Version) (Bonus Track) [00:05:26]
Доп. информация:

Credits:
Freddie Mercury - vocals, piano, keyboards
John Deacon - bass guitar, rhythm guitar, keyboards
Roger Taylor - drums, percussion, vocals, keyboards
Brian May - guitars, vocals, keyboards
David Richards - programming, keyboards
Brian Zellis - computer programming

Produced by Queen and David Richards.

Recorded January 1988 - February 1989 at Olympic Studios and The Townhouse, London, and Mountain Studios, Montreux.

Код:

Exact Audio Copy V0.99 prebeta 4 from 23. January 2008

EAC extraction logfile from 19. March 2010, 3:51

Queen / The Miracle (CDP 79 2357 2)

Used drive  : PIONEER DVD-RW  DVR-105   Adapter: 0  ID: 1

Read mode               : Secure
Utilize accurate stream : Yes
Defeat audio cache      : Yes
Make use of C2 pointers : No

Read offset correction                      : 48
Overread into Lead-In and Lead-Out          : No
Fill up missing offset samples with silence : Yes
Delete leading and trailing silent blocks   : No
Null samples used in CRC calculations       : Yes
Used interface                              : Installed external ASPI interface

Used output format              : User Defined Encoder
Selected bitrate                : 768 kBit/s
Quality                         : High
Add ID3 tag                     : No
Command line compressor         : C:\Program Files\Exact Audio Copy\Flac\flac.exe
Additional command line options : -8 -V -T "ARTIST=%a" -T "TITLE=%t" -T "ALBUM=%g" -T "DATE=%y" -T "TRACKNUMBER=%n" -T "GENRE=%m" -T "COMMENT=%e" %s -o %d

TOC of the extracted CD

     Track |   Start  |  Length  | Start sector | End sector
    ---------------------------------------------------------
        1  |  0:00.33 |  2:24.67 |        33    |    10899   
        2  |  2:25.25 |  2:48.18 |     10900    |    23517   
        3  |  5:13.43 |  5:02.15 |     23518    |    46182   
        4  | 10:15.58 |  4:41.17 |     46183    |    67274   
        5  | 14:57.00 |  3:57.48 |     67275    |    85097   
        6  | 18:54.48 |  4:08.20 |     85098    |   103717   
        7  | 23:02.68 |  4:23.25 |    103718    |   123467   
        8  | 27:26.18 |  4:42.62 |    123468    |   144679   
        9  | 32:09.05 |  3:23.45 |    144680    |   159949   
       10  | 35:32.50 |  5:45.65 |    159950    |   185889   
       11  | 41:18.40 |  3:46.45 |    185890    |   202884   
       12  | 45:05.10 |  1:45.63 |    202885    |   210822   
       13  | 46:50.73 |  5:28.27 |    210823    |   235449   

Range status and errors

Selected range

     Filename C:\Queen . 1989 . The Miracle (CDP 79 2357 2)\Queen . 1989 . The Miracle (CDP 79 2357 2).wav

     Peak level 100.0 %
     Range quality 99.9 %
     Test CRC BA40DAA9
     Copy CRC BA40DAA9
     Copy OK

No errors occurred

 
AccurateRip summary
 
Track  1  accurately ripped (confidence 49)  [AA7B3F6E]
Track  2  accurately ripped (confidence 50)  [1C8D5B9E]
Track  3  accurately ripped (confidence 49)  [BBE2C0ED]
Track  4  accurately ripped (confidence 49)  [37E9CD84]
Track  5  accurately ripped (confidence 51)  [20633653]
Track  6  accurately ripped (confidence 47)  [3F5C7799]
Track  7  accurately ripped (confidence 49)  [44855025]
Track  8  accurately ripped (confidence 51)  [3F45E110]
Track  9  accurately ripped (confidence 49)  [FEA8CB2A]
Track 10  accurately ripped (confidence 49)  [55B7CA99]
Track 11  accurately ripped (confidence 49)  [B35A67EA]
Track 12  accurately ripped (confidence 48)  [7C32ED15]
Track 13  accurately ripped (confidence 49)  [7EE5B725]
 
All tracks accurately ripped

End of status report

Код:

REM GENRE Rock
REM DATE 1989
REM DISCID B00C430D
REM COMMENT "ExactAudioCopy v0.99pb4"
PERFORMER "Queen"
TITLE "The Miracle (CDP 79 2357 2)"
FILE "Queen . 1989 . The Miracle (CDP 79 2357 2).flac" WAVE
  TRACK 01 AUDIO
    TITLE "Party"
    PERFORMER "Queen"
    INDEX 00 00:00:00
    INDEX 01 00:00:33
  TRACK 02 AUDIO
    TITLE "Khashoggi's Ship"
    PERFORMER "Queen"
    INDEX 00 02:25:23
    INDEX 01 02:25:25
  TRACK 03 AUDIO
    TITLE "The Miracle"
    PERFORMER "Queen"
    INDEX 00 05:13:20
    INDEX 01 05:13:43
  TRACK 04 AUDIO
    TITLE "I Want It All"
    PERFORMER "Queen"
    INDEX 00 10:15:33
    INDEX 01 10:15:58
  TRACK 05 AUDIO
    TITLE "The Invisible Man"
    PERFORMER "Queen"
    INDEX 00 14:56:73
    INDEX 01 14:57:00
  TRACK 06 AUDIO
    TITLE "Breakthru"
    PERFORMER "Queen"
    INDEX 00 18:54:28
    INDEX 01 18:54:48
  TRACK 07 AUDIO
    TITLE "Rain Must Fall"
    PERFORMER "Queen"
    INDEX 00 23:02:65
    INDEX 01 23:02:68
  TRACK 08 AUDIO
    TITLE "Scandal"
    PERFORMER "Queen"
    INDEX 00 27:24:73
    INDEX 01 27:26:18
  TRACK 09 AUDIO
    TITLE "My Baby Does Me"
    PERFORMER "Queen"
    INDEX 00 32:09:03
    INDEX 01 32:09:05
  TRACK 10 AUDIO
    TITLE "Was It All Worth It"
    PERFORMER "Queen"
    INDEX 00 35:32:48
    INDEX 01 35:32:50
  TRACK 11 AUDIO
    TITLE "Hang On In There (Bonus Track)"
    PERFORMER "Queen"
    INDEX 00 41:17:50
    INDEX 01 41:18:40
  TRACK 12 AUDIO
    TITLE "Chinese Torture (Bonus Track)"
    PERFORMER "Queen"
    INDEX 00 45:05:08
    INDEX 01 45:05:10
  TRACK 13 AUDIO
    TITLE "The Invisible Man (12' Version) (Bonus Track)"
    PERFORMER "Queen"
    INDEX 00 46:49:43
    INDEX 01 46:50:73
Исполнитель: Queen
Альбом: (1991) Innuendo (CDP 79 5887 2) [UK Pressing 1991]
Тип релиза: Студийная запись
Жанр: Rock
Дата выпуска: 4 February 1991
Страна: Holland/(UK)
Лейбл: EMI, CDP 79 5887 2, (1991)
Формат: FLAC (image+cue)
Битрейт: 841 kbps
Продолжительность: 00:53:48
Источник: Скачано с torrents.ru
Треклист:
01. Innuendo [00:06:31]
02. I'm Going Slightly Mad [00:04:22]
03. Headlong [00:04:38]
04. I Can't Live With You [00:04:33]
05. Don't Try So Hard [00:03:39]
06. Ride The Wild Wind [00:04:42]
07. All God's People [00:04:21]
08. These Are The Days Of Our Lives [00:04:15]
09. Delilah [00:03:35]
10. The Hitman [00:04:56]
11. Bijou [00:03:36]
12. The Show Must Go On [00:04:35]
Доп. информация:

Credits:
Freddie Mercury - vocals, keyboards
Brian May - guitars, keyboards, harmonies, vocals
Roger Taylor - drums, percussion, keyboards, harmonies, vocals
John Deacon - bass guitar, keyboards
Mike Moran - keyboards on All God's People
Steve Howe - additional wandering minstrel Spanish guitar - Somewhere In The Middle - on Innuendo
David Richards - computer programming

Produced by Queen and David Richards.

Recorded March 1989 - November 1990 at Metropolis Studios, London, and Mountain Studios, Montreux.

Код:

Exact Audio Copy V0.99 prebeta 4 from 23. January 2008

EAC extraction logfile from 19. March 2010, 9:16

Queen / Innuendo (CDP 79 5887 2)

Used drive  : PIONEER DVD-RW  DVR-105   Adapter: 0  ID: 1

Read mode               : Secure
Utilize accurate stream : Yes
Defeat audio cache      : Yes
Make use of C2 pointers : No

Read offset correction                      : 48
Overread into Lead-In and Lead-Out          : No
Fill up missing offset samples with silence : Yes
Delete leading and trailing silent blocks   : No
Null samples used in CRC calculations       : Yes
Used interface                              : Installed external ASPI interface

Used output format              : User Defined Encoder
Selected bitrate                : 768 kBit/s
Quality                         : High
Add ID3 tag                     : No
Command line compressor         : C:\Program Files\Exact Audio Copy\Flac\flac.exe
Additional command line options : -8 -V -T "ARTIST=%a" -T "TITLE=%t" -T "ALBUM=%g" -T "DATE=%y" -T "TRACKNUMBER=%n" -T "GENRE=%m" -T "COMMENT=%e" %s -o %d

TOC of the extracted CD

     Track |   Start  |  Length  | Start sector | End sector
    ---------------------------------------------------------
        1  |  0:00.00 |  6:31.22 |         0    |    29346   
        2  |  6:31.22 |  4:22.13 |     29347    |    49009   
        3  | 10:53.35 |  4:38.17 |     49010    |    69876   
        4  | 15:31.52 |  4:33.43 |     69877    |    90394   
        5  | 20:05.20 |  3:39.10 |     90395    |   106829   
        6  | 23:44.30 |  4:42.70 |    106830    |   128049   
        7  | 28:27.25 |  4:21.47 |    128050    |   147671   
        8  | 32:48.72 |  4:15.28 |    147672    |   166824   
        9  | 37:04.25 |  3:35.27 |    166825    |   182976   
       10  | 40:39.52 |  4:56.45 |    182977    |   205221   
       11  | 45:36.22 |  3:36.68 |    205222    |   221489   
       12  | 49:13.15 |  4:35.60 |    221490    |   242174   

Range status and errors

Selected range

     Filename C:\Queen . 1991 . Innuendo (CDP 79 5887 2)\Queen . 1991 . Innuendo (CDP 79 5887 2).wav

     Peak level 98.3 %
     Range quality 99.9 %
     Test CRC D269D52B
     Copy CRC D269D52B
     Copy OK

No errors occurred

 
AccurateRip summary
 
Track  1  accurately ripped (confidence 192)  [C7B82C31]
Track  2  accurately ripped (confidence 199)  [519E279E]
Track  3  accurately ripped (confidence 196)  [CE5B94BE]
Track  4  accurately ripped (confidence 195)  [7EB0E9C0]
Track  5  accurately ripped (confidence 196)  [44075209]
Track  6  accurately ripped (confidence 197)  [DD72A85B]
Track  7  accurately ripped (confidence 194)  [1ACA93E4]
Track  8  accurately ripped (confidence 195)  [E7B769B2]
Track  9  accurately ripped (confidence 196)  [FEE28461]
Track 10  accurately ripped (confidence 194)  [058D66CE]
Track 11  accurately ripped (confidence 198)  [87556BC6]
Track 12  accurately ripped (confidence 194)  [614603AB]
 
All tracks accurately ripped

End of status report

Код:

REM GENRE Rock
REM DATE 1991
REM DISCID A90C9D0C
REM COMMENT "ExactAudioCopy v0.99pb4"
PERFORMER "Queen"
TITLE "Innuendo (CDP 79 5887 2)"
FILE "Queen . 1991 . Innuendo (CDP 79 5887 2).flac" WAVE
  TRACK 01 AUDIO
    TITLE "Innuendo"
    PERFORMER "Queen"
    INDEX 01 00:00:00
  TRACK 02 AUDIO
    TITLE "I'm Going Slightly Mad"
    PERFORMER "Queen"
    INDEX 00 06:31:20
    INDEX 01 06:31:22
  TRACK 03 AUDIO
    TITLE "Headlong"
    PERFORMER "Queen"
    INDEX 00 10:53:32
    INDEX 01 10:53:35
  TRACK 04 AUDIO
    TITLE "I Can't Live With You"
    PERFORMER "Queen"
    INDEX 00 15:31:50
    INDEX 01 15:31:52
  TRACK 05 AUDIO
    TITLE "Don't Try So Hard"
    PERFORMER "Queen"
    INDEX 00 20:05:17
    INDEX 01 20:05:20
  TRACK 06 AUDIO
    TITLE "Ride The Wild Wind"
    PERFORMER "Queen"
    INDEX 00 23:44:27
    INDEX 01 23:44:30
  TRACK 07 AUDIO
    TITLE "All God's People"
    PERFORMER "Queen"
    INDEX 00 28:27:22
    INDEX 01 28:27:25
  TRACK 08 AUDIO
    TITLE "These Are The Days Of Our Lives"
    PERFORMER "Queen"
    INDEX 00 32:48:70
    INDEX 01 32:48:72
  TRACK 09 AUDIO
    TITLE "Delilah"
    PERFORMER "Queen"
    INDEX 00 37:04:22
    INDEX 01 37:04:25
  TRACK 10 AUDIO
    TITLE "The Hitman"
    PERFORMER "Queen"
    INDEX 00 40:39:50
    INDEX 01 40:39:52
  TRACK 11 AUDIO
    TITLE "Bijou"
    PERFORMER "Queen"
    INDEX 00 45:36:20
    INDEX 01 45:36:22
  TRACK 12 AUDIO
    TITLE "The Show Must Go On"
    PERFORMER "Queen"
    INDEX 00 49:13:12
    INDEX 01 49:13:15
Исполнитель: Queen
Альбом: Made In Heaven (7243 8 36088 2 9) [German Pressing 1995]
Тип релиза: Студийная запись
Жанр: Rock
Дата выпуска: 6 November 1995
Страна: Germany
Лейбл: EMI, 7243 8 36088 2 9, (1995)
Формат: FLAC (image+cue)
Битрейт: 799 kbps
Продолжительность: 01:10:23
Источник: Скачано с torrents.ru
Треклист:
01. It's A Beautiful Day [00:02:32]
02. Made In Heaven [00:05:25]
03. Let Me Live [00:04:45]
04. Mother Love [00:04:46]
05. My Life Has Been Saved [00:03:15]
06. I Was Born To Love You [00:04:49]
07. Heaven For Everyone [00:05:36]
08. Too Much Love Will Kill You [00:04:20]
09. You Don't Fool Me [00:05:24]
10. A Winter's Tale [00:03:49]
11. It's A Beautiful Day (Reprise) [00:03:01]
12. Yeah! [00:00:04]
13. Unknown [00:22:32]
Доп. информация:

Credits:
Freddie Mercury - vocals, piano, keyboards
John Deacon - bass guitar, keyboards
Roger Taylor - drums, percussion, keyboards, vocals
Brian May - guitars, keyboards, vocals
Rebecca Leigh-White, Gary Martin, Catherine Porter, and Miriam Stockley - backing vocals on Let Me Live

Produced by Queen, David Richards, Justin Shirley-Smith, and Joshua J. Macrae.
Additional material recorded by Mack.

Recorded January - June 1991 at Mountain Studios, Montreux; late 1993 - early 1995 at Allerton Hill and Cosford Mill Studios, Surrey, and Metropolis Studios, London.

Код:

Exact Audio Copy V0.99 prebeta 4 from 23. January 2008

EAC extraction logfile from 19. March 2010, 12:25

Queen / Made In Heaven (7243 8 36088 2 9)

Used drive  : PIONEER DVD-RW  DVR-105   Adapter: 0  ID: 1

Read mode               : Secure
Utilize accurate stream : Yes
Defeat audio cache      : Yes
Make use of C2 pointers : No

Read offset correction                      : 48
Overread into Lead-In and Lead-Out          : No
Fill up missing offset samples with silence : Yes
Delete leading and trailing silent blocks   : No
Null samples used in CRC calculations       : Yes
Used interface                              : Installed external ASPI interface

Used output format              : User Defined Encoder
Selected bitrate                : 768 kBit/s
Quality                         : High
Add ID3 tag                     : No
Command line compressor         : C:\Program Files\Exact Audio Copy\Flac\flac.exe
Additional command line options : -8 -V -T "ARTIST=%a" -T "TITLE=%t" -T "ALBUM=%g" -T "DATE=%y" -T "TRACKNUMBER=%n" -T "GENRE=%m" -T "COMMENT=%e" %s -o %d

TOC of the extracted CD

     Track |   Start  |  Length  | Start sector | End sector
    ---------------------------------------------------------
        1  |  0:00.00 |  2:32.60 |         0    |    11459   
        2  |  2:32.60 |  5:25.27 |     11460    |    35861   
        3  |  7:58.12 |  4:45.68 |     35862    |    57304   
        4  | 12:44.05 |  4:49.25 |     57305    |    79004   
        5  | 17:33.30 |  3:15.32 |     79005    |    93661   
        6  | 20:48.62 |  4:49.60 |     93662    |   115396   
        7  | 25:38.47 |  5:36.08 |    115397    |   140604   
        8  | 31:14.55 |  4:20.12 |    140605    |   160116   
        9  | 35:34.67 |  5:24.63 |    160117    |   184479   
       10  | 40:59.55 |  3:49.15 |    184480    |   201669   
       11  | 44:48.70 |  3:01.30 |    201670    |   215274   
       12  | 47:50.25 |  0:04.02 |    215275    |   215576   
       13  | 47:54.27 | 22:32.73 |    215577    |   317049   

Range status and errors

Selected range

     Filename C:\Queen . 1995 . Made In Heaven (7243 8 36088 2 9)\Queen . 1995 . Made In Heaven (7243 8 36088 2 9).wav

     Peak level 99.2 %
     Range quality 100.0 %
     Test CRC D30C9175
     Copy CRC D30C9175
     Copy OK

No errors occurred

 
AccurateRip summary
 
Track  1  accurately ripped (confidence 50)  [078FC434]
Track  2  accurately ripped (confidence 51)  [2D52BC18]
Track  3  accurately ripped (confidence 50)  [8BD9798F]
Track  4  accurately ripped (confidence 49)  [9921017D]
Track  5  accurately ripped (confidence 49)  [E36534BC]
Track  6  accurately ripped (confidence 50)  [A6C3B695]
Track  7  accurately ripped (confidence 49)  [1A470786]
Track  8  accurately ripped (confidence 52)  [3124EAF9]
Track  9  accurately ripped (confidence 51)  [E03EFEC2]
Track 10  accurately ripped (confidence 51)  [FA09485B]
Track 11  accurately ripped (confidence 48)  [5F07ECCA]
Track 12  not present in database
Track 13  accurately ripped (confidence 42)  [E0F63476]
 
12 track(s) accurately ripped
 1 track(s) not present in the AccurateRip database

Some tracks could not be verified as accurate

End of status report

Код:

REM GENRE Rock
REM DATE 1995
REM DISCID B210830D
REM COMMENT "ExactAudioCopy v0.99pb4"
PERFORMER "Queen"
TITLE "Made In Heaven (7243 8 36088 2 9)"
FILE "Queen . 1995 . Made In Heaven (7243 8 36088 2 9).flac" WAVE
  TRACK 01 AUDIO
    TITLE "It's A Beautiful Day"
    PERFORMER "Queen"
    INDEX 01 00:00:00
  TRACK 02 AUDIO
    TITLE "Made In Heaven"
    PERFORMER "Queen"
    INDEX 00 02:32:57
    INDEX 01 02:32:60
  TRACK 03 AUDIO
    TITLE "Let Me Live"
    PERFORMER "Queen"
    INDEX 00 07:58:10
    INDEX 01 07:58:12
  TRACK 04 AUDIO
    TITLE "Mother Love"
    PERFORMER "Queen"
    INDEX 00 12:44:02
    INDEX 01 12:44:05
  TRACK 05 AUDIO
    TITLE "My Life Has Been Saved"
    PERFORMER "Queen"
    INDEX 00 17:30:17
    INDEX 01 17:33:30
  TRACK 06 AUDIO
    TITLE "I Was Born To Love You"
    PERFORMER "Queen"
    INDEX 00 20:48:60
    INDEX 01 20:48:62
  TRACK 07 AUDIO
    TITLE "Heaven For Everyone"
    PERFORMER "Queen"
    INDEX 00 25:38:45
    INDEX 01 25:38:47
  TRACK 08 AUDIO
    TITLE "Too Much Love Will Kill You"
    PERFORMER "Queen"
    INDEX 00 31:14:52
    INDEX 01 31:14:55
  TRACK 09 AUDIO
    TITLE "You Don't Fool Me"
    PERFORMER "Queen"
    INDEX 00 35:34:65
    INDEX 01 35:34:67
  TRACK 10 AUDIO
    TITLE "A Winter's Tale"
    PERFORMER "Queen"
    INDEX 00 40:59:52
    INDEX 01 40:59:55
  TRACK 11 AUDIO
    TITLE "It's A Beautiful Day (Reprise)"
    PERFORMER "Queen"
    INDEX 00 44:48:67
    INDEX 01 44:48:70
  TRACK 12 AUDIO
    TITLE "Yeah!"
    PERFORMER "Queen"
    INDEX 00 47:50:22
    INDEX 01 47:50:25
  TRACK 13 AUDIO
    TITLE "Unknown"
    PERFORMER "Queen"
    INDEX 00 47:54:25
    INDEX 01 47:54:27

Olafweisse писал(а):

Все рипы (за исключением *) сделаны с оригинальных дисков из собственной коллекции, test & copy, secure mode, accurate stream.
Кроме 4-х секундного скрытого трека № 12 на "Made in Heaven", все остальные -

* Рип Flash Gordon любезно предоставлен Alonzo, за что ему огромное не/человеческое спасибо!

Автор сборки Olafweisse.

Торрент обновлён 14.4.2010
заменён рип Flash Gordon
info [Профиль]  [ЛС] 

Gen0723

Стаж: 7 лет 8 месяцев

Сообщений: 13

Россия
Рейтинг

post 30-Апр-2010 20:53 (спустя 26 дней) [-]0[+]

[Цитировать] 

Где раздача то?????
info [Профиль]  [ЛС] 

Kenny69

Пол: Пол:Муж

Стаж: 7 лет 4 месяца

Сообщений: 1766

Россия
Рейтинг

post 30-Апр-2010 21:01 (спустя 8 минут) [-]0[+]

[Цитировать] 

Gen0723
не судьба посмотреть на другие раздачи , что нет сидов и пиров. Трекер в дауне немного

_________________
info [Профиль]  [ЛС] 

akumai

Предупреждений: 1

Рейтинг

post 30-Апр-2010 21:39 (спустя 37 минут) [-]0[+]

[Цитировать] 

это не хард-рок,это поп-рок
 

Solomon2302

Пол: Пол:Муж

Стаж: 7 лет 8 месяцев

Сообщений: 367

Россия
Рейтинг

post 30-Апр-2010 22:05 (спустя 26 минут) [-]0[+]

[Цитировать] 

akumai писал(а):

это не хард-рок,это поп-рок
Это Hard rock, Opera rock, Glam rock, Pop-rock, Art rock, Arena rock, Dance rock, Heavy metal, Progressive Rock и самое главное - Classical rock.

Спасибо огромное за релиз!
info [Профиль]  [ЛС] 

SartoM

Пол: Пол:Муж

Стаж: 7 лет 2 месяца

Сообщений: 149

Россия
Рейтинг

post 01-Май-2010 02:24 (спустя 4 часа) [-]0[+]

[Цитировать] 

О! Сенкс за раздачу! Queen - форева! Фредди - жив!

_________________
info [Профиль]  [ЛС] 

fatalnm

Пол: Пол:Муж

Стаж: 7 лет 2 месяца

Сообщений: 23

Россия
Рейтинг

post 01-Май-2010 05:37 (спустя 3 часа) [-]0[+]

[Цитировать] 

Простите а хотел спросить, а диск white album там barcelona и love kills точно помню были песни это как сборник считается или альбом просто тут его нет, я собственно и подумал что он как сборник шёл в 1995 вроде он выпущен был вроде!?
info [Профиль]  [ЛС] 

RTWW

Пол: Пол:Муж

Стаж: 6 лет 11 месяцев

Сообщений: 44

Россия
Рейтинг

post 01-Май-2010 08:16 (спустя 2 часа 38 минут) [-]0[+]

[Цитировать] 

Квины рулят бесспорно, любимая группа молодости.

_________________
info [Профиль]  [ЛС] 

Timon1FBI

Стаж: 6 лет 9 месяцев

Сообщений: 4

Рейтинг

post 01-Май-2010 10:12 (спустя 1 час 55 минут) [-]0[+]

[Цитировать] 

Многовато но скачаю позже!
info [Профиль]  [ЛС] 

SartoM

Пол: Пол:Муж

Стаж: 7 лет 2 месяца

Сообщений: 149

Россия
Рейтинг

post 01-Май-2010 17:40 (спустя 7 часов) [-]0[+]

[Цитировать] 

fatalnm
Это уже сольник Фредди. К группе ни каким боком. Ищи сольные альбомы а-ля Barcelona

_________________
info [Профиль]  [ЛС] 

fatalnm

Пол: Пол:Муж

Стаж: 7 лет 2 месяца

Сообщений: 23

Россия
Рейтинг

post 03-Май-2010 08:19 (спустя 1 день 14 часов) [-]0[+]

[Цитировать] 

SartoM
Спасибо
info [Профиль]  [ЛС] 

rdu

Пол: Пол:Муж

Стаж: 6 лет 2 месяца

Сообщений: 15

Россия
Рейтинг

post 21-Сен-2010 20:43 (спустя 4 месяца 18 дней) [-]0[+]

[Цитировать] 

Спасибо, только уж очень маленькая скорость (((
info [Профиль]  [ЛС] 

Александр Москаленко

Пол: Пол:Муж

Стаж: 6 лет 2 месяца

Сообщений: 25

Рейтинг

post 23-Сен-2010 17:36 (спустя 1 день 20 часов) [-]0[+]

[Цитировать] 

Класс, заберу попозже))
info [Профиль]  [ЛС] 
Показать сообщения:    
Ответить на тему

Текущее время: 08-Дек 08:08

Часовой пояс: GMT + 4



Вы не можете начинать темы
Вы не можете отвечать на сообщения
Вы не можете редактировать свои сообщения
Вы не можете удалять свои сообщения
Вы не можете голосовать в опросах
Вы не можете прикреплять файлы к сообщениям
Вы не можете скачивать файлы