Ошибка

Фури-кури / FLCL / Furi Kuri [1-6 из 6][комедия, фантастика, пародия][DVDRip][Любительский​ (JAP+SUB)]

Ответить на тему
 
Автор Сообщение

krot mstu

Пол: Пол:Муж

Стаж: 6 лет 9 месяцев

Сообщений: 17

Норвегия
Рейтинг

post 27-Мар-2010 22:40 0[+]

[Цитировать] 

Фури-кури | FLCL | Furi Kuri


Год выпуска: 2000
Страна: Япония
Жанр: комедия, фантастика, пародия
Продолжительность: 6 серий по 24:54
Перевод:
      * Оригинальная дорожка
      * Русский одноголосый закадровый перевод
      * Английский профессиональный дубляж
      * Русские сабы SRT вшитые, отключаемые
      * Английские сабы ASS вшитые, отключаемые

Режиссер:
  • Цурумаки Кадзуя


Описание WorldArt :
На горе – утюг завода, под горой живет Наота. Наота Нандаба – 12-летний школьник, в жизни которого нет ничего хорошего. Старший брат уехал играть в бейсбол в Америку, отец – великовозрастный отаку, дед – старый извращенец. Мамими – девушка брата, с которой Наота тусуется по вечерам – на редкость странная персона и смотрит на него, как на ребенка. Вот только скучать парню осталось недолго – благодаря веселой Харуко Харухаре, сбивающей Наоту на своей желтой «Веспе». Добавив бедолаге для верности по лбу синей бас-гитарой «Рикенбэкер», Харуко мастерски выполняет искусственное дыхание, а затем, чтобы окончательно добить несчастного, устраивается в холостяцкий дом Нандаба горничной.

Вот и пришел конец мирной жизни - городок Мабасэ встает на уши. Из головы персонажей лезут роботы, из космоса – вообще неясно кто, кругом орудуют агенты темных и светлых сил, и все они спокойно общаются с обычными японскими школьниками, помогая решать вечные подростковые проблемы. Фантазия и реальность смешиваются так, что уже не разбираются ни герои, ни зрители. Только зачем разбираться – надо смотреть! Такое надо смотреть…

Описание Википедия:
Жизнь Наото, Обычного ученика самой Обычной школы, была однообразна и совершенно Обычна: Занятия в школе, отдых под городским мостом на прибрежной траве и Обычные домашние дела, такие как помощь отцу и деду. Все это продолжалось изо дня в день, пока однажды он не встретил Харуко. Точнее, пока он не встретил её мотороллер (Модель: Vespa SS 180), которым Харука умудрилась его переехать.
После неприятного знакомства с её транспортным средством, следует ещё менее приятное знакомство с гитарой Харуки (Гитара: Rickenbacker 4001). По приходу домой Наото обнаруживает, что новоиспеченная знакомая уже находится у них дома, причём не «как гость», а как домработница, которую нанял его отец (которого, надо заметить, она тоже перед этим умудрилась переехать на своём мотороллере). С этого момента Обычная жизнь Наото заканчивается, и начинается новая — полная странностей и безумия, приводящего порой к разрушению всего города, но так или иначе — ведущая к одной цели, преследуемой «горничной» Харуко — к «Похитителю планет» — Атомску.

Доп. информация:
- А вы знаете, что значит Фури-кури?
О-о-о! вы ещё не знаете, что такое Фури-кури, как я вам завидую!!!
М-м-м-м... фури... кури...

очень хороший рип с образов R1 DVD "FLCL Ultimate Collection". сказать спасибо можно г-ну nonsens112

Качество: DVDRip
Формат: MKV
Видео кодек: H.264
Аудио кодек: OGG Vorbis
Видео: H264, 720x480 (4:3) 23.98fps, 1500 kbps
Аудио:
      * [JAP] DD 2.0 48000 Hz stereo 192 kbps CBR
      * [RUS] Vorbis 48000 Hz stereo ~96 kbps VBR
      * [ENG] Vorbis 48000 Hz stereo ~96 kbps VBR
General
Complete name : /media/media/video/anime/FLCL/FLCL - 05.mkv
Format : Matroska
File size : 342 MiB
Duration : 23mn 36s
Overall bit rate : 2 024 Kbps
Encoded date : UTC 2007-08-02 21:34:38
Writing application : mkvmerge v2.0.2 ('You're My Flame') built on Feb 22 2007 00:05:35
Writing library : libebml v0.7.7 + libmatroska v0.8.1

Video
ID : 1
Format : AVC
Format/Info : Advanced Video Codec
Format profile : High@L5.1
Format settings, CABAC : Yes
Format settings, ReFrames : 13 frames
Muxing mode : Container profile=Unknown@5.1
Codec ID : V_MPEG4/ISO/AVC
Duration : 23mn 35s
Bit rate : 1 584 Kbps
Width : 720 pixels
Height : 480 pixels
Display aspect ratio : 4:3
Original display aspect ratio : 1.500
Frame rate : 23.976 fps
Standard : NTSC
Resolution : 8 bits
Colorimetry : 4:2:0
Scan type : Progressive
Bits/(Pixel*Frame) : 0.191
Stream size : 267 MiB (78%)

Audio #1
ID : 2
Format : AC-3
Format/Info : Audio Coding 3
Format profile : Dolby Digital
Codec ID : A_AC3
Duration : 23mn 36s
Bit rate mode : Constant
Bit rate : 192 Kbps
Channel(s) : 2 channels
Channel positions : L R
Sampling rate : 48.0 KHz
Video delay : 10ms
Stream size : 32.4 MiB (9%)
Language : Japanese

Audio #2
ID : 3
Format : Vorbis
Format settings, Floor : 1
Codec ID : A_VORBIS
Duration : 23mn 36s
Bit rate : 96.0 Kbps
Channel(s) : 2 channels
Sampling rate : 48.0 KHz
Stream size : 16.2 MiB (5%)
Writing library : libVorbis 1.0 (UTC 2002-07-17)
Language : Russian

Audio #3
ID : 4
Format : Vorbis
Format settings, Floor : 1
Codec ID : A_VORBIS
Duration : 23mn 36s
Bit rate mode : Constant
Bit rate : 112 Kbps
Channel(s) : 2 channels
Sampling rate : 48.0 KHz
Stream size : 18.9 MiB (6%)
Writing library : aoTuV Beta 4.51 (UTC 2005-11-17)
Language : English

Text #1
ID : 5
Format : UTF-8
Codec ID : S_TEXT/UTF8
Codec ID/Info : UTF-8 Plain Text
Language : Russian

Text #2
ID : 6
Format : ASS
Codec ID : S_TEXT/ASS
Codec ID/Info : Advanced Sub Station Alpha
Language : English

General
Complete name : /media/media/video/anime/FLCL/FLCL - 03.mkv
Format : Matroska
File size : 291 MiB
Duration : 23mn 25s
Overall bit rate : 1 733 Kbps
Encoded date : UTC 2007-08-02 21:34:12
Writing application : mkvmerge v2.0.2 ('You're My Flame') built on Feb 22 2007 00:05:35
Writing library : libebml v0.7.7 + libmatroska v0.8.1

Video
ID : 1
Format : AVC
Format/Info : Advanced Video Codec
Format profile : High@L5.1
Format settings, CABAC : Yes
Format settings, ReFrames : 13 frames
Muxing mode : Container profile=Unknown@5.1
Codec ID : V_MPEG4/ISO/AVC
Duration : 23mn 24s
Bit rate : 1 299 Kbps
Width : 720 pixels
Height : 480 pixels
Display aspect ratio : 4:3
Original display aspect ratio : 1.500
Frame rate : 23.976 fps
Standard : NTSC
Resolution : 8 bits
Colorimetry : 4:2:0
Scan type : Progressive
Bits/(Pixel*Frame) : 0.157
Stream size : 217 MiB (75%)

Audio #1
ID : 2
Format : AC-3
Format/Info : Audio Coding 3
Format profile : Dolby Digital
Codec ID : A_AC3
Duration : 23mn 25s
Bit rate mode : Constant
Bit rate : 192 Kbps
Channel(s) : 2 channels
Channel positions : L R
Sampling rate : 48.0 KHz
Video delay : 15ms
Stream size : 32.2 MiB (11%)
Language : Japanese

Audio #2
ID : 3
Format : Vorbis
Format settings, Floor : 1
Codec ID : A_VORBIS
Duration : 23mn 25s
Bit rate : 96.0 Kbps
Channel(s) : 2 channels
Sampling rate : 48.0 KHz
Stream size : 16.1 MiB (6%)
Writing library : libVorbis 1.0 (UTC 2002-07-17)
Language : Russian

Audio #3
ID : 4
Format : Vorbis
Format settings, Floor : 1
Codec ID : A_VORBIS
Duration : 23mn 25s
Bit rate mode : Constant
Bit rate : 112 Kbps
Channel(s) : 2 channels
Sampling rate : 48.0 KHz
Stream size : 18.8 MiB (6%)
Writing library : aoTuV Beta 4.51 (UTC 2005-11-17)
Language : English

Text #1
ID : 5
Format : UTF-8
Codec ID : S_TEXT/UTF8
Codec ID/Info : UTF-8 Plain Text
Language : Russian

Text #2
ID : 6
Format : ASS
Codec ID : S_TEXT/ASS
Codec ID/Info : Advanced Sub Station Alpha
Language : English

General
Complete name : /media/media/video/anime/FLCL/FLCL - 06.mkv
Format : Matroska
File size : 374 MiB
Duration : 30mn 54s
Overall bit rate : 1 692 Kbps
Encoded date : UTC 2007-08-02 21:34:52
Writing application : mkvmerge v2.0.2 ('You're My Flame') built on Feb 22 2007 00:05:35
Writing library : libebml v0.7.7 + libmatroska v0.8.1

Video
ID : 1
Format : AVC
Format/Info : Advanced Video Codec
Format profile : High@L5.1
Format settings, CABAC : Yes
Format settings, ReFrames : 13 frames
Muxing mode : Container profile=Unknown@5.1
Codec ID : V_MPEG4/ISO/AVC
Duration : 30mn 52s
Bit rate : 1 258 Kbps
Nominal bit rate : 1 300 Kbps
Width : 720 pixels
Height : 480 pixels
Display aspect ratio : 4:3
Original display aspect ratio : 1.500
Frame rate : 23.976 fps
Standard : NTSC
Resolution : 8 bits
Colorimetry : 4:2:0
Scan type : Progressive
Bits/(Pixel*Frame) : 0.152
Stream size : 278 MiB (74%)
Writing library : x264 core 55 svn-663
Encoding settings : cabac=1 / ref=10 / deblock=1:-3:-2 / analyse=0x3:0x133 / me=umh / subme=7 / brdo=1 / mixed_ref=1 / me_range=32 / chroma_me=1 / trellis=2 / 8x8dct=1 / cqm=0 / deadzone=21,11 / chroma_qp_offset=0 / threads=2 / nr=0 / decimate=0 / mbaff=0 / bframes=3 / b_pyramid=1 / b_adapt=1 / b_bias=0 / direct=3 / wpredb=1 / bime=1 / keyint=250 / keyint_min=25 / scenecut=40(pre) / rc=2pass / bitrate=1300 / ratetol=1.0 / rceq='blurCplx^(1-qComp)' / qcomp=0.60 / qpmin=10 / qpmax=51 / qpstep=4 / cplxblur=20.0 / qblur=0.5 / ip_ratio=1.40 / pb_ratio=1.30

Audio #1
ID : 2
Format : AC-3
Format/Info : Audio Coding 3
Codec ID : A_AC3
Duration : 30mn 54s
Bit rate mode : Constant
Bit rate : 192 Kbps
Channel(s) : 2 channels
Channel positions : L R
Sampling rate : 48.0 KHz
Stream size : 42.5 MiB (11%)
Language : Japanese

Audio #2
ID : 3
Format : Vorbis
Format settings, Floor : 1
Codec ID : A_VORBIS
Duration : 30mn 54s
Bit rate : 96.0 Kbps
Channel(s) : 2 channels
Sampling rate : 48.0 KHz
Stream size : 21.2 MiB (6%)
Writing library : libVorbis 1.0 (UTC 2002-07-17)
Language : Russian

Audio #3
ID : 4
Format : Vorbis
Format settings, Floor : 1
Codec ID : A_VORBIS
Duration : 30mn 54s
Bit rate mode : Constant
Bit rate : 112 Kbps
Channel(s) : 2 channels
Sampling rate : 48.0 KHz
Stream size : 24.8 MiB (7%)
Writing library : aoTuV Beta 4.51 (UTC 2005-11-17)
Language : English

Text #1
ID : 5
Format : UTF-8
Codec ID : S_TEXT/UTF8
Codec ID/Info : UTF-8 Plain Text
Language : Russian

Text #2
ID : 6
Format : ASS
Codec ID : S_TEXT/ASS
Codec ID/Info : Advanced Sub Station Alpha
Language : English

General
Complete name : /media/media/video/anime/FLCL/FLCL - 01.mkv
Format : Matroska
File size : 408 MiB
Duration : 24mn 42s
Overall bit rate : 2 310 Kbps
Encoded date : UTC 2007-08-02 21:35:39
Writing application : mkvmerge v2.0.2 ('You're My Flame') built on Feb 22 2007 00:05:35
Writing library : libebml v0.7.7 + libmatroska v0.8.1

Video
ID : 1
Format : AVC
Format/Info : Advanced Video Codec
Format profile : High@L5.1
Format settings, CABAC : Yes
Format settings, ReFrames : 13 frames
Muxing mode : Container profile=Unknown@5.1
Codec ID : V_MPEG4/ISO/AVC
Duration : 24mn 40s
Bit rate : 1 864 Kbps
Nominal bit rate : 1 500 Kbps
Width : 720 pixels
Height : 480 pixels
Display aspect ratio : 4:3
Original display aspect ratio : 1.500
Frame rate : 23.976 fps
Standard : NTSC
Resolution : 8 bits
Colorimetry : 4:2:0
Scan type : Progressive
Bits/(Pixel*Frame) : 0.225
Stream size : 329 MiB (81%)
Writing library : x264 core 55 svn-663
Encoding settings : cabac=1 / ref=10 / deblock=1:-3:-2 / analyse=0x3:0x133 / me=umh / subme=7 / brdo=1 / mixed_ref=1 / me_range=32 / chroma_me=1 / trellis=2 / 8x8dct=1 / cqm=0 / deadzone=21,11 / chroma_qp_offset=0 / threads=2 / nr=0 / decimate=0 / mbaff=0 / bframes=3 / b_pyramid=1 / b_adapt=1 / b_bias=0 / direct=3 / wpredb=1 / bime=1 / keyint=250 / keyint_min=25 / scenecut=40(pre) / rc=2pass / bitrate=1500 / ratetol=1.0 / rceq='blurCplx^(1-qComp)' / qcomp=0.60 / qpmin=10 / qpmax=51 / qpstep=4 / cplxblur=20.0 / qblur=0.5 / ip_ratio=1.40 / pb_ratio=1.30

Audio #1
ID : 2
Format : AC-3
Format/Info : Audio Coding 3
Format profile : Dolby Digital
Codec ID : A_AC3
Duration : 24mn 42s
Bit rate mode : Constant
Bit rate : 192 Kbps
Channel(s) : 2 channels
Channel positions : L R
Sampling rate : 48.0 KHz
Stream size : 33.9 MiB (8%)
Language : Japanese

Audio #2
ID : 3
Format : Vorbis
Format settings, Floor : 1
Codec ID : A_VORBIS
Duration : 24mn 42s
Bit rate : 96.0 Kbps
Channel(s) : 2 channels
Sampling rate : 48.0 KHz
Stream size : 17.0 MiB (4%)
Writing library : libVorbis 1.0 (UTC 2002-07-17)
Language : Russian

Audio #3
ID : 4
Format : Vorbis
Format settings, Floor : 1
Codec ID : A_VORBIS
Duration : 24mn 42s
Bit rate mode : Constant
Bit rate : 112 Kbps
Channel(s) : 2 channels
Sampling rate : 48.0 KHz
Stream size : 19.8 MiB (5%)
Writing library : aoTuV Beta 4.51 (UTC 2005-11-17)
Language : English

Text #1
ID : 5
Format : UTF-8
Codec ID : S_TEXT/UTF8
Codec ID/Info : UTF-8 Plain Text
Language : Russian

Text #2
ID : 6
Format : ASS
Codec ID : S_TEXT/ASS
Codec ID/Info : Advanced Sub Station Alpha
Language : English

General
Complete name : /media/media/video/anime/FLCL/FLCL - 04.mkv
Format : Matroska
File size : 322 MiB
Duration : 24mn 54s
Overall bit rate : 1 804 Kbps
Encoded date : UTC 2007-08-02 21:34:23
Writing application : mkvmerge v2.0.2 ('You're My Flame') built on Feb 22 2007 00:05:35
Writing library : libebml v0.7.7 + libmatroska v0.8.1

Video
ID : 1
Format : AVC
Format/Info : Advanced Video Codec
Format profile : High@L5.1
Format settings, CABAC : Yes
Format settings, ReFrames : 13 frames
Muxing mode : Container profile=Unknown@5.1
Codec ID : V_MPEG4/ISO/AVC
Duration : 24mn 53s
Bit rate : 1 368 Kbps
Width : 720 pixels
Height : 480 pixels
Display aspect ratio : 4:3
Original display aspect ratio : 1.500
Frame rate : 23.976 fps
Standard : NTSC
Resolution : 8 bits
Colorimetry : 4:2:0
Scan type : Progressive
Bits/(Pixel*Frame) : 0.165
Stream size : 244 MiB (76%)

Audio #1
ID : 2
Format : AC-3
Format/Info : Audio Coding 3
Format profile : Dolby Digital
Codec ID : A_AC3
Duration : 24mn 54s
Bit rate mode : Constant
Bit rate : 192 Kbps
Channel(s) : 2 channels
Channel positions : L R
Sampling rate : 48.0 KHz
Video delay : 18ms
Stream size : 34.2 MiB (11%)
Language : Japanese

Audio #2
ID : 3
Format : Vorbis
Format settings, Floor : 1
Codec ID : A_VORBIS
Duration : 24mn 54s
Bit rate : 96.0 Kbps
Channel(s) : 2 channels
Sampling rate : 48.0 KHz
Stream size : 17.1 MiB (5%)
Writing library : libVorbis 1.0 (UTC 2002-07-17)
Language : Russian

Audio #3
ID : 4
Format : Vorbis
Format settings, Floor : 1
Codec ID : A_VORBIS
Duration : 24mn 54s
Bit rate mode : Constant
Bit rate : 112 Kbps
Channel(s) : 2 channels
Sampling rate : 48.0 KHz
Stream size : 20.0 MiB (6%)
Writing library : aoTuV Beta 4.51 (UTC 2005-11-17)
Language : English

Text #1
ID : 5
Format : UTF-8
Codec ID : S_TEXT/UTF8
Codec ID/Info : UTF-8 Plain Text
Language : Russian

Text #2
ID : 6
Format : ASS
Codec ID : S_TEXT/ASS
Codec ID/Info : Advanced Sub Station Alpha
Language : English

General
Complete name : /media/media/video/anime/FLCL/FLCL - 02.mkv
Format : Matroska
File size : 306 MiB
Duration : 23mn 31s
Overall bit rate : 1 819 Kbps
Encoded date : UTC 2007-08-02 21:34:00
Writing application : mkvmerge v2.0.2 ('You're My Flame') built on Feb 22 2007 00:05:35
Writing library : libebml v0.7.7 + libmatroska v0.8.1

Video
ID : 1
Format : AVC
Format/Info : Advanced Video Codec
Format profile : High@L5.1
Format settings, CABAC : Yes
Format settings, ReFrames : 13 frames
Muxing mode : Container profile=Unknown@5.1
Codec ID : V_MPEG4/ISO/AVC
Duration : 23mn 29s
Bit rate : 1 383 Kbps
Width : 720 pixels
Height : 480 pixels
Display aspect ratio : 4:3
Original display aspect ratio : 1.500
Frame rate : 23.976 fps
Standard : NTSC
Resolution : 8 bits
Colorimetry : 4:2:0
Scan type : Progressive
Bits/(Pixel*Frame) : 0.167
Stream size : 232 MiB (76%)

Audio #1
ID : 2
Format : AC-3
Format/Info : Audio Coding 3
Format profile : Dolby Digital
Codec ID : A_AC3
Duration : 23mn 31s
Bit rate mode : Constant
Bit rate : 192 Kbps
Channel(s) : 2 channels
Channel positions : L R
Sampling rate : 48.0 KHz
Video delay : 19ms
Stream size : 32.3 MiB (11%)
Language : Japanese

Audio #2
ID : 3
Format : Vorbis
Format settings, Floor : 1
Codec ID : A_VORBIS
Duration : 23mn 31s
Bit rate : 96.0 Kbps
Channel(s) : 2 channels
Sampling rate : 48.0 KHz
Stream size : 16.1 MiB (5%)
Writing library : libVorbis 1.0 (UTC 2002-07-17)
Language : Russian

Audio #3
ID : 4
Format : Vorbis
Format settings, Floor : 1
Codec ID : A_VORBIS
Duration : 23mn 31s
Bit rate mode : Constant
Bit rate : 112 Kbps
Channel(s) : 2 channels
Sampling rate : 48.0 KHz
Stream size : 18.8 MiB (6%)
Writing library : aoTuV Beta 4.51 (UTC 2005-11-17)
Language : English

Text #1
ID : 5
Format : UTF-8
Codec ID : S_TEXT/UTF8
Codec ID/Info : UTF-8 Plain Text
Language : Russian

Text #2
ID : 6
Format : ASS
Codec ID : S_TEXT/ASS
Codec ID/Info : Advanced Sub Station Alpha
Language : English
info [Профиль]  [ЛС] 

post 28-Мар-2010 00:43 (спустя 2 часа 2 минуты) [-]0[+]

Топик был перенесен из форума Анонсы в форум Аниме (основной подраздел)

Amael
 

tkilla

Пол: Пол:Муж

Стаж: 7 лет 1 месяц

Сообщений: 10

Россия
Рейтинг

post 28-Мар-2010 02:53 (спустя 4 часа) [-]0[+]

[Цитировать] 

ох! любимый мульт! спасибо огромное

_________________
будда- тот кто поступает как будда
info [Профиль]  [ЛС] 

Alekseius

Пол: Пол:Муж

Стаж: 6 лет 8 месяцев

Сообщений: 55

Рейтинг

post 28-Мар-2010 03:24 (спустя 31 минута) [-]0[+]

[Цитировать] 

имхо не самые лучшие скриншоты подобрал аффтар, а как же момент с роботом из лба ТТ
info [Профиль]  [ЛС] 

DarkTemplar

Стаж: 7 лет 6 месяцев

Сообщений: 369

Рейтинг

post 28-Мар-2010 23:14 (спустя 19 часов) [-]0[+]

[Цитировать] 

Alekseius писал(а):

имхо не самые лучшие скриншоты подобрал аффтар, а как же момент с роботом из лба ТТ
Вероятно, что это сделано с целью не травмировать психику неподготовленных и слабых духом.
info [Профиль]  [ЛС] 

Unrecovered

Пол: Пол:Муж

Стаж: 6 лет 10 месяцев

Сообщений: 14

Россия
Рейтинг

post 24-Июн-2010 20:49 (спустя 2 месяца 26 дней) [-]1[+]

[Цитировать] 

имхо аниме офигеннейшее Смеюсь рвет моск на много-много кавайных некомейден ^_^ крайне рекомендуецо к просмотру всем непосвященным %)
info [Профиль]  [ЛС] 

lisnake

Пол: Пол:Муж

Стаж: 6 лет 8 месяцев

Сообщений: 814

Предупреждений: 2

Рейтинг

post 24-Июн-2010 22:42 (спустя 1 час 52 минуты) [-]0[+]

[Цитировать] 

Unrecovered писал(а):

крайне рекомендуецо к просмотру всем непосвященным %)
А как же! Только вот в начале над последствиями причиненными сией ртутью, не мешало бы задуматься.

_________________
Анимешник – это состояние души, и по этому свободу слова им.
p.s. Перманентный отпуск.
info [Профиль]  [ЛС] 

borodilo

Предупреждений: 1

Рейтинг

post 28-Июн-2010 14:38 (спустя 3 дня) [-]0[+]

[Цитировать] 

неплохо бы было семпл Русской дорожки опубликовать для ознакомления, а за видео - спасибо, это одно из любимых мной творений студии Gainax

скачал.. звуковая дорожка как я и думал оказалась другим вариантом нежели на который я рассчитывал, она более информативна в том плане, что сюжет скорее доходит до понимания, но вместе с тем я все же не знаю(( т.к. мое мнение здесь, доступнее - не значит лучше, если в той озвучке было - "я переполнюсь", здесь "перельюсь", и там много моментов когда озвучивается Мамими, в той озвучке вдобавок к мужскому был женский голос - он хорошо ложился на персонажей, но видео мне нравится оно четкое, яркое, придется заменить все же звук, но я таки не знаю как это сделать, т.к. продолжительность файлов - различная, мой вывод, если смотрите впервые и не хотите, чтоб ваш мозг поимели - смотрите вариант представленный в раздаче, но вместе с тем если же вы хотите, чтоб что-то на долго закралось в ваш мозг, а персонажи здесь представлены все же любопытные, то ищите двухголосную озвучку *к сожалению имен участников старого фандаба не нашел, но насколько помниться мне тот войс был единственным вариантом слышать женский голос, хотя я таки ничему в последнее время не удивляюсь, ибо с того момента как Реанимедия взялась за Гайнакс, все как с катушек слетели и только за последнее время я слышал уже два варианта нового звука, а всего помоему к данной картине их насчитывается уже не менее пяти*
 

lisnake

Пол: Пол:Муж

Стаж: 6 лет 8 месяцев

Сообщений: 814

Предупреждений: 2

Рейтинг

post 28-Июн-2010 15:58 (спустя 1 час 20 минут) [-]0[+]

[Цитировать] 

borodilo писал(а):

она более информативна в том плане, что сюжет скорее доходит до понимания
Ага! Значить переводом всю информативность в наши дни не передать.
Что даб с людьми-то творит...

borodilo писал(а):

придется заменить все же звук, но я таки не знаю как это сделать
А зачем фану величайшей студии понадобилось марать руки? При таком темпе Вы потеряете истовую суть.

_________________
Анимешник – это состояние души, и по этому свободу слова им.
p.s. Перманентный отпуск.
info [Профиль]  [ЛС] 

borodilo

Предупреждений: 1

Рейтинг

post 29-Июн-2010 04:49 (спустя 12 часов) [-]0[+]

[Цитировать] 

lisnake писал(а):

Ага! Значить переводом всю информативность в наши дни не передать.
Что даб с людьми-то творит...
в том то и дело, я FLCL да и остальные творения Gainaxa люблю из-за их атмосферности, а в этом релизе( я не поклонник фандаба, но в в варианте двухголоски - они справились на отлично, а здесь все как-то сухо, я вчера переслушал и этот вариант не тот, что мог бы создать взрыв эмоций у меня, а тот я смотрел и пересматривал, т.к. я понимал после первого просмотра, что это мне нравится, но чем именно так притягивает - это пришло уже позднее

lisnake писал(а):

А зачем фану величайшей студии понадобилось марать руки? При таком темпе Вы потеряете истовую суть.
ну я не уверен насчет сути, а вообще хочу залить видео вконтакт, но я не хочу предлагать людям с "этим" ознакомится, я хочу чтоб было как и с прежним вариантом озвучки, чтоб через все первостпенное отвращение к голосам персонажей человек таки досмотрел до конца *ведь сами сейю выбранные режиссером, так же не отличались мелодичностью своих голосов, и не на каждому на слух легла бы японская дорожка*, и чтоб в конце он или осознал насколько они все же соответствовали героям, и сколь замечательная картина ему представлена, или же чтоб это стало таки его разочарованием в данном, и чтоб он таки уже разочаровывался или же восхищался впадая в крайности, я не хочу, что бы подобное оставляло равнодушным, кое может вызвать эта одноголоска..

добавлено спустя 14 минут 7 секунд:

кстати очень странно MKV info говорит о том, что файл имеет разрешение 720x480, а KMPlayer показывает у меня его в разрешении 640x480, я впервые сталкиваюсь с подобным, при конвертировании OJOsoft Total Video Converter'ом на выходе получаю файл разрешением 720x480, но сама активная картинка остается в пределах 640x480, а по бокам просто появляются черные полосы, что это такое и как с этим бороться?
 

Хомяк 2.0

Стаж: 7 лет 7 месяцев

Сообщений: 1635

Рейтинг

post 29-Июн-2010 09:06 (спустя 4 часа) [-]0[+]

[Цитировать] 

borodilo писал(а):

MKV info говорит о том, что файл имеет разрешение 720x480
Потому-что файл имеет разрешение 720x480

borodilo писал(а):

KMPlayer показывает у меня его в разрешении 640x480
Потому-что соотношение сторонон 4:3. Хотя вообще-то должен показывать 720x540, если показывает как у вас - это плохой плеер и его нельзя использовать.

Обьясняю: пиксели бывают не только квадратные, но и прямоугольные. Разрешение видео 720x480, но в прямоугольных пикселях. Но изображение может быть только в виде квадратных пикселях, поэтому прямоугольные переводятся в квадратные, в итоге получается 720x540 (640x480 в вашем кривом плеере).

borodilo писал(а):

при конвертировании OJOsoft Total Video Converter'ом
Что только не используют...

borodilo писал(а):

что это такое и как с этим бороться?
Использовать нормальную программу. Например перевести прямоугольные в квадратные можно через AviSynth:

Код:

DirectShowSource("FLCL - 01.mkv")
LanczosResize(640,480)

_________________
Ушёл в реал на неопределённый срок. =(
info [Профиль]  [ЛС] 

borodilo

Предупреждений: 1

Рейтинг

post 29-Июн-2010 10:53 (спустя 1 час 47 минут) [-]0[+]

[Цитировать] 

спасибо Хомяк, возьму на заметку, и для меня новость, что пиксели прямоугольными бывают)) а плеер все же очень хороший, распознает множество форматов и быстро работает, ничем кроме не пользуюсь, а OJO - все зависит от желаемого, с исходника MKV на Дайбастер, он конвертировал хорошо, сейчас FLCL перегоняю в Movavi VideoSuite, я конечно понимаю, что вероятно существуют программы более сложные, которые это все сделают гораздо лучше, но там надо что-то понимать в кодировании
 
Показать сообщения:    
Ответить на тему

Текущее время: 05-Дек 12:33

Часовой пояс: GMT + 4



Вы не можете начинать темы
Вы не можете отвечать на сообщения
Вы не можете редактировать свои сообщения
Вы не можете удалять свои сообщения
Вы не можете голосовать в опросах
Вы не можете прикреплять файлы к сообщениям
Вы не можете скачивать файлы