Ошибка

Изумительная медсестра Нанако / Amazing Nurse Nanako [1-6 из 6][комедия, фантастика, меха, этти][DVDRip][Профессиональный(Jap+Sub)]

Ответить на тему
 
Автор Сообщение

WebeR

Пол: Пол:Муж

Стаж: 7 лет 9 месяцев

Сообщений: 260

Рейтинг

post 26-Мар-2010 19:06 0[+]

[Цитировать] 

Изумительная медсестра Нанако | Amazing Nurse Nanako

Период трансляции:c 05.07.1999 по 24.03.2000
Страна:
Жанр: комедия, фантастика, меха, этти
Тип: OAV
Продолжительность: 6 эп. x 27 мин.
Перевод: Профессиональный (многоголосый, закадровый)
Субтитры: Русские, отключаемые, внутри контейнера (.ass) MC-Entertainment
Субтитры: Английские, отключаемые, внутри контейнера (.ass)
Источник: - Аудио-дорожки и русские субтитры
Режиссер: Нэгиси Хироси
Сценарий: Яно Распутин
Студия:
Описание:
Нанако — немного неуклюжая ассистентка медсестры, скорее выполняющая обязанности горничной в частной клинике блестящего доктора Кодзи. Временами кажется, что 16-летняя девушка буквально притягивает к себе всевозможные беды и неприятности. Сама Нанако недоумевает по этому поводу, а доктор Кодзи прекрасно знает, в чем тут дело.


Качество: DVDRip | Хардсаб: Отсутствует | Контейнер: MKV
Видео: x264, 640x480 (1.33:1), 23,976 fps, ~1000 kbps
Аудио:
1. RU - AC3, 2.0 ch, 48 KHz, ~192 Kbps
2. JP - AC3, 2.0 ch, 48 KHz, ~192 Kbps
1) Наличие двух дорожек: русской и оригинальной.
2) Наличие субтитров к оригинальной дорожке: русских и английских.
3) Единственный вариант в х264 на РУ-просторах...
4)

Код:

General
Complete name                    : H:\Anime\Amazing Nurse Nanako [RUS]\Amazing_Nurse_Nanako_[01_of_06]_[DVDRip,640x480,x264,AC3]_[RUS,JAP+SUB(rus,eng)].mkv
Format                           : Matroska
File size                        : 267 MiB
Duration                         : 26mn 37s
Overall bit rate                 : 1 401 Kbps
Encoded date                     : UTC 2010-03-26 14:08:14
Writing application              : mkvmerge v2.9.7 ('Tenderness') built on Jul  1 2009 18:43:35
Writing library                  : libebml v0.7.7 + libmatroska v0.8.1

Video
ID                               : 1
Format                           : AVC
Format/Info                      : Advanced Video Codec
Format profile                   : High@L5.1
Format settings, CABAC           : Yes
Format settings, ReFrames        : 2 frames
Muxing mode                      : Container profile=Unknown@5.1
Codec ID                         : V_MPEG4/ISO/AVC
Duration                         : 26mn 36s
Bit rate                         : 989 Kbps
Nominal bit rate                 : 1 000 Kbps
Width                            : 640 pixels
Height                           : 480 pixels
Display aspect ratio             : 4:3
Frame rate                       : 23.976 fps
Resolution                       : 24 bits
Colorimetry                      : 4:2:0
Scan type                        : Progressive
Bits/(Pixel*Frame)               : 0.134
Stream size                      : 188 MiB (71%)
Title                            : Operation I: The First Spiral
Writing library                  : x264 core 55 rev-658
Encoding settings                : cabac=1 / ref=1 / deblock=1:0:0 / analyse=0x3:0x113 / me=hex / subme=7 / brdo=0 / mixed_ref=0 / me_range=16 / chroma_me=1 / trellis=1 / 8x8dct=1 / cqm=0 / deadzone=21,11 / chroma_qp_offset=0 / threads=1 / nr=0 / decimate=1 / mbaff=0 / bframes=2 / b_pyramid=0 / b_adapt=1 / b_bias=0 / direct=3 / wpredb=1 / bime=0 / keyint=250 / keyint_min=25 / scenecut=40 / rc=2pass / bitrate=1000 / ratetol=1.0 / rceq='blurCplx^(1-qComp)' / qcomp=0.60 / qpmin=10 / qpmax=51 / qpstep=4 / cplxblur=20.0 / qblur=0.5 / ip_ratio=1.40 / pb_ratio=1.30
Language                         : Japanese

Audio #1
ID                               : 2
Format                           : AC-3
Format/Info                      : Audio Coding 3
Codec ID                         : A_AC3
Duration                         : 26mn 37s
Bit rate mode                    : Constant
Bit rate                         : 192 Kbps
Channel(s)                       : 2 channels
Channel positions                : L R
Sampling rate                    : 48.0 KHz
Video delay                      : 787ms
Stream size                      : 36.6 MiB (14%)
Title                            : MC_Ent.
Language                         : Russian

Audio #2
ID                               : 3
Format                           : AC-3
Format/Info                      : Audio Coding 3
Codec ID                         : A_AC3
Duration                         : 26mn 37s
Bit rate mode                    : Constant
Bit rate                         : 192 Kbps
Channel(s)                       : 2 channels
Channel positions                : L R
Sampling rate                    : 48.0 KHz
Video delay                      : 787ms
Stream size                      : 36.6 MiB (14%)
Title                            : original
Language                         : Japanese

Text #1
ID                               : 4
Format                           : ASS
Codec ID                         : S_TEXT/ASS
Codec ID/Info                    : Advanced Sub Station Alpha
Title                            : MC_Ent.
Language                         : Russian

Text #2
ID                               : 5
Format                           : ASS
Codec ID                         : S_TEXT/ASS
Codec ID/Info                    : Advanced Sub Station Alpha
Title                            : English
Language                         : English
01. Operation I: The First Spiral
02. Operation II: Memories of You
03. Operation III: The Psycho Patient
04. Operation IV: Fire-Crackers
05. Operation V: The Last Spiral Part 1
06. Operation VI: The Last Spiral Part 2
info [Профиль]  [ЛС] 

nizmar

Пол: Пол:Муж

Стаж: 7 лет 7 месяцев

Сообщений: 22

Россия
Рейтинг

post 26-Мар-2010 21:02 (спустя 1 час 56 минут) [-]0[+]

[Цитировать] 

Спасибо kolob_166 посмотрим!

_________________
info [Профиль]  [ЛС] 

NERV666

Пол: Пол:Муж

Стаж: 7 лет 1 месяц

Сообщений: 1640

Рейтинг

post 27-Мар-2010 00:50 (спустя 3 часа) [-]0[+]

[Цитировать] 

давно хотел посмотреть. оригато.

_________________
info [Профиль]  [ЛС] 

Ifantom

Пол: Пол:Муж

Стаж: 8 лет

Сообщений: 39

СССР
Рейтинг

post 27-Мар-2010 01:52 (спустя 1 час 2 минуты) [-]0[+]

[Цитировать] 

Зачетные скрины XDD

_________________
Ожидание премьеры порой лучше самой премьеры
info [Профиль]  [ЛС] 

Ero JiJi

Предупреждений: 1

Рейтинг

post 27-Мар-2010 02:03 (спустя 10 минут) [-]0[+]

[Цитировать] 

NERV666 писал(а):

оригато.
ありがとう

И когда это уже кончится?
 

sypernatyral

Стаж: 7 лет 1 месяц

Сообщений: 4

Предупреждений: 1

Рейтинг

post 04-Ноя-2010 19:28 (спустя 7 месяцев 8 дней) [-]0[+]

[Цитировать] 

а что так мало скринов из бонуса ??? kolob_104
info [Профиль]  [ЛС] 
Показать сообщения:    
Ответить на тему

Текущее время: 30-Апр 15:00

Часовой пояс: GMT + 4



Вы не можете начинать темы
Вы не можете отвечать на сообщения
Вы не можете редактировать свои сообщения
Вы не можете удалять свои сообщения
Вы не можете голосовать в опросах
Вы не можете прикреплять файлы к сообщениям
Вы не можете скачивать файлы