Ошибка

(Score) Hitman - Original Soundtrack Collection (by Jesper Kyd, Pierre Foldes) - 2002-2006, FLAC (tracks+.cue), lossless

Ответить на тему
 
Автор Сообщение

F.A.N.T.O.M

Пол: Пол:Муж

Стаж: 6 месяцев 27 дней

Сообщений: 484

Россия
Рейтинг

post 06-Июл-2024 22:24 0[+]

[Цитировать] 


Hitman - Original Soundtrack Collection




.::: Жанр: Score ::: Композиторы: Jesper Kyd, Pierre Foldes ::: Год выпуска диска: 2002-2006 ::: Производитель диска: UK, US ::: Аудио кодек: FLAC (*.flac) ::: Тип рипа: tracks+.cue ::: Битрейт аудио: lossless ::: Наличие сканов в содержимом раздачи: да ::: Источник: собственный рип :::.


by music4games
[url=viewtopic.php?t=3318179]01 - 2001.06.25 - The Nations (CST 8084.2)[/url]
[url=viewtopic.php?t=3336242]02 - 2002.10.28 - Hitman 2 Silent Assassin (LYNCD011)[/url]
[url=viewtopic.php?t=3700930]03 - 2003.09.29 - Freedom Fighters (NANOCD01)[/url]
[url=viewtopic.php?t=3318287]04 - 2003.09.30 - Brute Force (SE-2006-2)[/url]
[url=viewtopic.php?t=3336242]05 - 2004.06.01 - Hitman Contracts (SE-2010-2)[/url]
[url=viewtopic.php?t=3700771]06 - 2005.02.15 - Robotech Invasion (SE-2015-2)[/url]
[url=viewtopic.php?t=3336242]07 - 2005.05.03 - Hitman Codename 47 • Hitman 2 Silent Assassin (LLLCD 1030)[/url]
[url=viewtopic.php?t=3336242]08 - 2006.05.30 - Hitman Blood Money (SE-2024-2)[/url]
[url=viewtopic.php?t=3324995]09 - 2007.11.20 - Unreal Tournament III (SE-2039-2)[/url]
[url=viewtopic.php?t=3192541]10 - 2009.12.08 - Borderlands (SE-2072-2)[/url]
[url=viewtopic.php?t=5132349]11 - 2015.10.02 - Assassin's Creed (SE-3144-2)[/url]
[url=viewtopic.php?t=5132349]12 - 2015.10.02 - Assassin's Creed II (SE-3145-2)[/url]
[url=viewtopic.php?t=5132349]13 - 2015.10.02 - Assassin's Creed Brotherhood (SE-3147-2)[/url]
[url=viewtopic.php?t=5132349]14 - 2015.10.02 - Assassin's Creed Revelations (SE-3148-2)[/url]
раздачи других релизеров
[url=viewtopic.php?t=1171147]2003 - Jesper Kyd - Minority Report[/url]
[url=viewtopic.php?t=4183372]2012 - Darksiders II Original Soundtrack (by Jesper Kyd)[/url]
[url=viewtopic.php?t=3932651]2012 - Soul Calibur V Original Soundtrack (Junichi Nakatsuru, Hiroki Kikuta, Tomoki Miyoshi, Andrew Aversa, Cris Velasco, Inon Zur, Jillian Aversa, Jesper Kyd)[/url]
[url=viewtopic.php?t=4858351]2014 - Borderlands: The Pre-Sequel (by Jesper Kyd, Des Shore & Justin Mullins)[/url]
[url=viewtopic.php?t=5013468]2015 - State of Decay + Year-One Survival Edition (by Jesper Kyd & Dreissk) {WEB}[/url]




Hitman 2 Silent Assassin - Original Soundtrack




.::: Жанр: Score ::: Композиторы: Jesper Kyd, Pierre Foldes ::: Год выпуска диска: 2002 ::: Производитель диска: United Kingdom ::: Издатель: LynneMusic Productions ::: Номер по каталогу: LYNCD011 ::: Аудио кодек: FLAC (*.flac) ::: Тип рипа: tracks+.cue ::: Битрейт аудио: lossless ::: Продолжительность: 01:04:57.47 ::: Наличие сканов в содержимом раздачи: да ::: Источник: собственный рип :::.


 
01. Jesper Kyd - Hitman 2 Main Title [0:02:09.01]
02. Jesper Kyd - Waiting for Action [0:01:54.72]
03. Jesper Kyd - Action Begins [0:02:05.31]
04. Jesper Kyd & Pierre Foldes - 47 Makes a Decision [0:02:06.39]
05. Jesper Kyd - The Penthouse [0:02:02.32]
06. Jesper Kyd - Japanese Mansion [0:02:15.07]
07. Jesper Kyd - Japanese Snow Castle [0:02:19.68]
08. Jesper Kyd - Streets of India [0:02:04.51]
09. Jesper Kyd - Mission in India [0:02:08.26]
10. Jesper Kyd - 47 in St. Petersburg [0:01:56.37]
11. Jesper Kyd - Trouble in Russia [0:01:54.61]
12. Jesper Kyd - Desert Sun [0:02:07.04]
13. Jesper Kyd - Arabian Dance [0:01:51.03]
14. Jesper Kyd & Pierre Foldes - The Setup [0:02:00.41]
15. Pierre Foldes - End Boss [0:02:31.47]
16. Jesper Kyd - Slow Ambience [0:02:43.30]
17. Jesper Kyd - Fast Ambience [0:02:15.35]
18. Jesper Kyd - H2 Exploration [0:04:10.24]
19. Jesper Kyd - H2 Action [0:02:06.48]
20. Jesper Kyd - Dreams of Istanbul (Unreleased) [0:07:46.36]
21. Jesper Kyd - Hong Kong Themes (Hitman Codename 47) [0:07:34.32]
22. Jesper Kyd - 47 Main Title (Hitman Codename 47) [0:06:52.72]
 

Код:

Exact Audio Copy V0.99 prebeta 5 from 4. May 2009

EAC extraction logfile from 30. November 2010, 1:53

Various / Hitman 2 Silent Assassin - Original Soundtrack

Used drive  : PIONEER DVD-RW  DVR-216D   Adapter: 3  ID: 0

Read mode               : Secure
Utilize accurate stream : Yes
Defeat audio cache      : Yes
Make use of C2 pointers : No

Read offset correction                      : 96
Overread into Lead-In and Lead-Out          : No
Fill up missing offset samples with silence : Yes
Delete leading and trailing silent blocks   : No
Null samples used in CRC calculations       : Yes
Used interface                              : Native Win32 interface for Win NT & 2000
Gap handling                                : Appended to previous track

Used output format              : User Defined Encoder
Selected bitrate                : 1024 kBit/s
Quality                         : High
Add ID3 tag                     : No
Command line compressor         : C:\Program Files\Exact Audio Copy\Flac\flac.exe
Additional command line options : -8 -V -T "ARTIST=%a" -T "TITLE=%t" -T "ALBUM=%g" -T "DATE=%y" -T "TRACKNUMBER=%n" -T "GENRE=%m" -T "COMMENT=EAC FLAC -8" %s

TOC of the extracted CD

     Track |   Start  |  Length  | Start sector | End sector
    ---------------------------------------------------------
        1  |  0:00.00 |  2:09.01 |         0    |     9675
        2  |  2:09.01 |  1:54.72 |      9676    |    18297
        3  |  4:03.73 |  2:05.31 |     18298    |    27703
        4  |  6:09.29 |  2:06.39 |     27704    |    37192
        5  |  8:15.68 |  2:02.32 |     37193    |    46374
        6  | 10:18.25 |  2:15.07 |     46375    |    56506
        7  | 12:33.32 |  2:19.68 |     56507    |    66999
        8  | 14:53.25 |  2:04.51 |     67000    |    76350
        9  | 16:58.01 |  2:08.26 |     76351    |    85976
       10  | 19:06.27 |  1:56.37 |     85977    |    94713
       11  | 21:02.64 |  1:54.61 |     94714    |   103324
       12  | 22:57.50 |  2:07.04 |    103325    |   112853
       13  | 25:04.54 |  1:51.03 |    112854    |   121181
       14  | 26:55.57 |  2:00.41 |    121182    |   130222
       15  | 28:56.23 |  2:31.47 |    130223    |   141594
       16  | 31:27.70 |  2:43.30 |    141595    |   153849
       17  | 34:11.25 |  2:15.35 |    153850    |   164009
       18  | 36:26.60 |  4:10.24 |    164010    |   182783
       19  | 40:37.09 |  2:06.48 |    182784    |   192281
       20  | 42:43.57 |  7:46.36 |    192282    |   227267
       21  | 50:30.18 |  7:34.32 |    227268    |   261349
       22  | 58:04.50 |  6:52.72 |    261350    |   292321

Track  1

     Filename E:\Jesper Kyd Discography\02 - 2002.10.28 - Hitman 2 Silent Assassin (LYNCD011)\01. Jesper Kyd – Hitman 2 Main Title.wav

     Pre-gap length  0:00:02.00

     Peak level 91.7 %
     Track quality 100.0 %
     Test CRC 6A8E68A0
     Copy CRC 6A8E68A0
     Accurately ripped (confidence 4)  [E1EBE486]
     Copy OK

Track  2

     Filename E:\Jesper Kyd Discography\02 - 2002.10.28 - Hitman 2 Silent Assassin (LYNCD011)\02. Jesper Kyd – Waiting for Action.wav

     Peak level 84.7 %
     Track quality 100.0 %
     Test CRC 4E87AA6B
     Copy CRC 4E87AA6B
     Accurately ripped (confidence 4)  [599A7A43]
     Copy OK

Track  3

     Filename E:\Jesper Kyd Discography\02 - 2002.10.28 - Hitman 2 Silent Assassin (LYNCD011)\03. Jesper Kyd – Action Begins.wav

     Peak level 94.6 %
     Track quality 100.0 %
     Test CRC 928D2008
     Copy CRC 928D2008
     Accurately ripped (confidence 4)  [633A1481]
     Copy OK

Track  4

     Filename E:\Jesper Kyd Discography\02 - 2002.10.28 - Hitman 2 Silent Assassin (LYNCD011)\04. Jesper Kyd & Pierre Foldes – 47 Makes a Decision.wav

     Peak level 96.0 %
     Track quality 99.9 %
     Test CRC 62C153D5
     Copy CRC 62C153D5
     Accurately ripped (confidence 4)  [6695682B]
     Copy OK

Track  5

     Filename E:\Jesper Kyd Discography\02 - 2002.10.28 - Hitman 2 Silent Assassin (LYNCD011)\05. Jesper Kyd – The Penthouse.wav

     Peak level 98.7 %
     Track quality 100.0 %
     Test CRC 9DC66D15
     Copy CRC 9DC66D15
     Accurately ripped (confidence 4)  [58F6A319]
     Copy OK

Track  6

     Filename E:\Jesper Kyd Discography\02 - 2002.10.28 - Hitman 2 Silent Assassin (LYNCD011)\06. Jesper Kyd – Japanese Mansion.wav

     Peak level 97.3 %
     Track quality 100.0 %
     Test CRC C420DFCE
     Copy CRC C420DFCE
     Accurately ripped (confidence 4)  [4A00A336]
     Copy OK

Track  7

     Filename E:\Jesper Kyd Discography\02 - 2002.10.28 - Hitman 2 Silent Assassin (LYNCD011)\07. Jesper Kyd – Japanese Snow Castle.wav

     Peak level 97.3 %
     Track quality 100.0 %
     Test CRC B550A573
     Copy CRC B550A573
     Accurately ripped (confidence 4)  [C2425C43]
     Copy OK

Track  8

     Filename E:\Jesper Kyd Discography\02 - 2002.10.28 - Hitman 2 Silent Assassin (LYNCD011)\08. Jesper Kyd – Streets of India.wav

     Peak level 74.9 %
     Track quality 100.0 %
     Test CRC D44CA880
     Copy CRC D44CA880
     Accurately ripped (confidence 4)  [D6AFCFB0]
     Copy OK

Track  9

     Filename E:\Jesper Kyd Discography\02 - 2002.10.28 - Hitman 2 Silent Assassin (LYNCD011)\09. Jesper Kyd – Mission in India.wav

     Peak level 97.4 %
     Track quality 100.0 %
     Test CRC B5C37323
     Copy CRC B5C37323
     Accurately ripped (confidence 4)  [AE09B59B]
     Copy OK

Track 10

     Filename E:\Jesper Kyd Discography\02 - 2002.10.28 - Hitman 2 Silent Assassin (LYNCD011)\10. Jesper Kyd – 47 in St. Petersburg.wav

     Peak level 99.0 %
     Track quality 100.0 %
     Test CRC 67AAD4A6
     Copy CRC 67AAD4A6
     Accurately ripped (confidence 4)  [0FB8700D]
     Copy OK

Track 11

     Filename E:\Jesper Kyd Discography\02 - 2002.10.28 - Hitman 2 Silent Assassin (LYNCD011)\11. Jesper Kyd – Trouble in Russia.wav

     Peak level 96.1 %
     Track quality 100.0 %
     Test CRC A91DF740
     Copy CRC A91DF740
     Accurately ripped (confidence 4)  [5D846643]
     Copy OK

Track 12

     Filename E:\Jesper Kyd Discography\02 - 2002.10.28 - Hitman 2 Silent Assassin (LYNCD011)\12. Jesper Kyd – Desert Sun.wav

     Peak level 96.4 %
     Track quality 100.0 %
     Test CRC E9D7CB2F
     Copy CRC E9D7CB2F
     Accurately ripped (confidence 4)  [7A1DF264]
     Copy OK

Track 13

     Filename E:\Jesper Kyd Discography\02 - 2002.10.28 - Hitman 2 Silent Assassin (LYNCD011)\13. Jesper Kyd – Arabian Dance.wav

     Peak level 100.0 %
     Track quality 100.0 %
     Test CRC F9E6B40A
     Copy CRC F9E6B40A
     Accurately ripped (confidence 4)  [3351A2F6]
     Copy OK

Track 14

     Filename E:\Jesper Kyd Discography\02 - 2002.10.28 - Hitman 2 Silent Assassin (LYNCD011)\14. Jesper Kyd & Pierre Foldes – The Setup.wav

     Peak level 92.6 %
     Track quality 99.9 %
     Test CRC D42DEB63
     Copy CRC D42DEB63
     Accurately ripped (confidence 4)  [0A8C2D61]
     Copy OK

Track 15

     Filename E:\Jesper Kyd Discography\02 - 2002.10.28 - Hitman 2 Silent Assassin (LYNCD011)\15. Pierre Foldes – End Boss.wav

     Peak level 99.4 %
     Track quality 100.0 %
     Test CRC 5E8301E0
     Copy CRC 5E8301E0
     Accurately ripped (confidence 4)  [5E0CC1B8]
     Copy OK

Track 16

     Filename E:\Jesper Kyd Discography\02 - 2002.10.28 - Hitman 2 Silent Assassin (LYNCD011)\16. Jesper Kyd – Slow Ambience.wav

     Pre-gap length  0:00:02.00

     Peak level 100.0 %
     Track quality 100.0 %
     Test CRC 2266B7BD
     Copy CRC 2266B7BD
     Accurately ripped (confidence 4)  [4331A1E1]
     Copy OK

Track 17

     Filename E:\Jesper Kyd Discography\02 - 2002.10.28 - Hitman 2 Silent Assassin (LYNCD011)\17. Jesper Kyd – Fast Ambience.wav

     Peak level 90.6 %
     Track quality 99.9 %
     Test CRC CC9A0AB2
     Copy CRC CC9A0AB2
     Accurately ripped (confidence 4)  [069041EB]
     Copy OK

Track 18

     Filename E:\Jesper Kyd Discography\02 - 2002.10.28 - Hitman 2 Silent Assassin (LYNCD011)\18. Jesper Kyd – H2 Exploration.wav

     Pre-gap length  0:00:02.00

     Peak level 97.3 %
     Track quality 100.0 %
     Test CRC 29B2909C
     Copy CRC 29B2909C
     Accurately ripped (confidence 4)  [2642DBB2]
     Copy OK

Track 19

     Filename E:\Jesper Kyd Discography\02 - 2002.10.28 - Hitman 2 Silent Assassin (LYNCD011)\19. Jesper Kyd – H2 Action.wav

     Peak level 100.0 %
     Track quality 100.0 %
     Test CRC 98BD7CC5
     Copy CRC 98BD7CC5
     Accurately ripped (confidence 4)  [17228054]
     Copy OK

Track 20

     Filename E:\Jesper Kyd Discography\02 - 2002.10.28 - Hitman 2 Silent Assassin (LYNCD011)\20. Jesper Kyd – Dreams of Istanbul (Unreleased).wav

     Pre-gap length  0:00:02.00

     Peak level 99.2 %
     Track quality 100.0 %
     Test CRC 527C6AE7
     Copy CRC 527C6AE7
     Accurately ripped (confidence 4)  [F9D05726]
     Copy OK

Track 21

     Filename E:\Jesper Kyd Discography\02 - 2002.10.28 - Hitman 2 Silent Assassin (LYNCD011)\21. Jesper Kyd – Hong Kong Themes (Hitman Codename 47).wav

     Pre-gap length  0:00:02.00

     Peak level 77.9 %
     Track quality 100.0 %
     Test CRC A6815DF4
     Copy CRC A6815DF4
     Accurately ripped (confidence 4)  [24F3E415]
     Copy OK

Track 22

     Filename E:\Jesper Kyd Discography\02 - 2002.10.28 - Hitman 2 Silent Assassin (LYNCD011)\22. Jesper Kyd – 47 Main Title (Hitman Codename 47).wav

     Peak level 100.0 %
     Track quality 100.0 %
     Test CRC D7D12468
     Copy CRC D7D12468
     Accurately ripped (confidence 4)  [5D267846]
     Copy OK

All tracks accurately ripped

No errors occurred

End of status report
 

Код:

REM GENRE Soundtrack
REM DATE 2002
REM DISCID 390F3916
REM COMMENT "ExactAudioCopy v0.99pb5"
PERFORMER "Various"
TITLE "Hitman 2 Silent Assassin - Original Soundtrack"
FILE "01. Jesper Kyd – Hitman 2 Main Title.wav" WAVE
  TRACK 01 AUDIO
    TITLE "Hitman 2 Main Title"
    PERFORMER "Jesper Kyd"
    INDEX 01 00:00:00
FILE "02. Jesper Kyd – Waiting for Action.wav" WAVE
  TRACK 02 AUDIO
    TITLE "Waiting for Action"
    PERFORMER "Jesper Kyd"
    INDEX 01 00:00:00
FILE "03. Jesper Kyd – Action Begins.wav" WAVE
  TRACK 03 AUDIO
    TITLE "Action Begins"
    PERFORMER "Jesper Kyd"
    INDEX 01 00:00:00
FILE "04. Jesper Kyd & Pierre Foldes – 47 Makes a Decision.wav" WAVE
  TRACK 04 AUDIO
    TITLE "47 Makes a Decision"
    PERFORMER "Jesper Kyd & Pierre Foldes"
    INDEX 01 00:00:00
FILE "05. Jesper Kyd – The Penthouse.wav" WAVE
  TRACK 05 AUDIO
    TITLE "The Penthouse"
    PERFORMER "Jesper Kyd"
    INDEX 01 00:00:00
FILE "06. Jesper Kyd – Japanese Mansion.wav" WAVE
  TRACK 06 AUDIO
    TITLE "Japanese Mansion"
    PERFORMER "Jesper Kyd"
    INDEX 01 00:00:00
FILE "07. Jesper Kyd – Japanese Snow Castle.wav" WAVE
  TRACK 07 AUDIO
    TITLE "Japanese Snow Castle"
    PERFORMER "Jesper Kyd"
    INDEX 01 00:00:00
FILE "08. Jesper Kyd – Streets of India.wav" WAVE
  TRACK 08 AUDIO
    TITLE "Streets of India"
    PERFORMER "Jesper Kyd"
    INDEX 01 00:00:00
FILE "09. Jesper Kyd – Mission in India.wav" WAVE
  TRACK 09 AUDIO
    TITLE "Mission in India"
    PERFORMER "Jesper Kyd"
    INDEX 01 00:00:00
FILE "10. Jesper Kyd – 47 in St. Petersburg.wav" WAVE
  TRACK 10 AUDIO
    TITLE "47 in St. Petersburg"
    PERFORMER "Jesper Kyd"
    INDEX 01 00:00:00
FILE "11. Jesper Kyd – Trouble in Russia.wav" WAVE
  TRACK 11 AUDIO
    TITLE "Trouble in Russia"
    PERFORMER "Jesper Kyd"
    INDEX 01 00:00:00
FILE "12. Jesper Kyd – Desert Sun.wav" WAVE
  TRACK 12 AUDIO
    TITLE "Desert Sun"
    PERFORMER "Jesper Kyd"
    INDEX 01 00:00:00
FILE "13. Jesper Kyd – Arabian Dance.wav" WAVE
  TRACK 13 AUDIO
    TITLE "Arabian Dance"
    PERFORMER "Jesper Kyd"
    INDEX 01 00:00:00
FILE "14. Jesper Kyd & Pierre Foldes – The Setup.wav" WAVE
  TRACK 14 AUDIO
    TITLE "The Setup"
    PERFORMER "Jesper Kyd & Pierre Foldes"
    INDEX 01 00:00:00
FILE "15. Pierre Foldes – End Boss.wav" WAVE
  TRACK 15 AUDIO
    TITLE "End Boss"
    PERFORMER "Pierre Foldes"
    INDEX 01 00:00:00
  TRACK 16 AUDIO
    TITLE "Slow Ambience"
    PERFORMER "Jesper Kyd"
    INDEX 00 02:29:47
FILE "16. Jesper Kyd – Slow Ambience.wav" WAVE
    INDEX 01 00:00:00
FILE "17. Jesper Kyd – Fast Ambience.wav" WAVE
  TRACK 17 AUDIO
    TITLE "Fast Ambience"
    PERFORMER "Jesper Kyd"
    INDEX 01 00:00:00
  TRACK 18 AUDIO
    TITLE "H2 Exploration"
    PERFORMER "Jesper Kyd"
    INDEX 00 02:13:35
FILE "18. Jesper Kyd – H2 Exploration.wav" WAVE
    INDEX 01 00:00:00
FILE "19. Jesper Kyd – H2 Action.wav" WAVE
  TRACK 19 AUDIO
    TITLE "H2 Action"
    PERFORMER "Jesper Kyd"
    INDEX 01 00:00:00
  TRACK 20 AUDIO
    TITLE "Dreams of Istanbul (Unreleased)"
    PERFORMER "Jesper Kyd"
    INDEX 00 02:04:48
FILE "20. Jesper Kyd – Dreams of Istanbul (Unreleased).wav" WAVE
    INDEX 01 00:00:00
  TRACK 21 AUDIO
    TITLE "Hong Kong Themes (Hitman Codename 47)"
    PERFORMER "Jesper Kyd"
    INDEX 00 07:44:36
FILE "21. Jesper Kyd – Hong Kong Themes (Hitman Codename 47).wav" WAVE
    INDEX 01 00:00:00
FILE "22. Jesper Kyd – 47 Main Title (Hitman Codename 47).wav" WAVE
  TRACK 22 AUDIO
    TITLE "47 Main Title (Hitman Codename 47)"
    PERFORMER "Jesper Kyd"
    INDEX 01 00:00:00




Hitman Contracts - Original Soundtrack




.::: Жанр: Score ::: Композитор: Jesper Kyd ::: Год выпуска диска: 2004 ::: Производитель диска: US ::: Издатель: Sumthing Else Distribution ::: Номер по каталогу: SE-2010-2 ::: Аудио кодек: FLAC (*.flac) ::: Тип рипа: tracks+.cue ::: Битрейт аудио: lossless ::: Продолжительность: 01:00:34.16 ::: Наличие сканов в содержимом раздачи: да ::: Источник: собственный рип :::.


 
01. White Room & Main Title [0:05:31.15]
02. SWAT Team [0:03:58.24]
03. Hong Kong Underground [0:04:43.13]
04. Slaughter Club [0:08:51.17]
05. Streets of Hong Kong [0:06:39.71]
06. Double Ballers [0:02:36.08]
07. Winter Night [0:03:34.20]
08. Weapon Select Beats [0:01:40.20]
09. 47 Detected [0:03:09.72]
10. Invader [0:03:42.09]
11. Slaughterhouse [0:06:13.70]
12. Sanitarium [0:04:29.70]
13. Budapest Bath Hotel [0:05:23.57]
 

Код:

Exact Audio Copy V0.99 prebeta 5 from 4. May 2009

EAC extraction logfile from 1. December 2010, 22:03

Jesper Kyd / Hitman Contracts Original Soundtrack

Used drive  : PIONEER DVD-RW  DVR-216D   Adapter: 3  ID: 0

Read mode               : Secure
Utilize accurate stream : Yes
Defeat audio cache      : Yes
Make use of C2 pointers : No

Read offset correction                      : 96
Overread into Lead-In and Lead-Out          : No
Fill up missing offset samples with silence : Yes
Delete leading and trailing silent blocks   : No
Null samples used in CRC calculations       : Yes
Used interface                              : Native Win32 interface for Win NT & 2000
Gap handling                                : Appended to previous track

Used output format              : User Defined Encoder
Selected bitrate                : 1024 kBit/s
Quality                         : High
Add ID3 tag                     : No
Command line compressor         : C:\Program Files\Exact Audio Copy\Flac\flac.exe
Additional command line options : -8 -V -T "ARTIST=%a" -T "TITLE=%t" -T "ALBUM=%g" -T "DATE=%y" -T "TRACKNUMBER=%n" -T "GENRE=%m" -T "COMMENT=EAC FLAC -8" %s

TOC of the extracted CD

     Track |   Start  |  Length  | Start sector | End sector
    ---------------------------------------------------------
        1  |  0:00.00 |  5:31.15 |         0    |    24839
        2  |  5:31.15 |  3:58.24 |     24840    |    42713
        3  |  9:29.39 |  4:43.13 |     42714    |    63951
        4  | 14:12.52 |  8:51.17 |     63952    |   103793
        5  | 23:03.69 |  6:39.71 |    103794    |   133789
        6  | 29:43.65 |  2:36.08 |    133790    |   145497
        7  | 32:19.73 |  3:34.20 |    145498    |   161567
        8  | 35:54.18 |  1:40.20 |    161568    |   169087
        9  | 37:34.38 |  3:09.72 |    169088    |   183334
       10  | 40:44.35 |  3:42.09 |    183335    |   199993
       11  | 44:26.44 |  6:13.70 |    199994    |   228038
       12  | 50:40.39 |  4:29.70 |    228039    |   248283
       13  | 55:10.34 |  5:23.57 |    248284    |   272565

Track  1

     Filename E:\Jesper Kyd Discography\05 - 2004.06.01 - Hitman Contracts (SE-2010-2)\01 - White Room & Main Title.wav

     Pre-gap length  0:00:02.00

     Peak level 100.0 %
     Track quality 100.0 %
     Test CRC 49CDA049
     Copy CRC 49CDA049
     Accurately ripped (confidence 9)  [D3FDECF3]
     Copy OK

Track  2

     Filename E:\Jesper Kyd Discography\05 - 2004.06.01 - Hitman Contracts (SE-2010-2)\02 - SWAT Team.wav

     Pre-gap length  0:00:02.00

     Peak level 100.0 %
     Track quality 100.0 %
     Test CRC 7FD1B641
     Copy CRC 7FD1B641
     Accurately ripped (confidence 9)  [F8135083]
     Copy OK

Track  3

     Filename E:\Jesper Kyd Discography\05 - 2004.06.01 - Hitman Contracts (SE-2010-2)\03 - Hong Kong Underground.wav

     Peak level 100.0 %
     Track quality 100.0 %
     Test CRC EBF34349
     Copy CRC EBF34349
     Accurately ripped (confidence 9)  [D0636CAF]
     Copy OK

Track  4

     Filename E:\Jesper Kyd Discography\05 - 2004.06.01 - Hitman Contracts (SE-2010-2)\04 - Slaughter Club.wav

     Pre-gap length  0:00:02.00

     Peak level 97.5 %
     Track quality 100.0 %
     Test CRC 669C6032
     Copy CRC 669C6032
     Accurately ripped (confidence 9)  [F3117ECC]
     Copy OK

Track  5

     Filename E:\Jesper Kyd Discography\05 - 2004.06.01 - Hitman Contracts (SE-2010-2)\05 - Streets of Hong Kong.wav

     Pre-gap length  0:00:06.00

     Peak level 99.9 %
     Track quality 100.0 %
     Test CRC D55EFD01
     Copy CRC D55EFD01
     Accurately ripped (confidence 9)  [87192968]
     Copy OK

Track  6

     Filename E:\Jesper Kyd Discography\05 - 2004.06.01 - Hitman Contracts (SE-2010-2)\06 - Double Ballers.wav

     Peak level 100.0 %
     Track quality 100.0 %
     Test CRC 42257848
     Copy CRC 42257848
     Accurately ripped (confidence 9)  [9B6EE837]
     Copy OK

Track  7

     Filename E:\Jesper Kyd Discography\05 - 2004.06.01 - Hitman Contracts (SE-2010-2)\07 - Winter Night.wav

     Peak level 99.9 %
     Track quality 100.0 %
     Test CRC 0F92FB13
     Copy CRC 0F92FB13
     Accurately ripped (confidence 9)  [6AB4A0DA]
     Copy OK

Track  8

     Filename E:\Jesper Kyd Discography\05 - 2004.06.01 - Hitman Contracts (SE-2010-2)\08 - Weapon Select Beats.wav

     Peak level 100.0 %
     Track quality 99.8 %
     Test CRC C1733428
     Copy CRC C1733428
     Accurately ripped (confidence 9)  [E81FCEAB]
     Copy OK

Track  9

     Filename E:\Jesper Kyd Discography\05 - 2004.06.01 - Hitman Contracts (SE-2010-2)\09 - 47 Detected.wav

     Pre-gap length  0:00:02.00

     Peak level 100.0 %
     Track quality 100.0 %
     Test CRC 6D41174E
     Copy CRC 6D41174E
     Accurately ripped (confidence 9)  [97ADEC6C]
     Copy OK

Track 10

     Filename E:\Jesper Kyd Discography\05 - 2004.06.01 - Hitman Contracts (SE-2010-2)\10 - Invader.wav

     Pre-gap length  0:00:02.00

     Peak level 99.9 %
     Track quality 100.0 %
     Test CRC 21B3982C
     Copy CRC 21B3982C
     Accurately ripped (confidence 9)  [018E956F]
     Copy OK

Track 11

     Filename E:\Jesper Kyd Discography\05 - 2004.06.01 - Hitman Contracts (SE-2010-2)\11 - Slaughterhouse.wav

     Pre-gap length  0:00:02.00

     Peak level 99.9 %
     Track quality 100.0 %
     Test CRC D027CE07
     Copy CRC D027CE07
     Accurately ripped (confidence 9)  [7714DA7E]
     Copy OK

Track 12

     Filename E:\Jesper Kyd Discography\05 - 2004.06.01 - Hitman Contracts (SE-2010-2)\12 - Sanitarium.wav

     Pre-gap length  0:00:05.00

     Peak level 100.0 %
     Track quality 100.0 %
     Test CRC C54A4073
     Copy CRC C54A4073
     Accurately ripped (confidence 9)  [EB9B43B2]
     Copy OK

Track 13

     Filename E:\Jesper Kyd Discography\05 - 2004.06.01 - Hitman Contracts (SE-2010-2)\13 - Budapest Bath Hotel.wav

     Pre-gap length  0:00:06.00

     Peak level 100.0 %
     Track quality 99.9 %
     Test CRC 6EF3F4CC
     Copy CRC 6EF3F4CC
     Accurately ripped (confidence 9)  [9111076F]
     Copy OK

All tracks accurately ripped

No errors occurred

End of status report
 

Код:

REM GENRE Soundtrack
REM DATE 2004
REM DISCID B30E320D
REM COMMENT "ExactAudioCopy v0.99pb5"
PERFORMER "Jesper Kyd"
TITLE "Hitman Contracts Original Soundtrack"
FILE "01 - White Room & Main Title.wav" WAVE
  TRACK 01 AUDIO
    TITLE "White Room & Main Title"
    PERFORMER "Jesper Kyd"
    FLAGS DCP
    INDEX 01 00:00:00
  TRACK 02 AUDIO
    TITLE "SWAT Team"
    PERFORMER "Jesper Kyd"
    FLAGS DCP
    INDEX 00 05:29:15
FILE "02 - SWAT Team.wav" WAVE
    INDEX 01 00:00:00
FILE "03 - Hong Kong Underground.wav" WAVE
  TRACK 03 AUDIO
    TITLE "Hong Kong Underground"
    PERFORMER "Jesper Kyd"
    FLAGS DCP
    INDEX 01 00:00:00
  TRACK 04 AUDIO
    TITLE "Slaughter Club"
    PERFORMER "Jesper Kyd"
    FLAGS DCP
    INDEX 00 04:41:13
FILE "04 - Slaughter Club.wav" WAVE
    INDEX 01 00:00:00
  TRACK 05 AUDIO
    TITLE "Streets of Hong Kong"
    PERFORMER "Jesper Kyd"
    FLAGS DCP
    INDEX 00 08:45:17
FILE "05 - Streets of Hong Kong.wav" WAVE
    INDEX 01 00:00:00
FILE "06 - Double Ballers.wav" WAVE
  TRACK 06 AUDIO
    TITLE "Double Ballers"
    PERFORMER "Jesper Kyd"
    FLAGS DCP
    INDEX 01 00:00:00
FILE "07 - Winter Night.wav" WAVE
  TRACK 07 AUDIO
    TITLE "Winter Night"
    PERFORMER "Jesper Kyd"
    FLAGS DCP
    INDEX 01 00:00:00
FILE "08 - Weapon Select Beats.wav" WAVE
  TRACK 08 AUDIO
    TITLE "Weapon Select Beats"
    PERFORMER "Jesper Kyd"
    FLAGS DCP
    INDEX 01 00:00:00
  TRACK 09 AUDIO
    TITLE "47 Detected"
    PERFORMER "Jesper Kyd"
    FLAGS DCP
    INDEX 00 01:38:20
FILE "09 - 47 Detected.wav" WAVE
    INDEX 01 00:00:00
  TRACK 10 AUDIO
    TITLE "Invader"
    PERFORMER "Jesper Kyd"
    FLAGS DCP
    INDEX 00 03:07:72
FILE "10 - Invader.wav" WAVE
    INDEX 01 00:00:00
  TRACK 11 AUDIO
    TITLE "Slaughterhouse"
    PERFORMER "Jesper Kyd"
    FLAGS DCP
    INDEX 00 03:40:09
FILE "11 - Slaughterhouse.wav" WAVE
    INDEX 01 00:00:00
  TRACK 12 AUDIO
    TITLE "Sanitarium"
    PERFORMER "Jesper Kyd"
    FLAGS DCP
    INDEX 00 06:08:70
FILE "12 - Sanitarium.wav" WAVE
    INDEX 01 00:00:00
  TRACK 13 AUDIO
    TITLE "Budapest Bath Hotel"
    PERFORMER "Jesper Kyd"
    FLAGS DCP
    INDEX 00 04:23:70
FILE "13 - Budapest Bath Hotel.wav" WAVE
    INDEX 01 00:00:00




Hitman Codename 47 - Original Soundtrack




.::: Жанр: Score ::: Композиторы: Jesper Kyd, Pierre Foldes ::: Год выпуска диска: 2005 ::: Производитель диска: US ::: Издатель: La-La Land Records ::: Номер по каталогу: LLLCD 1030 ::: Аудио кодек: FLAC (*.flac) ::: Тип рипа: tracks+.cue ::: Битрейт аудио: lossless ::: Продолжительность: 01:07:47.50 ::: Наличие сканов в содержимом раздачи: да ::: Источник: собственный рип :::.


 
01. Jesper Kyd & Pierre Foldes - Intro [0:00:51.05]
02. Jesper Kyd - Main Title (Extended Version) [0:06:54.71]
03. Jesper Kyd - Hong Kong Themes [0:07:36.32]
04. Jesper Kyd - Jungle Exploration [0:03:22.52]
05. Jesper Kyd - Dark Jungle [0:02:28.07]
06. Jesper Kyd - Hotel Themes [0:08:25.00]
07. Jesper Kyd - Harbor Themes [0:06:47.02]
08. Jesper Kyd - Hospital Themes [0:11:35.56]
09. Jesper Kyd - Hotel Music (Early Demo) [0:03:26.27]
10. Jesper Kyd - Rainforest (Early Demo) [0:08:09.38]
11. Jesper Kyd - Atmosphere Demo [0:01:20.48]
12. Jesper Kyd - Main Title (Original Slow Version) [0:06:50.12]
 

Код:

Exact Audio Copy V0.99 prebeta 5 from 4. May 2009

EAC extraction logfile from 3. December 2010, 20:40

Various / Hitman Codename 47 Original Soundtrack

Used drive  : Optiarc DVD RW AD-7203A   Adapter: 6  ID: 0

Read mode               : Secure
Utilize accurate stream : Yes
Defeat audio cache      : Yes
Make use of C2 pointers : No

Read offset correction                      : 48
Overread into Lead-In and Lead-Out          : No
Fill up missing offset samples with silence : Yes
Delete leading and trailing silent blocks   : No
Null samples used in CRC calculations       : Yes
Used interface                              : Native Win32 interface for Win NT & 2000
Gap handling                                : Appended to previous track

Used output format              : User Defined Encoder
Selected bitrate                : 1024 kBit/s
Quality                         : High
Add ID3 tag                     : No
Command line compressor         : C:\Program Files\Exact Audio Copy\Flac\flac.exe
Additional command line options : -8 -V -T "ARTIST=%a" -T "TITLE=%t" -T "ALBUM=%g" -T "DATE=%y" -T "TRACKNUMBER=%n" -T "GENRE=%m" -T "COMMENT=EAC FLAC -8" %s

TOC of the extracted CD

     Track |   Start  |  Length  | Start sector | End sector
    ---------------------------------------------------------
        1  |  0:00.00 |  0:51.05 |         0    |     3829
        2  |  0:51.05 |  6:54.71 |      3830    |    34950
        3  |  7:46.01 |  7:36.32 |     34951    |    69182
        4  | 15:22.33 |  3:22.52 |     69183    |    84384
        5  | 18:45.10 |  2:28.07 |     84385    |    95491
        6  | 21:13.17 |  8:25.00 |     95492    |   133366
        7  | 29:38.17 |  6:47.02 |    133367    |   163893
        8  | 36:25.19 | 11:35.56 |    163894    |   216074
        9  | 48:01.00 |  3:26.27 |    216075    |   231551
       10  | 51:27.27 |  8:09.38 |    231552    |   268264
       11  | 59:36.65 |  1:20.48 |    268265    |   274312
       12  | 60:57.38 |  6:50.12 |    274313    |   305074

Track  1

     Filename E:\Jesper Kyd Discography\07 - 2005.05.03 - Hitman Codename 47 • Hitman 2 Silent Assassin (LLLCD 1030)\CD1 - 2005.05.03 - Hitman Codename 47 (LLLCD 1030)\01. Jesper Kyd & Pierre Foldes – Intro.wav

     Pre-gap length  0:00:02.00

     Peak level 95.1 %
     Track quality 100.0 %
     Test CRC F961C57E
     Copy CRC F961C57E
     Accurately ripped (confidence 2)  [9BF18D0B]
     Copy OK

Track  2

     Filename E:\Jesper Kyd Discography\07 - 2005.05.03 - Hitman Codename 47 • Hitman 2 Silent Assassin (LLLCD 1030)\CD1 - 2005.05.03 - Hitman Codename 47 (LLLCD 1030)\02. Jesper Kyd – Main Title (Extended Version).wav

     Pre-gap length  0:00:02.00

     Peak level 91.4 %
     Track quality 100.0 %
     Test CRC EFC96D4E
     Copy CRC EFC96D4E
     Accurately ripped (confidence 3)  [F0765AD1]
     Copy OK

Track  3

     Filename E:\Jesper Kyd Discography\07 - 2005.05.03 - Hitman Codename 47 • Hitman 2 Silent Assassin (LLLCD 1030)\CD1 - 2005.05.03 - Hitman Codename 47 (LLLCD 1030)\03. Jesper Kyd – Hong Kong Themes.wav

     Pre-gap length  0:00:02.00

     Peak level 93.1 %
     Track quality 100.0 %
     Test CRC 29122D02
     Copy CRC 29122D02
     Accurately ripped (confidence 3)  [1FB01018]
     Copy OK

Track  4

     Filename E:\Jesper Kyd Discography\07 - 2005.05.03 - Hitman Codename 47 • Hitman 2 Silent Assassin (LLLCD 1030)\CD1 - 2005.05.03 - Hitman Codename 47 (LLLCD 1030)\04. Jesper Kyd – Jungle Exploration.wav

     Pre-gap length  0:00:02.00

     Peak level 98.9 %
     Track quality 100.0 %
     Test CRC 9A56147E
     Copy CRC 9A56147E
     Accurately ripped (confidence 3)  [8F13621D]
     Copy OK

Track  5

     Filename E:\Jesper Kyd Discography\07 - 2005.05.03 - Hitman Codename 47 • Hitman 2 Silent Assassin (LLLCD 1030)\CD1 - 2005.05.03 - Hitman Codename 47 (LLLCD 1030)\05. Jesper Kyd – Dark Jungle.wav

     Pre-gap length  0:00:02.00

     Peak level 96.5 %
     Track quality 99.9 %
     Test CRC 3DE8187C
     Copy CRC 3DE8187C
     Accurately ripped (confidence 3)  [B9D183C6]
     Copy OK

Track  6

     Filename E:\Jesper Kyd Discography\07 - 2005.05.03 - Hitman Codename 47 • Hitman 2 Silent Assassin (LLLCD 1030)\CD1 - 2005.05.03 - Hitman Codename 47 (LLLCD 1030)\06. Jesper Kyd – Hotel Themes.wav

     Pre-gap length  0:00:02.00

     Peak level 87.9 %
     Track quality 100.0 %
     Test CRC 6E2CD198
     Copy CRC 6E2CD198
     Accurately ripped (confidence 3)  [14FF20A7]
     Copy OK

Track  7

     Filename E:\Jesper Kyd Discography\07 - 2005.05.03 - Hitman Codename 47 • Hitman 2 Silent Assassin (LLLCD 1030)\CD1 - 2005.05.03 - Hitman Codename 47 (LLLCD 1030)\07. Jesper Kyd – Harbor Themes.wav

     Pre-gap length  0:00:02.00

     Peak level 93.7 %
     Track quality 100.0 %
     Test CRC 504ED926
     Copy CRC 504ED926
     Accurately ripped (confidence 3)  [55F746B2]
     Copy OK

Track  8

     Filename E:\Jesper Kyd Discography\07 - 2005.05.03 - Hitman Codename 47 • Hitman 2 Silent Assassin (LLLCD 1030)\CD1 - 2005.05.03 - Hitman Codename 47 (LLLCD 1030)\08. Jesper Kyd – Hospital Themes.wav

     Pre-gap length  0:00:02.00

     Peak level 75.4 %
     Track quality 100.0 %
     Test CRC 25BF7134
     Copy CRC 25BF7134
     Accurately ripped (confidence 3)  [21933D2B]
     Copy OK

Track  9

     Filename E:\Jesper Kyd Discography\07 - 2005.05.03 - Hitman Codename 47 • Hitman 2 Silent Assassin (LLLCD 1030)\CD1 - 2005.05.03 - Hitman Codename 47 (LLLCD 1030)\09. Jesper Kyd – Hotel Music (Early Demo).wav

     Pre-gap length  0:00:02.00

     Peak level 91.1 %
     Track quality 100.0 %
     Test CRC C9EBA989
     Copy CRC C9EBA989
     Accurately ripped (confidence 3)  [EE4668F3]
     Copy OK

Track 10

     Filename E:\Jesper Kyd Discography\07 - 2005.05.03 - Hitman Codename 47 • Hitman 2 Silent Assassin (LLLCD 1030)\CD1 - 2005.05.03 - Hitman Codename 47 (LLLCD 1030)\10. Jesper Kyd – Rainforest (Early Demo).wav

     Pre-gap length  0:00:02.00

     Peak level 99.9 %
     Track quality 100.0 %
     Test CRC 502EE55F
     Copy CRC 502EE55F
     Accurately ripped (confidence 3)  [BF682FB1]
     Copy OK

Track 11

     Filename E:\Jesper Kyd Discography\07 - 2005.05.03 - Hitman Codename 47 • Hitman 2 Silent Assassin (LLLCD 1030)\CD1 - 2005.05.03 - Hitman Codename 47 (LLLCD 1030)\11. Jesper Kyd – Atmosphere Demo.wav

     Pre-gap length  0:00:02.00

     Peak level 80.6 %
     Track quality 100.0 %
     Test CRC 86E3551C
     Copy CRC 86E3551C
     Accurately ripped (confidence 3)  [D5C4A837]
     Copy OK

Track 12

     Filename E:\Jesper Kyd Discography\07 - 2005.05.03 - Hitman Codename 47 • Hitman 2 Silent Assassin (LLLCD 1030)\CD1 - 2005.05.03 - Hitman Codename 47 (LLLCD 1030)\12. Jesper Kyd – Main Title (Original Slow Version).wav

     Pre-gap length  0:00:02.00

     Peak level 87.0 %
     Track quality 100.0 %
     Test CRC A24E0395
     Copy CRC A24E0395
     Accurately ripped (confidence 3)  [4F365DFC]
     Copy OK

All tracks accurately ripped

No errors occurred

End of status report
 

Код:

REM GENRE Soundtrack
REM DATE 2005
REM DISCID BE0FE30C
REM COMMENT "ExactAudioCopy v0.99pb5"
PERFORMER "Various"
TITLE "Hitman Codename 47 Original Soundtrack"
FILE "01. Jesper Kyd & Pierre Foldes – Intro.wav" WAVE
  TRACK 01 AUDIO
    TITLE "Intro"
    PERFORMER "Jesper Kyd & Pierre Foldes"
    FLAGS DCP
    INDEX 01 00:00:00
  TRACK 02 AUDIO
    TITLE "Main Title (Extended Version)"
    PERFORMER "Jesper Kyd"
    FLAGS DCP
    INDEX 00 00:49:05
FILE "02. Jesper Kyd – Main Title (Extended Version).wav" WAVE
    INDEX 01 00:00:00
  TRACK 03 AUDIO
    TITLE "Hong Kong Themes"
    PERFORMER "Jesper Kyd"
    FLAGS DCP
    INDEX 00 06:52:71
FILE "03. Jesper Kyd – Hong Kong Themes.wav" WAVE
    INDEX 01 00:00:00
  TRACK 04 AUDIO
    TITLE "Jungle Exploration"
    PERFORMER "Jesper Kyd"
    FLAGS DCP
    INDEX 00 07:34:32
FILE "04. Jesper Kyd – Jungle Exploration.wav" WAVE
    INDEX 01 00:00:00
  TRACK 05 AUDIO
    TITLE "Dark Jungle"
    PERFORMER "Jesper Kyd"
    FLAGS DCP
    INDEX 00 03:20:52
FILE "05. Jesper Kyd – Dark Jungle.wav" WAVE
    INDEX 01 00:00:00
  TRACK 06 AUDIO
    TITLE "Hotel Themes"
    PERFORMER "Jesper Kyd"
    FLAGS DCP
    INDEX 00 02:26:07
FILE "06. Jesper Kyd – Hotel Themes.wav" WAVE
    INDEX 01 00:00:00
  TRACK 07 AUDIO
    TITLE "Harbor Themes"
    PERFORMER "Jesper Kyd"
    FLAGS DCP
    INDEX 00 08:23:00
FILE "07. Jesper Kyd – Harbor Themes.wav" WAVE
    INDEX 01 00:00:00
  TRACK 08 AUDIO
    TITLE "Hospital Themes"
    PERFORMER "Jesper Kyd"
    FLAGS DCP
    INDEX 00 06:45:02
FILE "08. Jesper Kyd – Hospital Themes.wav" WAVE
    INDEX 01 00:00:00
  TRACK 09 AUDIO
    TITLE "Hotel Music (Early Demo)"
    PERFORMER "Jesper Kyd"
    FLAGS DCP
    INDEX 00 11:33:56
FILE "09. Jesper Kyd – Hotel Music (Early Demo).wav" WAVE
    INDEX 01 00:00:00
  TRACK 10 AUDIO
    TITLE "Rainforest (Early Demo)"
    PERFORMER "Jesper Kyd"
    FLAGS DCP
    INDEX 00 03:24:27
FILE "10. Jesper Kyd – Rainforest (Early Demo).wav" WAVE
    INDEX 01 00:00:00
  TRACK 11 AUDIO
    TITLE "Atmosphere Demo"
    PERFORMER "Jesper Kyd"
    FLAGS DCP
    INDEX 00 08:07:38
FILE "11. Jesper Kyd – Atmosphere Demo.wav" WAVE
    INDEX 01 00:00:00
  TRACK 12 AUDIO
    TITLE "Main Title (Original Slow Version)"
    PERFORMER "Jesper Kyd"
    FLAGS DCP
    INDEX 00 01:18:48
FILE "12. Jesper Kyd – Main Title (Original Slow Version).wav" WAVE
    INDEX 01 00:00:00




Hitman 2 Silent Assassin - Original Soundtrack




.::: Жанр: Score ::: Композиторы: Jesper Kyd, Pierre Foldes ::: Год выпуска диска: 2005 ::: Производитель диска: US ::: Издатель: La-La Land Records ::: Номер по каталогу: LLLCD 1030 ::: Аудио кодек: FLAC (*.flac) ::: Тип рипа: tracks+.cue ::: Битрейт аудио: lossless ::: Продолжительность: 00:50:39.21 ::: Наличие сканов в содержимом раздачи: да ::: Источник: собственный рип :::.


 
01. Jesper Kyd - Hitman 2 Main Title [0:02:10.68]
02. Jesper Kyd - Waiting for Action [0:01:56.61]
03. Jesper Kyd - Action Begins [0:02:07.30]
04. Jesper Kyd & Pierre Foldes - 47 Makes a Decision [0:02:08.38]
05. Jesper Kyd - The Penthouse [0:02:03.26]
06. Jesper Kyd - Japanese Mansion [0:02:10.23]
07. Jesper Kyd - Japanese Snow Castle [0:02:21.66]
08. Jesper Kyd - Streets of India [0:02:05.49]
09. Jesper Kyd - Mission in India [0:02:10.26]
10. Jesper Kyd - 47 in St. Petersburg [0:01:57.35]
11. Jesper Kyd - Trouble in Russia [0:01:56.55]
12. Jesper Kyd - Desert Sun [0:02:09.03]
13. Jesper Kyd - Arabian Dance [0:01:53.03]
14. Jesper Kyd & Pierre Foldes - The Setup [0:02:02.13]
15. Pierre Foldes - End Boss [0:02:28.40]
16. Jesper Kyd - Slow Ambience [0:02:45.30]
17. Jesper Kyd - Fast Ambience [0:02:12.74]
18. Jesper Kyd - H2 Exploration [0:04:11.59]
19. Jesper Kyd - H2 Action [0:02:04.40]
20. Jesper Kyd - Dreams of Istanbul (Bonus Track) [0:07:42.32]
 

Код:

Exact Audio Copy V0.99 prebeta 5 from 4. May 2009

EAC extraction logfile from 3. December 2010, 23:01

Various / Hitman 2 Silent Assassin - Original Soundtrack

Used drive  : PIONEER DVD-RW  DVR-216D   Adapter: 3  ID: 0

Read mode               : Secure
Utilize accurate stream : Yes
Defeat audio cache      : Yes
Make use of C2 pointers : No

Read offset correction                      : 96
Overread into Lead-In and Lead-Out          : No
Fill up missing offset samples with silence : Yes
Delete leading and trailing silent blocks   : No
Null samples used in CRC calculations       : Yes
Used interface                              : Native Win32 interface for Win NT & 2000
Gap handling                                : Appended to previous track

Used output format              : User Defined Encoder
Selected bitrate                : 1024 kBit/s
Quality                         : High
Add ID3 tag                     : No
Command line compressor         : C:\Program Files\Exact Audio Copy\Flac\flac.exe
Additional command line options : -8 -V -T "ARTIST=%a" -T "TITLE=%t" -T "ALBUM=%g" -T "DATE=%y" -T "TRACKNUMBER=%n" -T "GENRE=%m" -T "COMMENT=EAC FLAC -8" %s

TOC of the extracted CD

     Track |   Start  |  Length  | Start sector | End sector
    ---------------------------------------------------------
        1  |  0:00.00 |  2:10.68 |         0    |     9817
        2  |  2:10.68 |  1:56.61 |      9818    |    18578
        3  |  4:07.54 |  2:07.30 |     18579    |    28133
        4  |  6:15.09 |  2:08.38 |     28134    |    37771
        5  |  8:23.47 |  2:03.26 |     37772    |    47022
        6  | 10:26.73 |  2:10.23 |     47023    |    56795
        7  | 12:37.21 |  2:21.66 |     56796    |    67436
        8  | 14:59.12 |  2:05.49 |     67437    |    76860
        9  | 17:04.61 |  2:10.26 |     76861    |    86636
       10  | 19:15.12 |  1:57.35 |     86637    |    95446
       11  | 21:12.47 |  1:56.55 |     95447    |   104201
       12  | 23:09.27 |  2:09.03 |    104202    |   113879
       13  | 25:18.30 |  1:53.03 |    113880    |   122357
       14  | 27:11.33 |  2:02.13 |    122358    |   131520
       15  | 29:13.46 |  2:28.40 |    131521    |   142660
       16  | 31:42.11 |  2:45.30 |    142661    |   155065
       17  | 34:27.41 |  2:12.74 |    155066    |   165039
       18  | 36:40.40 |  4:11.59 |    165040    |   183923
       19  | 40:52.24 |  2:04.40 |    183924    |   193263
       20  | 42:56.64 |  7:42.32 |    193264    |   227945

Track  1

     Filename E:\Jesper Kyd Discography\07 - 2005.05.03 - Hitman Codename 47 • Hitman 2 Silent Assassin (LLLCD 1030)\CD2 - 2005.05.03 - Hitman 2 Silent Assassin (LLLCD 1030)\01. Jesper Kyd – Hitman 2 Main Title.wav

     Pre-gap length  0:00:02.00

     Peak level 99.4 %
     Track quality 100.0 %
     Test CRC C7D8B805
     Copy CRC C7D8B805
     Accurately ripped (confidence 8)  [C041A433]
     Copy OK

Track  2

     Filename E:\Jesper Kyd Discography\07 - 2005.05.03 - Hitman Codename 47 • Hitman 2 Silent Assassin (LLLCD 1030)\CD2 - 2005.05.03 - Hitman 2 Silent Assassin (LLLCD 1030)\02. Jesper Kyd – Waiting for Action.wav

     Pre-gap length  0:00:02.00

     Peak level 84.7 %
     Track quality 100.0 %
     Test CRC 29888686
     Copy CRC 29888686
     Accurately ripped (confidence 8)  [735C0D22]
     Copy OK

Track  3

     Filename E:\Jesper Kyd Discography\07 - 2005.05.03 - Hitman Codename 47 • Hitman 2 Silent Assassin (LLLCD 1030)\CD2 - 2005.05.03 - Hitman 2 Silent Assassin (LLLCD 1030)\03. Jesper Kyd – Action Begins.wav

     Pre-gap length  0:00:02.00

     Peak level 97.7 %
     Track quality 100.0 %
     Test CRC CA57ED90
     Copy CRC CA57ED90
     Accurately ripped (confidence 8)  [551B92A3]
     Copy OK

Track  4

     Filename E:\Jesper Kyd Discography\07 - 2005.05.03 - Hitman Codename 47 • Hitman 2 Silent Assassin (LLLCD 1030)\CD2 - 2005.05.03 - Hitman 2 Silent Assassin (LLLCD 1030)\04. Jesper Kyd & Pierre Foldes – 47 Makes a Decision.wav

     Pre-gap length  0:00:02.00

     Peak level 99.3 %
     Track quality 99.9 %
     Test CRC 19923181
     Copy CRC 19923181
     Accurately ripped (confidence 8)  [4859BB44]
     Copy OK

Track  5

     Filename E:\Jesper Kyd Discography\07 - 2005.05.03 - Hitman Codename 47 • Hitman 2 Silent Assassin (LLLCD 1030)\CD2 - 2005.05.03 - Hitman 2 Silent Assassin (LLLCD 1030)\05. Jesper Kyd – The Penthouse.wav

     Pre-gap length  0:00:02.00

     Peak level 99.8 %
     Track quality 100.0 %
     Test CRC 2F8A9624
     Copy CRC 2F8A9624
     Accurately ripped (confidence 8)  [38A01358]
     Copy OK

Track  6

     Filename E:\Jesper Kyd Discography\07 - 2005.05.03 - Hitman Codename 47 • Hitman 2 Silent Assassin (LLLCD 1030)\CD2 - 2005.05.03 - Hitman 2 Silent Assassin (LLLCD 1030)\06. Jesper Kyd – Japanese Mansion.wav

     Pre-gap length  0:00:02.00

     Peak level 97.3 %
     Track quality 100.0 %
     Test CRC ADA85D08
     Copy CRC ADA85D08
     Accurately ripped (confidence 8)  [1277B365]
     Copy OK

Track  7

     Filename E:\Jesper Kyd Discography\07 - 2005.05.03 - Hitman Codename 47 • Hitman 2 Silent Assassin (LLLCD 1030)\CD2 - 2005.05.03 - Hitman 2 Silent Assassin (LLLCD 1030)\07. Jesper Kyd – Japanese Snow Castle.wav

     Pre-gap length  0:00:02.00

     Peak level 99.4 %
     Track quality 100.0 %
     Test CRC 8E20BF22
     Copy CRC 8E20BF22
     Accurately ripped (confidence 8)  [3108A397]
     Copy OK

Track  8

     Filename E:\Jesper Kyd Discography\07 - 2005.05.03 - Hitman Codename 47 • Hitman 2 Silent Assassin (LLLCD 1030)\CD2 - 2005.05.03 - Hitman 2 Silent Assassin (LLLCD 1030)\08. Jesper Kyd – Streets of India.wav

     Pre-gap length  0:00:02.00

     Peak level 94.3 %
     Track quality 100.0 %
     Test CRC FC08FDD0
     Copy CRC FC08FDD0
     Accurately ripped (confidence 8)  [CCDA7A1D]
     Copy OK

Track  9

     Filename E:\Jesper Kyd Discography\07 - 2005.05.03 - Hitman Codename 47 • Hitman 2 Silent Assassin (LLLCD 1030)\CD2 - 2005.05.03 - Hitman 2 Silent Assassin (LLLCD 1030)\09. Jesper Kyd – Mission in India.wav

     Pre-gap length  0:00:02.00

     Peak level 93.9 %
     Track quality 100.0 %
     Test CRC 99447566
     Copy CRC 99447566
     Accurately ripped (confidence 8)  [294F02D1]
     Copy OK

Track 10

     Filename E:\Jesper Kyd Discography\07 - 2005.05.03 - Hitman Codename 47 • Hitman 2 Silent Assassin (LLLCD 1030)\CD2 - 2005.05.03 - Hitman 2 Silent Assassin (LLLCD 1030)\10. Jesper Kyd – 47 in St. Petersburg.wav

     Pre-gap length  0:00:02.00

     Peak level 99.3 %
     Track quality 100.0 %
     Test CRC A8C2AF34
     Copy CRC A8C2AF34
     Accurately ripped (confidence 8)  [1ADDC092]
     Copy OK

Track 11

     Filename E:\Jesper Kyd Discography\07 - 2005.05.03 - Hitman Codename 47 • Hitman 2 Silent Assassin (LLLCD 1030)\CD2 - 2005.05.03 - Hitman 2 Silent Assassin (LLLCD 1030)\11. Jesper Kyd – Trouble in Russia.wav

     Pre-gap length  0:00:02.00

     Peak level 98.8 %
     Track quality 100.0 %
     Test CRC FCCC13E1
     Copy CRC FCCC13E1
     Accurately ripped (confidence 8)  [4D283C12]
     Copy OK

Track 12

     Filename E:\Jesper Kyd Discography\07 - 2005.05.03 - Hitman Codename 47 • Hitman 2 Silent Assassin (LLLCD 1030)\CD2 - 2005.05.03 - Hitman 2 Silent Assassin (LLLCD 1030)\12. Jesper Kyd – Desert Sun.wav

     Pre-gap length  0:00:02.00

     Peak level 96.4 %
     Track quality 100.0 %
     Test CRC EB3562D6
     Copy CRC EB3562D6
     Accurately ripped (confidence 8)  [2B23B902]
     Copy OK

Track 13

     Filename E:\Jesper Kyd Discography\07 - 2005.05.03 - Hitman Codename 47 • Hitman 2 Silent Assassin (LLLCD 1030)\CD2 - 2005.05.03 - Hitman 2 Silent Assassin (LLLCD 1030)\13. Jesper Kyd – Arabian Dance.wav

     Pre-gap length  0:00:02.00

     Peak level 98.8 %
     Track quality 100.0 %
     Test CRC C2B8C403
     Copy CRC C2B8C403
     Accurately ripped (confidence 8)  [05FB3B51]
     Copy OK

Track 14

     Filename E:\Jesper Kyd Discography\07 - 2005.05.03 - Hitman Codename 47 • Hitman 2 Silent Assassin (LLLCD 1030)\CD2 - 2005.05.03 - Hitman 2 Silent Assassin (LLLCD 1030)\14. Jesper Kyd & Pierre Foldes – The Setup.wav

     Pre-gap length  0:00:02.00

     Peak level 92.7 %
     Track quality 99.9 %
     Test CRC 4342C1EE
     Copy CRC 4342C1EE
     Accurately ripped (confidence 8)  [F639DCB5]
     Copy OK

Track 15

     Filename E:\Jesper Kyd Discography\07 - 2005.05.03 - Hitman Codename 47 • Hitman 2 Silent Assassin (LLLCD 1030)\CD2 - 2005.05.03 - Hitman 2 Silent Assassin (LLLCD 1030)\15. Pierre Foldes – End Boss.wav

     Pre-gap length  0:00:02.00

     Peak level 99.4 %
     Track quality 100.0 %
     Test CRC C35760E6
     Copy CRC C35760E6
     Accurately ripped (confidence 8)  [A453C023]
     Copy OK

Track 16

     Filename E:\Jesper Kyd Discography\07 - 2005.05.03 - Hitman Codename 47 • Hitman 2 Silent Assassin (LLLCD 1030)\CD2 - 2005.05.03 - Hitman 2 Silent Assassin (LLLCD 1030)\16. Jesper Kyd – Slow Ambience.wav

     Pre-gap length  0:00:02.00

     Peak level 92.5 %
     Track quality 100.0 %
     Test CRC 936AC786
     Copy CRC 936AC786
     Accurately ripped (confidence 8)  [636BA08B]
     Copy OK

Track 17

     Filename E:\Jesper Kyd Discography\07 - 2005.05.03 - Hitman Codename 47 • Hitman 2 Silent Assassin (LLLCD 1030)\CD2 - 2005.05.03 - Hitman 2 Silent Assassin (LLLCD 1030)\17. Jesper Kyd – Fast Ambience.wav

     Pre-gap length  0:00:02.00

     Peak level 90.6 %
     Track quality 100.0 %
     Test CRC 4BA9629C
     Copy CRC 4BA9629C
     Accurately ripped (confidence 8)  [EF32C998]
     Copy OK

Track 18

     Filename E:\Jesper Kyd Discography\07 - 2005.05.03 - Hitman Codename 47 • Hitman 2 Silent Assassin (LLLCD 1030)\CD2 - 2005.05.03 - Hitman 2 Silent Assassin (LLLCD 1030)\18. Jesper Kyd – H2 Exploration.wav

     Pre-gap length  0:00:02.00

     Peak level 86.7 %
     Track quality 100.0 %
     Test CRC 6323AFB5
     Copy CRC 6323AFB5
     Accurately ripped (confidence 8)  [321B638E]
     Copy OK

Track 19

     Filename E:\Jesper Kyd Discography\07 - 2005.05.03 - Hitman Codename 47 • Hitman 2 Silent Assassin (LLLCD 1030)\CD2 - 2005.05.03 - Hitman 2 Silent Assassin (LLLCD 1030)\19. Jesper Kyd – H2 Action.wav

     Pre-gap length  0:00:02.00

     Peak level 100.0 %
     Track quality 99.9 %
     Test CRC 5A779E73
     Copy CRC 5A779E73
     Accurately ripped (confidence 8)  [8B5B2CD1]
     Copy OK

Track 20

     Filename E:\Jesper Kyd Discography\07 - 2005.05.03 - Hitman Codename 47 • Hitman 2 Silent Assassin (LLLCD 1030)\CD2 - 2005.05.03 - Hitman 2 Silent Assassin (LLLCD 1030)\20. Jesper Kyd – Dreams of Istanbul (Bonus Track).wav

     Pre-gap length  0:00:02.00

     Peak level 93.6 %
     Track quality 100.0 %
     Test CRC 88209797
     Copy CRC 88209797
     Accurately ripped (confidence 8)  [94B4A545]
     Copy OK

All tracks accurately ripped

No errors occurred

End of status report
 

Код:

REM GENRE Soundtrack
REM DATE 2005
REM DISCID 060BDF14
REM COMMENT "ExactAudioCopy v0.99pb5"
PERFORMER "Various"
TITLE "Hitman 2 Silent Assassin - Original Soundtrack"
FILE "01. Jesper Kyd – Hitman 2 Main Title.wav" WAVE
  TRACK 01 AUDIO
    TITLE "Hitman 2 Main Title"
    PERFORMER "Jesper Kyd"
    FLAGS DCP
    INDEX 01 00:00:00
  TRACK 02 AUDIO
    TITLE "Waiting for Action"
    PERFORMER "Jesper Kyd"
    FLAGS DCP
    INDEX 00 02:08:68
FILE "02. Jesper Kyd – Waiting for Action.wav" WAVE
    INDEX 01 00:00:00
  TRACK 03 AUDIO
    TITLE "Action Begins"
    PERFORMER "Jesper Kyd"
    FLAGS DCP
    INDEX 00 01:54:61
FILE "03. Jesper Kyd – Action Begins.wav" WAVE
    INDEX 01 00:00:00
  TRACK 04 AUDIO
    TITLE "47 Makes a Decision"
    PERFORMER "Jesper Kyd & Pierre Foldes"
    FLAGS DCP
    INDEX 00 02:05:30
FILE "04. Jesper Kyd & Pierre Foldes – 47 Makes a Decision.wav" WAVE
    INDEX 01 00:00:00
  TRACK 05 AUDIO
    TITLE "The Penthouse"
    PERFORMER "Jesper Kyd"
    FLAGS DCP
    INDEX 00 02:06:38
FILE "05. Jesper Kyd – The Penthouse.wav" WAVE
    INDEX 01 00:00:00
  TRACK 06 AUDIO
    TITLE "Japanese Mansion"
    PERFORMER "Jesper Kyd"
    FLAGS DCP
    INDEX 00 02:01:26
FILE "06. Jesper Kyd – Japanese Mansion.wav" WAVE
    INDEX 01 00:00:00
  TRACK 07 AUDIO
    TITLE "Japanese Snow Castle"
    PERFORMER "Jesper Kyd"
    FLAGS DCP
    INDEX 00 02:08:23
FILE "07. Jesper Kyd – Japanese Snow Castle.wav" WAVE
    INDEX 01 00:00:00
  TRACK 08 AUDIO
    TITLE "Streets of India"
    PERFORMER "Jesper Kyd"
    FLAGS DCP
    INDEX 00 02:19:66
FILE "08. Jesper Kyd – Streets of India.wav" WAVE
    INDEX 01 00:00:00
  TRACK 09 AUDIO
    TITLE "Mission in India"
    PERFORMER "Jesper Kyd"
    FLAGS DCP
    INDEX 00 02:03:49
FILE "09. Jesper Kyd – Mission in India.wav" WAVE
    INDEX 01 00:00:00
  TRACK 10 AUDIO
    TITLE "47 in St. Petersburg"
    PERFORMER "Jesper Kyd"
    FLAGS DCP
    INDEX 00 02:08:26
FILE "10. Jesper Kyd – 47 in St. Petersburg.wav" WAVE
    INDEX 01 00:00:00
  TRACK 11 AUDIO
    TITLE "Trouble in Russia"
    PERFORMER "Jesper Kyd"
    FLAGS DCP
    INDEX 00 01:55:35
FILE "11. Jesper Kyd – Trouble in Russia.wav" WAVE
    INDEX 01 00:00:00
  TRACK 12 AUDIO
    TITLE "Desert Sun"
    PERFORMER "Jesper Kyd"
    FLAGS DCP
    INDEX 00 01:54:55
FILE "12. Jesper Kyd – Desert Sun.wav" WAVE
    INDEX 01 00:00:00
  TRACK 13 AUDIO
    TITLE "Arabian Dance"
    PERFORMER "Jesper Kyd"
    FLAGS DCP
    INDEX 00 02:07:03
FILE "13. Jesper Kyd – Arabian Dance.wav" WAVE
    INDEX 01 00:00:00
  TRACK 14 AUDIO
    TITLE "The Setup"
    PERFORMER "Jesper Kyd & Pierre Foldes"
    FLAGS DCP
    INDEX 00 01:51:03
FILE "14. Jesper Kyd & Pierre Foldes – The Setup.wav" WAVE
    INDEX 01 00:00:00
  TRACK 15 AUDIO
    TITLE "End Boss"
    PERFORMER "Pierre Foldes"
    FLAGS DCP
    INDEX 00 02:00:13
FILE "15. Pierre Foldes – End Boss.wav" WAVE
    INDEX 01 00:00:00
  TRACK 16 AUDIO
    TITLE "Slow Ambience"
    PERFORMER "Jesper Kyd"
    FLAGS DCP
    INDEX 00 02:26:40
FILE "16. Jesper Kyd – Slow Ambience.wav" WAVE
    INDEX 01 00:00:00
  TRACK 17 AUDIO
    TITLE "Fast Ambience"
    PERFORMER "Jesper Kyd"
    FLAGS DCP
    INDEX 00 02:43:30
FILE "17. Jesper Kyd – Fast Ambience.wav" WAVE
    INDEX 01 00:00:00
  TRACK 18 AUDIO
    TITLE "H2 Exploration"
    PERFORMER "Jesper Kyd"
    FLAGS DCP
    INDEX 00 02:10:74
FILE "18. Jesper Kyd – H2 Exploration.wav" WAVE
    INDEX 01 00:00:00
  TRACK 19 AUDIO
    TITLE "H2 Action"
    PERFORMER "Jesper Kyd"
    FLAGS DCP
    INDEX 00 04:09:59
FILE "19. Jesper Kyd – H2 Action.wav" WAVE
    INDEX 01 00:00:00
  TRACK 20 AUDIO
    TITLE "Dreams of Istanbul (Bonus Track)"
    PERFORMER "Jesper Kyd"
    FLAGS DCP
    INDEX 00 02:02:40
FILE "20. Jesper Kyd – Dreams of Istanbul (Bonus Track).wav" WAVE
    INDEX 01 00:00:00




Hitman Blood Money - Original Soundtrack




.::: Жанр: Score ::: Композитор: Jesper Kyd ::: Год выпуска диска: 2006 ::: Производитель диска: US ::: Издатель: Sumthing Else Distribution ::: Номер по каталогу: SE-2024-2 ::: Аудио кодек: FLAC (*.flac) ::: Тип рипа: tracks+.cue ::: Битрейт аудио: lossless ::: Продолжительность: 01:04:46.60 ::: Наличие сканов в содержимом раздачи: да ::: Источник: собственный рип :::.


 
01. Apocalypse [0:04:33.26]
02. Secret Invasion [0:05:06.09]
03. Before the Storm [0:02:40.14]
04. 47 Attacks [0:02:12.16]
05. Hunter [0:06:21.59]
06. Action in Paris [0:03:10.43]
07. Amb Zone [0:03:56.00]
08. Night Time in New Orleans [0:03:17.01]
09. Vegas [0:06:28.31]
10. Club Heaven [0:05:52.51]
11. Invasion on the Mississippi River [0:04:15.37]
12. Rocky Mountains [0:02:41.04]
13. Day Light in New Orleans [0:04:43.03]
14. Trouble in Vegas [0:03:35.35]
15. Funeral [0:02:47.71]
16. Main Title [0:03:05.35]
 

Код:

Exact Audio Copy V0.99 prebeta 5 from 4. May 2009

EAC extraction logfile from 4. December 2010, 2:47

Jesper Kyd / Hitman Blood Money Original Soundtrack

Used drive  : PIONEER DVD-RW  DVR-216D   Adapter: 3  ID: 0

Read mode               : Secure
Utilize accurate stream : Yes
Defeat audio cache      : Yes
Make use of C2 pointers : No

Read offset correction                      : 96
Overread into Lead-In and Lead-Out          : No
Fill up missing offset samples with silence : Yes
Delete leading and trailing silent blocks   : No
Null samples used in CRC calculations       : Yes
Used interface                              : Native Win32 interface for Win NT & 2000
Gap handling                                : Appended to previous track

Used output format              : User Defined Encoder
Selected bitrate                : 1024 kBit/s
Quality                         : High
Add ID3 tag                     : No
Command line compressor         : C:\Program Files\Exact Audio Copy\Flac\flac.exe
Additional command line options : -8 -V -T "ARTIST=%a" -T "TITLE=%t" -T "ALBUM=%g" -T "DATE=%y" -T "TRACKNUMBER=%n" -T "GENRE=%m" -T "COMMENT=EAC FLAC -8" %s

TOC of the extracted CD

     Track |   Start  |  Length  | Start sector | End sector
    ---------------------------------------------------------
        1  |  0:00.00 |  4:33.26 |         0    |    20500
        2  |  4:33.26 |  5:06.09 |     20501    |    43459
        3  |  9:39.35 |  2:40.14 |     43460    |    55473
        4  | 12:19.49 |  2:12.16 |     55474    |    65389
        5  | 14:31.65 |  6:21.59 |     65390    |    94023
        6  | 20:53.49 |  3:10.43 |     94024    |   108316
        7  | 24:04.17 |  3:56.00 |    108317    |   126016
        8  | 28:00.17 |  3:17.01 |    126017    |   140792
        9  | 31:17.18 |  6:28.31 |    140793    |   169923
       10  | 37:45.49 |  5:52.51 |    169924    |   196374
       11  | 43:38.25 |  4:15.37 |    196375    |   215536
       12  | 47:53.62 |  2:41.04 |    215537    |   227615
       13  | 50:34.66 |  4:43.03 |    227616    |   248843
       14  | 55:17.69 |  3:35.35 |    248844    |   265003
       15  | 58:53.29 |  2:47.71 |    265004    |   277599
       16  | 61:41.25 |  3:05.35 |    277600    |   291509

Track  1

     Filename E:\Jesper Kyd Discography\08 - 2006.05.30 - Hitman Blood Money (SE-2024-2)\01 - Apocalypse.wav

     Pre-gap length  0:00:02.00

     Peak level 100.0 %
     Track quality 100.0 %
     Test CRC 30669086
     Copy CRC 30669086
     Accurately ripped (confidence 4)  [4B5F2CC5]
     Copy OK

Track  2

     Filename E:\Jesper Kyd Discography\08 - 2006.05.30 - Hitman Blood Money (SE-2024-2)\02 - Secret Invasion.wav

     Peak level 90.2 %
     Track quality 100.0 %
     Test CRC 9F0E55AB
     Copy CRC 9F0E55AB
     Accurately ripped (confidence 4)  [036E2B6F]
     Copy OK

Track  3

     Filename E:\Jesper Kyd Discography\08 - 2006.05.30 - Hitman Blood Money (SE-2024-2)\03 - Before the Storm.wav

     Peak level 79.3 %
     Track quality 100.0 %
     Test CRC 12914FB6
     Copy CRC 12914FB6
     Accurately ripped (confidence 4)  [5222DF16]
     Copy OK

Track  4

     Filename E:\Jesper Kyd Discography\08 - 2006.05.30 - Hitman Blood Money (SE-2024-2)\04 - 47 Attacks.wav

     Pre-gap length  0:00:00.01

     Peak level 99.8 %
     Track quality 100.0 %
     Test CRC 7244062C
     Copy CRC 7244062C
     Accurately ripped (confidence 4)  [5133916F]
     Copy OK

Track  5

     Filename E:\Jesper Kyd Discography\08 - 2006.05.30 - Hitman Blood Money (SE-2024-2)\05 - Hunter.wav

     Peak level 97.4 %
     Track quality 100.0 %
     Test CRC 26D5B95E
     Copy CRC 26D5B95E
     Accurately ripped (confidence 4)  [AC4A404D]
     Copy OK

Track  6

     Filename E:\Jesper Kyd Discography\08 - 2006.05.30 - Hitman Blood Money (SE-2024-2)\06 - Action in Paris.wav

     Pre-gap length  0:00:02.01

     Peak level 100.0 %
     Track quality 99.9 %
     Test CRC 55E1B443
     Copy CRC 55E1B443
     Accurately ripped (confidence 4)  [85BEB99D]
     Copy OK

Track  7

     Filename E:\Jesper Kyd Discography\08 - 2006.05.30 - Hitman Blood Money (SE-2024-2)\07 - Amb Zone.wav

     Peak level 90.8 %
     Track quality 100.0 %
     Test CRC 221D1675
     Copy CRC 221D1675
     Accurately ripped (confidence 4)  [C06764ED]
     Copy OK

Track  8

     Filename E:\Jesper Kyd Discography\08 - 2006.05.30 - Hitman Blood Money (SE-2024-2)\08 - Night Time in New Orleans.wav

     Peak level 71.8 %
     Track quality 100.0 %
     Test CRC 9FE74287
     Copy CRC 9FE74287
     Accurately ripped (confidence 4)  [610DA024]
     Copy OK

Track  9

     Filename E:\Jesper Kyd Discography\08 - 2006.05.30 - Hitman Blood Money (SE-2024-2)\09 - Vegas.wav

     Peak level 75.2 %
     Track quality 100.0 %
     Test CRC 5A14FC39
     Copy CRC 5A14FC39
     Accurately ripped (confidence 4)  [7641BD49]
     Copy OK

Track 10

     Filename E:\Jesper Kyd Discography\08 - 2006.05.30 - Hitman Blood Money (SE-2024-2)\10 - Club Heaven.wav

     Peak level 77.0 %
     Track quality 100.0 %
     Test CRC ACADB276
     Copy CRC ACADB276
     Accurately ripped (confidence 4)  [4E12E0B7]
     Copy OK

Track 11

     Filename E:\Jesper Kyd Discography\08 - 2006.05.30 - Hitman Blood Money (SE-2024-2)\11 - Invasion on the Mississippi River.wav

     Pre-gap length  0:00:01.53

     Peak level 91.8 %
     Track quality 100.0 %
     Test CRC B0B6839D
     Copy CRC B0B6839D
     Accurately ripped (confidence 4)  [0A8A6B71]
     Copy OK

Track 12

     Filename E:\Jesper Kyd Discography\08 - 2006.05.30 - Hitman Blood Money (SE-2024-2)\12 - Rocky Mountains.wav

     Pre-gap length  0:00:02.00

     Peak level 71.7 %
     Track quality 99.9 %
     Test CRC 55BDFA2A
     Copy CRC 55BDFA2A
     Accurately ripped (confidence 4)  [4AB608A7]
     Copy OK

Track 13

     Filename E:\Jesper Kyd Discography\08 - 2006.05.30 - Hitman Blood Money (SE-2024-2)\13 - Day Light in New Orleans.wav

     Peak level 71.4 %
     Track quality 100.0 %
     Test CRC E52EE00D
     Copy CRC E52EE00D
     Accurately ripped (confidence 4)  [B8B6E630]
     Copy OK

Track 14

     Filename E:\Jesper Kyd Discography\08 - 2006.05.30 - Hitman Blood Money (SE-2024-2)\14 - Trouble in Vegas.wav

     Peak level 81.3 %
     Track quality 100.0 %
     Test CRC C1F943DD
     Copy CRC C1F943DD
     Accurately ripped (confidence 4)  [5C8C4661]
     Copy OK

Track 15

     Filename E:\Jesper Kyd Discography\08 - 2006.05.30 - Hitman Blood Money (SE-2024-2)\15 - Funeral.wav

     Pre-gap length  0:00:02.01

     Peak level 95.1 %
     Track quality 100.0 %
     Test CRC 918DA24E
     Copy CRC 918DA24E
     Accurately ripped (confidence 4)  [03338D17]
     Copy OK

Track 16

     Filename E:\Jesper Kyd Discography\08 - 2006.05.30 - Hitman Blood Money (SE-2024-2)\16 - Main Title.wav

     Pre-gap length  0:00:02.00

     Peak level 91.1 %
     Track quality 100.0 %
     Test CRC EF4034A9
     Copy CRC EF4034A9
     Accurately ripped (confidence 4)  [A9338877]
     Copy OK

All tracks accurately ripped

No errors occurred

End of status report
 

Код:

REM GENRE Soundtrack
REM DATE 2006
REM DISCID EC0F2E10
REM COMMENT "ExactAudioCopy v0.99pb5"
PERFORMER "Jesper Kyd"
TITLE "Hitman Blood Money Original Soundtrack"
FILE "01 - Apocalypse.wav" WAVE
  TRACK 01 AUDIO
    TITLE "Apocalypse"
    PERFORMER "Jesper Kyd"
    INDEX 01 00:00:00
FILE "02 - Secret Invasion.wav" WAVE
  TRACK 02 AUDIO
    TITLE "Secret Invasion"
    PERFORMER "Jesper Kyd"
    INDEX 01 00:00:00
FILE "03 - Before the Storm.wav" WAVE
  TRACK 03 AUDIO
    TITLE "Before the Storm"
    PERFORMER "Jesper Kyd"
    INDEX 01 00:00:00
  TRACK 04 AUDIO
    TITLE "47 Attacks"
    PERFORMER "Jesper Kyd"
    INDEX 00 02:40:13
FILE "04 - 47 Attacks.wav" WAVE
    INDEX 01 00:00:00
FILE "05 - Hunter.wav" WAVE
  TRACK 05 AUDIO
    TITLE "Hunter"
    PERFORMER "Jesper Kyd"
    INDEX 01 00:00:00
  TRACK 06 AUDIO
    TITLE "Action in Paris"
    PERFORMER "Jesper Kyd"
    INDEX 00 06:19:58
FILE "06 - Action in Paris.wav" WAVE
    INDEX 01 00:00:00
FILE "07 - Amb Zone.wav" WAVE
  TRACK 07 AUDIO
    TITLE "Amb Zone"
    PERFORMER "Jesper Kyd"
    INDEX 01 00:00:00
FILE "08 - Night Time in New Orleans.wav" WAVE
  TRACK 08 AUDIO
    TITLE "Night Time in New Orleans"
    PERFORMER "Jesper Kyd"
    INDEX 01 00:00:00
FILE "09 - Vegas.wav" WAVE
  TRACK 09 AUDIO
    TITLE "Vegas"
    PERFORMER "Jesper Kyd"
    INDEX 01 00:00:00
FILE "10 - Club Heaven.wav" WAVE
  TRACK 10 AUDIO
    TITLE "Club Heaven"
    PERFORMER "Jesper Kyd"
    INDEX 01 00:00:00
  TRACK 11 AUDIO
    TITLE "Invasion on the Mississippi River"
    PERFORMER "Jesper Kyd"
    INDEX 00 05:50:73
FILE "11 - Invasion on the Mississippi River.wav" WAVE
    INDEX 01 00:00:00
  TRACK 12 AUDIO
    TITLE "Rocky Mountains"
    PERFORMER "Jesper Kyd"
    INDEX 00 04:13:37
FILE "12 - Rocky Mountains.wav" WAVE
    INDEX 01 00:00:00
FILE "13 - Day Light in New Orleans.wav" WAVE
  TRACK 13 AUDIO
    TITLE "Day Light in New Orleans"
    PERFORMER "Jesper Kyd"
    INDEX 01 00:00:00
FILE "14 - Trouble in Vegas.wav" WAVE
  TRACK 14 AUDIO
    TITLE "Trouble in Vegas"
    PERFORMER "Jesper Kyd"
    INDEX 01 00:00:00
  TRACK 15 AUDIO
    TITLE "Funeral"
    PERFORMER "Jesper Kyd"
    INDEX 00 03:33:34
FILE "15 - Funeral.wav" WAVE
    INDEX 01 00:00:00
  TRACK 16 AUDIO
    TITLE "Main Title"
    PERFORMER "Jesper Kyd"
    INDEX 00 02:45:71
FILE "16 - Main Title.wav" WAVE
    INDEX 01 00:00:00




info [Профиль]  [ЛС] 
Показать сообщения:    
Ответить на тему

Текущее время: 18-Июл 02:06

Часовой пояс: GMT + 4



Вы не можете начинать темы
Вы не можете отвечать на сообщения
Вы не можете редактировать свои сообщения
Вы не можете удалять свои сообщения
Вы не можете голосовать в опросах
Вы не можете прикреплять файлы к сообщениям
Вы не можете скачивать файлы