Ошибка

(Score) [WEB] Shadow Fight 2 (Original Soundtrack Vol. 1 & 2) (Lind Erebros) (2 релиза) - 2014-2022, FLAC (tracks), lossless

Ответить на тему
 
Автор Сообщение

F.A.N.T.O.M

Пол: Пол:Муж

Стаж: 6 месяцев 27 дней

Сообщений: 484

Россия
Рейтинг

post 06-Июл-2024 22:20 0[+]

[Цитировать] 

Shadow Fight 2 (Original Soundtrack Vol. 1 & 2)

Жанр: Score
Носитель:WEB
Композитор: Lind Erebros
Год выпуска диска: 2014-2022
Аудиокодек: FLAC (*.flac)
Тип рипа: tracks
Битрейт аудио: lossless
Продолжительность: 01:18:10
Наличие сканов в содержимом раздачи: нет
Источник: Tidal [ Shadow Fight 2 (Original Game Soundtrack Vol. 1) | Shadow Fight 2 (Original Game Soundtrack Vol. 2) ]
Треклист:
1. The Ambience - 1:57
2. The Training Room - 1:49
3. The Samurai Spirit - 0:59
4. The Blade Dance - 1:12
5. The Vengeance - 0:57
6. The Forest of Death - 1:05
7. The Ninja in the Night - 1:11
8. The Sparring - 1:17
9. The Fat Boss - 1:17
10. The Final Boss - 1:18
11. The Master of the Skills - 1:12
12. The Black Warrior - 1:26
13. Ronin - 1:02
14. The Deadly Smoke - 0:55
15. Old Sensei - 2:28
16. The Battle Ship - 0:56
17. The Shadow Lady - 1:09
18. The Flower Battlefield - 1:05
19. The Cave - 1:08
20. Fuji - 1:01
21. The Volcano - 1:01
22. Bridge to the Other Side - 1:21
23. The Lesson in the Dark Room - 1:18
24. Clouds Heaven - 1:35
25. Burning Town - 1:56
26. The Village Ruins - 1:09
27. The Hive - 1:13
28. The Starship - 1:14
29. The Factory - 1:24
30. The Flying Rocks - 1:15
 
PERFORMER: auCDtect Task Manager, ver. 1.6.0 RC1 build 1.6.0.1
Copyright (c) 2008-2010 y-soft. All rights reserved
http://y-soft.org

ANALYZER: auCDtect: CD records authenticity detector, version 0.8.2
Copyright (c) 2004 Oleg Berngardt. All rights reserved.
Copyright (c) 2004 Alexander Djourik. All rights reserved.

FILE: 01 - Nekki Games, Lind Erebros - The Ambience.flac
Size: 7806162 Hash: 5ABC66D5D4B8B397A2126E8B590168A0 Accuracy: -m0
Conclusion: MPEG 79%
Signature: 05A2028715AF1C96D1F558C8D4F366C96BBCAE2A
FILE: 02 - Nekki Games, Lind Erebros - The Training Room.flac
Size: 8788877 Hash: D02F59E7F51BF3A184C07C668378E937 Accuracy: -m0
Conclusion: MPEG 95%
Signature: 224AE3A229D10BB7A4B6F51539D64592C9299AFA
FILE: 03 - Nekki Games, Lind Erebros - The Samurai Spirit.flac
Size: 6023408 Hash: 5BF289BF5450EF3CD9AFAF2AF2E130CF Accuracy: -m0
Conclusion: MPEG 95%
Signature: 4597CA045E95AD406FFFDE8B4148A99B4A0B8585
FILE: 04 - Nekki Games, Lind Erebros - The Blade Dance.flac
Size: 9070129 Hash: C12A853BF641B77003FFBCF65B68F49D Accuracy: -m0
Conclusion: MPEG 95%
Signature: 55957224E2B5D7F2F4BEC16D2A79C12EC0F04998
FILE: 05 - Nekki Games, Lind Erebros - The Vengeance.flac
Size: 4851066 Hash: 732507FB5FD7C34AC76060D8AFC674A5 Accuracy: -m0
Conclusion: MPEG 95%
Signature: 92F7FF6C062716607E2B4171CA20018453E461A3
FILE: 06 - Nekki Games, Lind Erebros - The Forest of Death.flac
Size: 6396340 Hash: 0A7BF856B9DFC2D7B84A1FC50D0D1984 Accuracy: -m0
Conclusion: MPEG 95%
Signature: A8F819D450553C011AA5010379BE97E9E9690F8E
FILE: 07 - Nekki Games, Lind Erebros - The Ninja in the Night.flac
Size: 8007595 Hash: 0C631E777CA4A84E654FD1B699A72917 Accuracy: -m0
Conclusion: MPEG 100%
Signature: 0D9302FABD5E26A1757688D1ACF6F1329A0BF2FD
FILE: 08 - Nekki Games, Lind Erebros - The Sparring.flac
Size: 7775098 Hash: 05DC1B4CC7CE4E045BC100DC71D52AC8 Accuracy: -m0
Conclusion: MPEG 95%
Signature: 750D7B22CC3173651811CABFCC1CE11DFA3B0F50
FILE: 09 - Nekki Games, Lind Erebros - The Fat Boss.flac
Size: 9482461 Hash: 2DA91B7A1B4DFCE37C974ED320717971 Accuracy: -m0
Conclusion: MPEG 95%
Signature: 28D61F1EDD679D5B81F5874A3E2127DDE38AEA87
FILE: 10 - Nekki Games, Lind Erebros - The Final Boss.flac
Size: 8320559 Hash: DB724C4915F1D10D0185238DEF46F065 Accuracy: -m0
Conclusion: MPEG 95%
Signature: BAA2DCC1D6E94F0C94BD0EAB23F5839F1FC6F361
FILE: 11 - Nekki Games, Lind Erebros - The Master of the Skills.flac
Size: 6817802 Hash: 29F406322BAE0D58761957C01EB3824D Accuracy: -m0
Conclusion: MPEG 95%
Signature: D4441D0F736E8D94C418FA7E94462B84D6400B28
FILE: 12 - Nekki Games, Lind Erebros - The Black Warrior.flac
Size: 8292894 Hash: 4264E9F06368E6D61250BA4BA560E4C7 Accuracy: -m0
Conclusion: MPEG 95%
Signature: 5854EAEE7EA3608F7F1585F2F0EAA8AF52D87550
FILE: 13 - Nekki Games, Lind Erebros - Ronin.flac
Size: 5376121 Hash: E06503BC5AD7530E549F003A7A0A9133 Accuracy: -m0
Conclusion: MPEG 95%
Signature: D4A9D0D4CD288D5089D37FDB2D2B9776C4098BA7
FILE: 14 - Nekki Games, Lind Erebros - The Deadly Smoke.flac
Size: 6523070 Hash: 45875DB35853DEB0D6494334168E627C Accuracy: -m0
Conclusion: MPEG 95%
Signature: 8D6B53D3024BCE0A2C0F6DF47C767201ACEDEAC7
FILE: 15 - Nekki Games, Lind Erebros - Old Sensei.flac
Size: 16780261 Hash: A85B528AED1316AB6B665502ED7FEB15 Accuracy: -m0
Conclusion: MPEG 95%
Signature: CEC772FEE6A720111D67C75A5A0D26194EEDF352
FILE: 16 - Nekki Games, Lind Erebros - The Battle Ship.flac
Size: 5018229 Hash: EA7FA32EB532BF9479E86864A5A176AB Accuracy: -m0
Conclusion: MPEG 95%
Signature: 610269E6A559BCE17B1930E7B979EE254C8C7EEA
FILE: 17 - Nekki Games, Lind Erebros - The Shadow Lady.flac
Size: 6450929 Hash: 18CEE7E49550267794770F2BDB322E28 Accuracy: -m0
Conclusion: MPEG 95%
Signature: F3F23AB407E900AF32F40EED5D3055DDDECADAD2
FILE: 18 - Nekki Games, Lind Erebros - The Flower Battlefield.flac
Size: 7141656 Hash: 95002D3DCF716D9A2C6A34559F285B1B Accuracy: -m0
Conclusion: MPEG 95%
Signature: 00C823D49C0E887577941016417114D26374767E
FILE: 19 - Nekki Games, Lind Erebros - The Cave.flac
Size: 5970268 Hash: 56A85265C0BFB89130555B2F5F26E47B Accuracy: -m0
Conclusion: MPEG 95%
Signature: 60FCFAB384319858DD0A76B2C6D5C1DE2E929691
FILE: 20 - Nekki Games, Lind Erebros - Fuji.flac
Size: 5090188 Hash: AA192FFD0BFD8E10CBEBAD6684C9B28C Accuracy: -m0
Conclusion: MPEG 95%
Signature: 23BB261ECBE7D05456E766B719BABFCA5C81BF94
FILE: 21 - Nekki Games, Lind Erebros - The Volcano.flac
Size: 6046645 Hash: B544324A75AF130D9AE46D95BBF795F1 Accuracy: -m0
Conclusion: MPEG 95%
Signature: FD6E445AD6020D30AEA7923D6282E79D1AE89C2B
FILE: 22 - Nekki Games, Lind Erebros - Bridge to the Other Side.flac
Size: 8767686 Hash: 2DCF855DBB83B7E7A369713CCD07D63B Accuracy: -m0
Conclusion: MPEG 95%
Signature: F0704529CA0A94E2B2C768F3103ADDA4E17677AF
FILE: 23 - Nekki Games, Lind Erebros - The Lesson in the Dark Room.flac
Size: 8059202 Hash: 17D992B7D824E56689B9AAC093E53CCC Accuracy: -m0
Conclusion: MPEG 95%
Signature: 951A4BCCC029618DC3F91D720D5F5D87C3AC872B
FILE: 24 - Nekki Games, Lind Erebros - Clouds Heaven.flac
Size: 10658453 Hash: 994D82CC79A1535D9B3060759410C241 Accuracy: -m0
Conclusion: MPEG 95%
Signature: 18A062404D92EFA9BBD471C1E922E2CA2939C1DD
FILE: 25 - Nekki Games, Lind Erebros - Burning Town.flac
Size: 13829790 Hash: 994705CF76B6148CFC5FA085F2BEF3A2 Accuracy: -m0
Conclusion: MPEG 95%
Signature: 3DB093ED7932F0C6378319302D662D431396723B
FILE: 26 - Nekki Games, Lind Erebros - The Village Ruins.flac
Size: 7919875 Hash: 8AAC0613D9F2F633701C8A587A040B17 Accuracy: -m0
Conclusion: MPEG 95%
Signature: BE744B8C5D2E6643F5230BC65F245264F491ACEA
FILE: 27 - Nekki Games, Lind Erebros - The Hive.flac
Size: 7606605 Hash: 961F2A63AE42C3E4EF9AB2CCCDCDA803 Accuracy: -m0
Conclusion: MPEG 95%
Signature: AB7FB2AF97184B3AF0913D18C36B9A04D1BCB678
FILE: 28 - Nekki Games, Lind Erebros - The Starship.flac
Size: 6970080 Hash: 2EB1FF9B906BB3FB19DB0C27F587444D Accuracy: -m0
Conclusion: MPEG 95%
Signature: 1DECE53624B8FB15D52AB5CF0817789E2FAB8B4C
FILE: 29 - Nekki Games, Lind Erebros - The Factory.flac
Size: 8343146 Hash: 03CC050AD44A2B68EE0164AC561FED33 Accuracy: -m0
Conclusion: MPEG 95%
Signature: 883E1BDF5C77A948F5FF20EF7DA983F65A6367F7
FILE: 30 - Nekki Games, Lind Erebros - The Flying Rocks.flac
Size: 8140226 Hash: C582E4E0729AC7C2BFD49EFE274CC146 Accuracy: -m0
Conclusion: MPEG 95%
Signature: 8C3D6FC8B57F90FB410B60715D59F448831E4690
 
foobar2000 2.1.1 / Dynamic Range Meter 1.1.1
log date: 2024-02-01 21:58:14

--------------------------------------------------------------------------------
Analyzed: Nekki Games, Lind Erebros / Shadow Fight 2 (Original Game Soundtrack Vol. 1)
--------------------------------------------------------------------------------

DR Peak RMS Duration Track
--------------------------------------------------------------------------------
DR10 -0.85 dB -15.21 dB 1:57 01-The Ambience
DR11 -0.17 dB -14.75 dB 1:49 02-The Training Room
DR9 -0.93 dB -11.81 dB 0:59 03-The Samurai Spirit
DR11 -0.04 dB -13.39 dB 1:12 04-The Blade Dance
DR9 -0.05 dB -12.41 dB 0:57 05-The Vengeance
DR9 -0.08 dB -12.11 dB 1:05 06-The Forest of Death
DR5 0.00 dB -7.73 dB 1:11 07-The Ninja in the Night
DR8 -0.05 dB -9.96 dB 1:17 08-The Sparring
DR9 0.00 dB -10.60 dB 1:17 09-The Fat Boss
DR8 0.00 dB -10.60 dB 1:18 10-The Final Boss
DR9 -0.10 dB -11.08 dB 1:12 11-The Master of the Skills
DR9 -0.12 dB -11.42 dB 1:26 12-The Black Warrior
DR8 -0.97 dB -10.61 dB 1:02 13-Ronin
DR10 -1.71 dB -13.80 dB 0:55 14-The Deadly Smoke
DR8 0.00 dB -10.52 dB 2:28 15-Old Sensei
DR6 -0.82 dB -8.03 dB 0:56 16-The Battle Ship
DR10 -0.18 dB -13.21 dB 1:09 17-The Shadow Lady
DR6 0.00 dB -7.10 dB 1:05 18-The Flower Battlefield
DR7 -0.78 dB -11.24 dB 1:08 19-The Cave
DR7 -0.11 dB -8.56 dB 1:01 20-Fuji
DR8 -2.71 dB -12.26 dB 1:01 21-The Volcano
DR8 -1.88 dB -10.92 dB 1:21 22-Bridge to the Other Side
DR10 0.00 dB -12.05 dB 1:18 23-The Lesson in the Dark Room
DR8 0.00 dB -8.99 dB 1:35 24-Clouds Heaven
DR6 0.00 dB -7.30 dB 1:56 25-Burning Town
DR7 -0.46 dB -9.84 dB 1:09 26-The Village Ruins
DR5 0.00 dB -5.54 dB 1:13 27-The Hive
DR8 -0.07 dB -8.89 dB 1:14 28-The Starship
DR11 -0.21 dB -12.74 dB 1:24 29-The Factory
DR7 -3.81 dB -12.71 dB 1:15 30-The Flying Rocks
--------------------------------------------------------------------------------

Number of tracks: 30
Official DR value: DR8

Samplerate: 44100 Hz
Channels: 2
Bits per sample: 16
Bitrate: 858 kbps
Codec: FLAC
================================================================================
Треклист:
1. A New Act - 0:09
2. The Gates of Shadows - 1:17
3. The Ships Graveyard - 1:21
4. The Halls of Dead Heroes - 1:36
5. The Monastery - 1:02
6. Dao Temple - 0:59
7. The Sakura Forest - 1:03
8. Deep down - 1:15
9. The Underworld Passage - 0:58
10. The Crystal Dungeon - 1:18
11. The Stone Dragon - 1:07
12. The Sky Isles - 1:25
13. The Epic Titan Fight - 1:22
14. The Raids Room - 1:26
15. The Ancient Evil - 1:12
16. The Fatum - 1:00
17. The Rats Underworld - 1:15
18. Lord of the Lies - 1:36
19. The War - 1:04
20. The Christmas Ride - 0:59
21. Halloween Rade - 1:04
22. The Inevitability - 1:07
23. Shadow Magic - 1:00
24. The Bearfoot Tribe - 1:07
25. The Ethernal Battlefield - 1:21
26. The Underworld Demon - 1:07
27. Shadow Fight (House Mix) (Special Version) - 3:10
 
PERFORMER: auCDtect Task Manager, ver. 1.6.0 RC1 build 1.6.0.1
Copyright (c) 2008-2010 y-soft. All rights reserved
http://y-soft.org

ANALYZER: auCDtect: CD records authenticity detector, version 0.8.2
Copyright (c) 2004 Oleg Berngardt. All rights reserved.
Copyright (c) 2004 Alexander Djourik. All rights reserved.

FILE: 01 - Nekki Games, Lind Erebros - A New Act.flac
Size: 683964 Hash: C0B5D85B9F4C8173886F35098F1CAE70 Accuracy: -m0
Conclusion: ???
Signature: C281E60279DABDD2DC697DD0FE1C3D649E4C7BD1
FILE: 02 - Nekki Games, Lind Erebros - The Gates of Shadows.flac
Size: 7515847 Hash: D81851CD709ACDCBC841E85E95ACEFC0 Accuracy: -m0
Conclusion: MPEG 95%
Signature: C7A6A2BB748B6A90621C2106B3A0E45FF68B23B0
FILE: 03 - Nekki Games, Lind Erebros - The Ships Graveyard.flac
Size: 9386421 Hash: E24FCD2B4357ED9314E2F58D4C84FE6B Accuracy: -m0
Conclusion: MPEG 95%
Signature: AC06ABF5FB2FE6251A843E143845DCAF6DF2A4B8
FILE: 04 - Nekki Games, Lind Erebros - The Halls of Dead Heroes.flac
Size: 7921329 Hash: 48CC978FEF5619E052F2B19FCC42373E Accuracy: -m0
Conclusion: MPEG 95%
Signature: C183C3440F1A9A8A52FFF381D738630CFFD836F5
FILE: 05 - Nekki Games, Lind Erebros - The Monastery.flac
Size: 6727577 Hash: E82FF45EBB019ED4E20E645911FAA1BB Accuracy: -m0
Conclusion: MPEG 95%
Signature: C868A2B638395D8A60E4EBCD9B1215B5D2850EED
FILE: 06 - Nekki Games, Lind Erebros - Dao Temple.flac
Size: 5104408 Hash: 46573A544528566675DB1193C3624540 Accuracy: -m0
Conclusion: MPEG 95%
Signature: EA513549D8103ADFBAEEC8B637405E3A2971E72C
FILE: 07 - Nekki Games, Lind Erebros - The Sakura Forest.flac
Size: 5765634 Hash: 5BA78615F67FF4302C7385270888F39C Accuracy: -m0
Conclusion: MPEG 95%
Signature: 570C0193EECBDFB931CC6B1FDCF1BF646BB48EB3
FILE: 08 - Nekki Games, Lind Erebros - Deep down.flac
Size: 7479847 Hash: AF5FA9A80A5BC162048F37A8B0E0D164 Accuracy: -m0
Conclusion: MPEG 95%
Signature: 2CC97D80E735E6725C2C79D105669EDEDD0D7EF8
FILE: 09 - Nekki Games, Lind Erebros - The Underworld Passage.flac
Size: 5021252 Hash: 4BCEAC7A88EF870789272C29575D0B1F Accuracy: -m0
Conclusion: MPEG 95%
Signature: 371FAFFE349330CFE7B7F3464AD30BCA0E588017
FILE: 10 - Nekki Games, Lind Erebros - The Crystal Dungeon.flac
Size: 6858611 Hash: ECE43B4DA46CBF60D2C48F393F4221C7 Accuracy: -m0
Conclusion: MPEG 95%
Signature: 3A310DE1D72D36BA9631BB8D787CA2CD604BECCD
FILE: 11 - Nekki Games, Lind Erebros - The Stone Dragon.flac
Size: 6021283 Hash: 11D4E59B4CEADD37E0BACD7EE78C4B3A Accuracy: -m0
Conclusion: MPEG 95%
Signature: 7D34D802A7346D16C4F83544FFAE78136D37C151
FILE: 12 - Nekki Games, Lind Erebros - The Sky Isles.flac
Size: 8615001 Hash: 6EECED5B3B1C08F645D42D15866E8203 Accuracy: -m0
Conclusion: MPEG 95%
Signature: 3A555614F5980C673E7607F8A9B5A2FA98782ED8
FILE: 13 - Nekki Games, Lind Erebros - The Epic Titan Fight.flac
Size: 10234925 Hash: 823D7D0E7FD7B76CBDFF4C4346EB124A Accuracy: -m0
Conclusion: MPEG 95%
Signature: 585852CC15EB4C5236011EFED8DD724EB2C6F9BE
FILE: 14 - Nekki Games, Lind Erebros - The Raids Room.flac
Size: 5753503 Hash: A8DE8517CD316BEFD05F1687AAF8E58E Accuracy: -m0
Conclusion: MPEG 100%
Signature: 389F31CA50F65F1ED8915A4D23EF7E7B262B9B75
FILE: 15 - Nekki Games, Lind Erebros - The Ancient Evil.flac
Size: 6387355 Hash: 899366A04C94B5FE224EFB07A576BDD3 Accuracy: -m0
Conclusion: MPEG 95%
Signature: D8717F8B1F57D2D821A2D8C81F518789572803CA
FILE: 16 - Nekki Games, Lind Erebros - The Fatum.flac
Size: 5723748 Hash: 863395E9D94BB552D6D4880270F79E01 Accuracy: -m0
Conclusion: MPEG 95%
Signature: 94E939716F46C6460513908336B95F4C1493455D
FILE: 17 - Nekki Games, Lind Erebros - The Rats Underworld.flac
Size: 7367303 Hash: 89C3C5863EAB570ED9D847EDC11A5286 Accuracy: -m0
Conclusion: MPEG 95%
Signature: 2BF443ADAB1AD97F098C29EBFEED31695680084D
FILE: 18 - Nekki Games, Lind Erebros - Lord of the Lies.flac
Size: 9690204 Hash: C9DA737AD8FD5E5731D144A495A4F43E Accuracy: -m0
Conclusion: MPEG 95%
Signature: 64F326ADDDB356BC47AA10A8E55C9F6CF53DF661
FILE: 19 - Nekki Games, Lind Erebros - The War.flac
Size: 5746667 Hash: 43E8E1961BAD4EB424EB3815E91D794B Accuracy: -m0
Conclusion: MPEG 95%
Signature: 6E539E699077652EBF9850527FAC3A6906A72EFD
FILE: 20 - Nekki Games, Lind Erebros - The Christmas Ride.flac
Size: 4997082 Hash: E0381BDE1539B9F5F83896DE8E34D158 Accuracy: -m0
Conclusion: MPEG 95%
Signature: 3B348E11FCCBB43AD0FF21973A516B35447EFDD8
FILE: 21 - Nekki Games, Lind Erebros - Halloween Rade.flac
Size: 5158951 Hash: 8D05068E39378FE180A2322305AF44BE Accuracy: -m0
Conclusion: MPEG 95%
Signature: 8878453B6FCA28264C88152CDCE15AAC7198C717
FILE: 22 - Nekki Games, Lind Erebros - The Inevitability.flac
Size: 5909228 Hash: 1DE0C269993DBBD1668F916FF5B967B6 Accuracy: -m0
Conclusion: MPEG 95%
Signature: 78B6651752F25B17E2A31B904E7579062EBF7C73
FILE: 23 - Nekki Games, Lind Erebros - Shadow Magic.flac
Size: 3967289 Hash: 3543DC8FCF1DF58958F06245018652CB Accuracy: -m0
Conclusion: MPEG 100%
Signature: 5E4A3C7A6A26E4D4253319253EBB2F909AD3DB77
FILE: 24 - Nekki Games, Lind Erebros - The Bearfoot Tribe.flac
Size: 5233302 Hash: 8C0BFB6B4CB2970B9A274E30D30E2D95 Accuracy: -m0
Conclusion: MPEG 95%
Signature: 787AF64D40C0206B7F8BC7F9161B669F8D18878C
FILE: 25 - Nekki Games, Lind Erebros - The Ethernal Battlefield.flac
Size: 6913612 Hash: 63D35526BC784DEB7708D433E10616EA Accuracy: -m0
Conclusion: MPEG 95%
Signature: 20C8CB7BD91E35449B186C5955F0032E1388C392
FILE: 26 - Nekki Games, Lind Erebros - The Underworld Demon.flac
Size: 6585077 Hash: 459048B62DAEAB4B665B93F962678FA7 Accuracy: -m0
Conclusion: MPEG 95%
Signature: D7A50BED4BC8397D2ED97822657B7543A20C0281
FILE: 27 - Nekki Games, Lind Erebros - Shadow Fight (House Mix) (Special Version).flac
Size: 24112113 Hash: D3785C3E4D37191134FE864103BCA059 Accuracy: -m0
Conclusion: MPEG 95%
Signature: 55DB42E645DD65C3C8D7678D0CFD75B1CEF12E0E
 
foobar2000 2.1.1 / Dynamic Range Meter 1.1.1
log date: 2024-02-01 21:58:26

--------------------------------------------------------------------------------
Analyzed: Nekki Games, Lind Erebros / Shadow Fight 2 (Original Game Soundtrack, Vol. 2)
--------------------------------------------------------------------------------

DR Peak RMS Duration Track
--------------------------------------------------------------------------------
DR7 -1.45 dB -12.70 dB 0:09 01-A New Act
DR7 -1.88 dB -10.75 dB 1:17 02-The Gates of Shadows
DR7 -1.08 dB -10.89 dB 1:21 03-The Ships Graveyard
DR8 -2.87 dB -11.74 dB 1:36 04-The Halls of Dead Heroes
DR7 -0.15 dB -8.81 dB 1:02 05-The Monastery
DR10 -0.18 dB -11.94 dB 0:59 06-Dao Temple
DR12 -0.30 dB -14.49 dB 1:03 07-The Sakura Forest
DR12 -0.44 dB -13.86 dB 1:15 08-Deep down
DR10 -0.34 dB -13.18 dB 0:58 09-The Underworld Passage
DR9 -2.95 dB -12.94 dB 1:18 10-The Crystal Dungeon
DR7 -0.15 dB -8.45 dB 1:07 11-The Stone Dragon
DR11 -0.37 dB -12.55 dB 1:25 12-The Sky Isles
DR7 0.00 dB -8.73 dB 1:22 13-The Epic Titan Fight
DR9 -1.38 dB -13.93 dB 1:26 14-The Raids Room
DR8 -0.48 dB -10.79 dB 1:12 15-The Ancient Evil
DR8 -0.12 dB -11.49 dB 1:00 16-The Fatum
DR10 -0.04 dB -11.63 dB 1:15 17-The Rats Underworld
DR7 -0.07 dB -9.65 dB 1:36 18-Lord of the Lies
DR7 -1.02 dB -9.21 dB 1:04 19-The War
DR9 -0.21 dB -10.78 dB 0:59 20-The Christmas Ride
DR9 -0.29 dB -12.20 dB 1:04 21-Halloween Rade
DR7 -1.42 dB -10.12 dB 1:07 22-The Inevitability
DR11 -0.41 dB -14.17 dB 1:00 23-Shadow Magic
DR11 -2.09 dB -16.63 dB 1:07 24-The Bearfoot Tribe
DR7 -0.31 dB -10.66 dB 1:21 25-The Ethernal Battlefield
DR8 -0.02 dB -9.55 dB 1:07 26-The Underworld Demon
DR4 0.00 dB -5.97 dB 3:10 27-Shadow Fight (House Mix) (Special Version)
--------------------------------------------------------------------------------

Number of tracks: 27
Official DR value: DR9

Samplerate: 44100 Hz
Channels: 2
Bits per sample: 16
Bitrate: 1009 kbps
Codec: FLAC
================================================================================
info [Профиль]  [ЛС] 
Показать сообщения:    
Ответить на тему

Текущее время: 18-Июл 02:02

Часовой пояс: GMT + 4



Вы не можете начинать темы
Вы не можете отвечать на сообщения
Вы не можете редактировать свои сообщения
Вы не можете удалять свои сообщения
Вы не можете голосовать в опросах
Вы не можете прикреплять файлы к сообщениям
Вы не можете скачивать файлы