Ошибка

(Soundtrack) Grand Theft Auto: Vice City Official Soundtrack Box Set (7 CD) - 2002, FLAC (tracks+.cue), lossless

Ответить на тему
 
Автор Сообщение

F.A.N.T.O.M

Пол: Пол:Муж

Стаж: 6 месяцев 21 день

Сообщений: 475

Россия
Рейтинг

post 06-Июл-2024 22:14 1[+]

[Цитировать] 

Grand Theft Auto: Vice City Official Soundtrack Box Set

Жанр: Soundtrack :: Год выпуска: 2002 :: Аудио кодек: FLAC (*.flac) :: Тип рипа: tracks+.cue
Битрейт аудио: lossless :: Продолжительность: 00:07:54:44 :: Источник: Waffles


01. DJ Lazlow: Intro (1:22) 
02. Judas Priest - You've Got Another Thing Comin' (5:04)
03. Mötley Crüe - Too Young to Fall in Love (3:30)
04. Megadeth - Peace Sells (4:01)
05. Rockstar's Love Fist - Dangerous Bastard (4:07)
06. Autograph - Turn Up the Radio (4:32)
07. DJ Lazlow: Halftime (0:42)
08. Twisted Sister - I Wanna Rock (3:02)
09. Ozzy Osbourne - Bark at the Moon (4:15)
10. Anthrax - Madhouse (4:17)
11. Iron Maiden - 2 Minutes to Midnight (6:00)
12. Slayer - Raining Blood (4:13)
13. Tesla - Cumin' Atcha Live (4:26)
14. David Lee Roth - Yankee Rose (3:50)
15. Loverboy - Working for the Weekend (3:40)
16. Quiet Riot - Cum On Feel the Noize (4:48)
17. DJ Lazlow: Outro (0:19)
18. Commercial: Exploder (1:20)
19. Commercial: Thor (3:23)

Exact Audio Copy V1.3 from 2. September 2016 

EAC extraction logfile from 27. March 2017, 0:10

Various Artists / GTA Vice City O.S.T. Volume 1: V-Rock

Used drive : ATAPI iHDS118 5 Adapter: 1 ID: 0

Read mode : Secure
Utilize accurate stream : Yes
Defeat audio cache : Yes
Make use of C2 pointers : No

Read offset correction : 6
Overread into Lead-In and Lead-Out : No
Fill up missing offset samples with silence : Yes
Delete leading and trailing silent blocks : No
Null samples used in CRC calculations : Yes
Used interface : Native Win32 interface for Win NT & 2000
Gap handling : Appended to previous track

Used output format : User Defined Encoder
Selected bitrate : 128 kBit/s
Quality : High
Add ID3 tag : No
Command line compressor : C:\flac-1.3.2-win\win32\flac.exe
Additional command line options : -8 -V -T "ARTIST=%artist%" -T "TITLE=%title%" -T "ALBUM=%albumtitle%" -T "DATE=%year%" -T "TRACKNUMBER=%tracknr%" -T "TRACKTOTAL=%numtracks%" -T "DISCNUMBER=%cdnumber%" -T "DISCTOTAL=%totalcds%" -T "GENRE=%genre%" -T "DESCRIPTION=%comment%" -T "ALBUMARTIST=%albuminterpret%" -T "BAND=%albuminterpret%" -T "COMPOSER=%composer%" %hascover%--picture="%coverfile%"%hascover% %source% -o %dest%

TOC of the extracted CD

Track | Start | Length | Start sector | End sector
---------------------------------------------------------
1 | 0:00.00 | 1:22.25 | 0 | 6174
2 | 1:22.25 | 5:03.55 | 6175 | 28954
3 | 6:26.05 | 3:29.65 | 28955 | 44694
4 | 9:55.70 | 4:01.25 | 44695 | 62794
5 | 13:57.20 | 4:06.67 | 62795 | 81311
6 | 18:04.12 | 4:31.43 | 81312 | 101679
7 | 22:35.55 | 0:41.42 | 101680 | 104796
8 | 23:17.22 | 3:01.58 | 104797 | 118429
9 | 26:19.05 | 4:15.17 | 118430 | 137571
10 | 30:34.22 | 4:16.48 | 137572 | 156819
11 | 34:50.70 | 5:59.50 | 156820 | 183794
12 | 40:50.45 | 4:12.70 | 183795 | 202764
13 | 45:03.40 | 4:26.27 | 202765 | 222741
14 | 49:29.67 | 3:49.48 | 222742 | 239964
15 | 53:19.40 | 3:39.42 | 239965 | 256431
16 | 56:59.07 | 4:48.20 | 256432 | 278051
17 | 61:47.27 | 0:19.33 | 278052 | 279509
18 | 62:06.60 | 1:20.15 | 279510 | 285524
19 | 63:27.00 | 3:23.12 | 285525 | 300761

Track 1

Filename D:\Rips\VA - GTA Vice City O.S.T. Volume 1 V-Rock\101 - Vice City - DJ Lazlow, Intro.wav

Pre-gap length 0:00:02.00

Peak level 99.8 %
Extraction speed 1.1 X
Track quality 99.8 %
Test CRC 5190B190
Copy CRC 5190B190
Accurately ripped (confidence 27) [6608135A] (AR v2)
Copy OK

Track 2

Filename D:\Rips\VA - GTA Vice City O.S.T. Volume 1 V-Rock\102 - Judas Priest - You've Got Another Thing Comin'.wav

Peak level 100.0 %
Extraction speed 2.0 X
Track quality 100.0 %
Test CRC 69AA5343
Copy CRC 69AA5343
Accurately ripped (confidence 27) [258254BE] (AR v2)
Copy OK

Track 3

Filename D:\Rips\VA - GTA Vice City O.S.T. Volume 1 V-Rock\103 - Mötley Crüe - Too Young to Fall in Love.wav

Peak level 98.8 %
Extraction speed 2.1 X
Track quality 100.0 %
Test CRC 220369B2
Copy CRC 220369B2
Accurately ripped (confidence 27) [36AE0D96] (AR v2)
Copy OK

Track 4

Filename D:\Rips\VA - GTA Vice City O.S.T. Volume 1 V-Rock\104 - Megadeth - Peace Sells.wav

Peak level 98.8 %
Extraction speed 2.0 X
Track quality 99.9 %
Test CRC 49E0E52F
Copy CRC 49E0E52F
Accurately ripped (confidence 28) [8643B5DD] (AR v2)
Copy OK

Track 5

Filename D:\Rips\VA - GTA Vice City O.S.T. Volume 1 V-Rock\105 - Rockstar's Love Fist - Dangerous Bastard.wav

Peak level 99.8 %
Extraction speed 2.5 X
Track quality 100.0 %
Test CRC D01E4E06
Copy CRC D01E4E06
Accurately ripped (confidence 28) [2E33AD86] (AR v2)
Copy OK

Track 6

Filename D:\Rips\VA - GTA Vice City O.S.T. Volume 1 V-Rock\106 - Autograph - Turn Up the Radio.wav

Peak level 98.8 %
Extraction speed 2.4 X
Track quality 99.9 %
Test CRC 4EB3A4EE
Copy CRC 4EB3A4EE
Accurately ripped (confidence 27) [8E4D69F1] (AR v2)
Copy OK

Track 7

Filename D:\Rips\VA - GTA Vice City O.S.T. Volume 1 V-Rock\107 - Vice City - DJ Lazlow, Halftime.wav

Peak level 99.8 %
Extraction speed 1.6 X
Track quality 100.0 %
Test CRC 60D0EB7A
Copy CRC 60D0EB7A
Accurately ripped (confidence 27) [8E7FA5A3] (AR v2)
Copy OK

Track 8

Filename D:\Rips\VA - GTA Vice City O.S.T. Volume 1 V-Rock\108 - Twisted Sister - I Wanna Rock.wav

Peak level 98.8 %
Extraction speed 2.7 X
Track quality 100.0 %
Test CRC 8FC916D1
Copy CRC 8FC916D1
Accurately ripped (confidence 28) [C20CB031] (AR v2)
Copy OK

Track 9

Filename D:\Rips\VA - GTA Vice City O.S.T. Volume 1 V-Rock\109 - Ozzy Osbourne - Bark at the Moon.wav

Peak level 98.8 %
Extraction speed 2.9 X
Track quality 100.0 %
Test CRC 96B1963F
Copy CRC 96B1963F
Accurately ripped (confidence 28) [F6D1A70D] (AR v2)
Copy OK

Track 10

Filename D:\Rips\VA - GTA Vice City O.S.T. Volume 1 V-Rock\110 - Anthrax - Madhouse.wav

Peak level 98.8 %
Extraction speed 2.7 X
Track quality 99.9 %
Test CRC 4F3809CA
Copy CRC 4F3809CA
Accurately ripped (confidence 28) [F7731166] (AR v2)
Copy OK

Track 11

Filename D:\Rips\VA - GTA Vice City O.S.T. Volume 1 V-Rock\111 - Iron Maiden - 2 Minutes to Midnight.wav

Pre-gap length 0:00:00.45

Peak level 98.8 %
Extraction speed 3.3 X
Track quality 100.0 %
Test CRC 690B9CBA
Copy CRC 690B9CBA
Accurately ripped (confidence 27) [73736613] (AR v2)
Copy OK

Track 12

Filename D:\Rips\VA - GTA Vice City O.S.T. Volume 1 V-Rock\112 - Slayer - Raining Blood.wav

Peak level 97.7 %
Extraction speed 2.9 X
Track quality 99.9 %
Test CRC 7341E095
Copy CRC 7341E095
Accurately ripped (confidence 28) [0C4DAA19] (AR v2)
Copy OK

Track 13

Filename D:\Rips\VA - GTA Vice City O.S.T. Volume 1 V-Rock\113 - Tesla - Cumin' Atcha Live.wav

Peak level 98.8 %
Extraction speed 3.5 X
Track quality 100.0 %
Test CRC 0C4738CE
Copy CRC 0C4738CE
Accurately ripped (confidence 27) [0C266659] (AR v2)
Copy OK

Track 14

Filename D:\Rips\VA - GTA Vice City O.S.T. Volume 1 V-Rock\114 - David Lee Roth - Yankee Rose.wav

Peak level 98.8 %
Extraction speed 3.5 X
Track quality 100.0 %
Test CRC 588AFC07
Copy CRC 588AFC07
Accurately ripped (confidence 26) [9F07474C] (AR v2)
Copy OK

Track 15

Filename D:\Rips\VA - GTA Vice City O.S.T. Volume 1 V-Rock\115 - Loverboy - Working for the Weekend.wav

Peak level 99.8 %
Extraction speed 3.6 X
Track quality 100.0 %
Test CRC 56650E46
Copy CRC 56650E46
Accurately ripped (confidence 25) [CA4C78A9] (AR v2)
Copy OK

Track 16

Filename D:\Rips\VA - GTA Vice City O.S.T. Volume 1 V-Rock\116 - Quiet Riot - Cum On Feel the Noize.wav

Peak level 99.8 %
Extraction speed 3.8 X
Track quality 100.0 %
Test CRC E89F9784
Copy CRC E89F9784
Accurately ripped (confidence 27) [80D177FB] (AR v2)
Copy OK

Track 17

Filename D:\Rips\VA - GTA Vice City O.S.T. Volume 1 V-Rock\117 - Vice City - DJ Lazlow, Outro.wav

Peak level 99.8 %
Extraction speed 1.5 X
Track quality 100.0 %
Test CRC 640D62AB
Copy CRC 640D62AB
Accurately ripped (confidence 27) [D98316B6] (AR v2)
Copy OK

Track 18

Filename D:\Rips\VA - GTA Vice City O.S.T. Volume 1 V-Rock\118 - Vice City - Commercial, Exploder.wav

Peak level 89.0 %
Extraction speed 2.9 X
Track quality 100.0 %
Test CRC C6F85E84
Copy CRC C6F85E84
Accurately ripped (confidence 27) [FB68705F] (AR v2)
Copy OK

Track 19

Filename D:\Rips\VA - GTA Vice City O.S.T. Volume 1 V-Rock\119 - Vice City - Commercial, Thor.wav

Peak level 100.0 %
Extraction speed 3.3 X
Track quality 99.9 %
Test CRC 53D5BE91
Copy CRC 53D5BE91
Accurately ripped (confidence 26) [EF9F0B59] (AR v2)
Copy OK

All tracks accurately ripped

No errors occurred

End of status report

==== Log checksum 5BF752D5908E00F232A051D1D30668432A33576451EB6D37189732F86776197E ====
REM GENRE Soundtrack 
REM DATE 2002
REM DISCID 270FAA13
REM COMMENT "ExactAudioCopy v1.3"
CATALOG 5099751005827
PERFORMER "Various Artists"
TITLE "Grand Theft Auto: Vice City Official Soundtrack Box Set - Volume 1: V-Rock"
FILE "01. DJ Lazlow - Intro.wav" WAVE
TRACK 01 AUDIO
TITLE "DJ Lazlow: Intro"
PERFORMER "Vice City"
INDEX 01 00:00:00
FILE "02. Judas Priest - You've Got Another Thing Comin'.wav" WAVE
TRACK 02 AUDIO
TITLE "You've Got Another Thing Comin'"
PERFORMER "Judas Priest"
ISRC GBBBN8202007
INDEX 01 00:00:00
FILE "03. Mötley Crüe - Too Young to Fall in Love.wav" WAVE
TRACK 03 AUDIO
TITLE "Too Young to Fall in Love"
PERFORMER "Mötley Crüe"
INDEX 01 00:00:00
FILE "04. Megadeth - Peace Sells.wav" WAVE
TRACK 04 AUDIO
TITLE "Peace Sells"
PERFORMER "Megadeth"
ISRC USCA28600021
INDEX 01 00:00:00
FILE "05. Rockstar's Love Fist - Dangerous Bastard.wav" WAVE
TRACK 05 AUDIO
TITLE "Dangerous Bastard"
PERFORMER "Rockstar's Love Fist"
INDEX 01 00:00:00
FILE "06. Autograph - Turn Up the Radio.wav" WAVE
TRACK 06 AUDIO
TITLE "Turn Up the Radio"
PERFORMER "Autograph"
INDEX 01 00:00:00
FILE "07. DJ Lazlow - Halftime.wav" WAVE
TRACK 07 AUDIO
TITLE "DJ Lazlow: Halftime"
PERFORMER "Vice City"
INDEX 01 00:00:00
FILE "08. Twisted Sister - I Wanna Rock.wav" WAVE
TRACK 08 AUDIO
TITLE "I Wanna Rock"
PERFORMER "Twisted Sister"
INDEX 01 00:00:00
FILE "09. Ozzy Osbourne - Bark at the Moon.wav" WAVE
TRACK 09 AUDIO
TITLE "Bark at the Moon"
PERFORMER "Ozzy Osbourne"
ISRC USSM18300021
INDEX 01 00:00:00
FILE "10. Anthrax - Madhouse.wav" WAVE
TRACK 10 AUDIO
TITLE "Madhouse"
PERFORMER "Anthrax"
INDEX 01 00:00:00
TRACK 11 AUDIO
TITLE "2 Minutes to Midnight"
PERFORMER "Iron Maiden"
ISRC USSM10108308
INDEX 00 04:16:03
FILE "11. Iron Maiden - 2 Minutes to Midnight.wav" WAVE
INDEX 01 00:00:00
FILE "12. Slayer - Raining Blood.wav" WAVE
TRACK 12 AUDIO
TITLE "Raining Blood"
PERFORMER "Slayer"
ISRC USSM18600241
INDEX 01 00:00:00
FILE "13. Tesla - Cumin' Atcha Live.wav" WAVE
TRACK 13 AUDIO
TITLE "Cumin' Atcha Live"
PERFORMER "Tesla"
ISRC USSM18600241
INDEX 01 00:00:00
FILE "14. David Lee Roth - Yankee Rose.wav" WAVE
TRACK 14 AUDIO
TITLE "Yankee Rose"
PERFORMER "David Lee Roth"
INDEX 01 00:00:00
FILE "15. Loverboy - Working for the Weekend.wav" WAVE
TRACK 15 AUDIO
TITLE "Working for the Weekend"
PERFORMER "Loverboy"
ISRC CAC228100002
INDEX 01 00:00:00
FILE "16. Quiet Riot - Cum On Feel the Noize.wav" WAVE
TRACK 16 AUDIO
TITLE "Cum On Feel the Noize"
PERFORMER "Quiet Riot"
ISRC USSM18300031
INDEX 01 00:00:00
FILE "17. DJ Lazlow - Outro.wav" WAVE
TRACK 17 AUDIO
TITLE "DJ Lazlow: Outro"
PERFORMER "Vice City"
ISRC USSM18300031
INDEX 01 00:00:00
FILE "18. Commercial - Exploder.wav" WAVE
TRACK 18 AUDIO
TITLE "Commercial: Exploder"
PERFORMER "Vice City"
INDEX 01 00:00:00
FILE "19. Commercial - Thor.wav" WAVE
TRACK 19 AUDIO
TITLE "Commercial: Thor"
PERFORMER "Vice City"
INDEX 01 00:00:00
01. DJ Adam First: Intro (1:06) 
02. Frankie Goes to Hollywood - Two Tribes (3:53)
03. Tears for Fears - Pale Shelter (4:24)
04. Kim Wilde - Kids in America (3:22)
05. Blondie - Atomic (4:38)
06. A Flock of Seagulls - I Ran (So Far Away) (3:40)
07. The Human League - (Keep Feeling) Fascination (3:42)
08. DJ Adam First: Halftime (0:30)
09. Nena - 99 Luftballons (3:51)
10. The Psychedelic Furs - Love My Way (3:30)
11. Spandau Ballet - Gold (3:48)
12. Aneka - Japanese Boy (3:54)
13. Thomas Dolby - Hyperactive! (4:10)
14. Animotion - Obsession (5:35)
15. Romeo Void - Never Say Never (5:52)
16. Corey Hart - Sunglasses at Night (5:14)
17. DJ Adam First: Outro (0:40)
18. Commercial: Sissy Spritz (0:39)
19. Commercial: Synth & Son (2:17)

Exact Audio Copy V1.3 from 2. September 2016 

EAC extraction logfile from 27. March 2017, 20:13

Various Artists / GTA Vice City O.S.T. Volume 2: Wave 103

Used drive : ATAPI iHDS118 5 Adapter: 1 ID: 0

Read mode : Secure
Utilize accurate stream : Yes
Defeat audio cache : Yes
Make use of C2 pointers : No

Read offset correction : 6
Overread into Lead-In and Lead-Out : No
Fill up missing offset samples with silence : Yes
Delete leading and trailing silent blocks : No
Null samples used in CRC calculations : Yes
Used interface : Native Win32 interface for Win NT & 2000
Gap handling : Appended to previous track

Used output format : User Defined Encoder
Selected bitrate : 128 kBit/s
Quality : High
Add ID3 tag : No
Command line compressor : C:\flac-1.3.2-win\win32\flac.exe
Additional command line options : -8 -V -T "ARTIST=%artist%" -T "TITLE=%title%" -T "ALBUM=%albumtitle%" -T "DATE=%year%" -T "TRACKNUMBER=%tracknr%" -T "TRACKTOTAL=%numtracks%" -T "DISCNUMBER=%cdnumber%" -T "DISCTOTAL=%totalcds%" -T "GENRE=%genre%" -T "DESCRIPTION=%comment%" -T "ALBUMARTIST=%albuminterpret%" -T "BAND=%albuminterpret%" -T "COMPOSER=%composer%" %hascover%--picture="%coverfile%"%hascover% %source% -o %dest%

TOC of the extracted CD

Track | Start | Length | Start sector | End sector
---------------------------------------------------------
1 | 0:00.00 | 1:06.17 | 0 | 4966
2 | 1:06.17 | 3:53.28 | 4967 | 22469
3 | 4:59.45 | 4:24.27 | 22470 | 42296
4 | 9:23.72 | 3:22.30 | 42297 | 57476
5 | 12:46.27 | 4:38.35 | 57477 | 78361
6 | 17:24.62 | 3:39.53 | 78362 | 94839
7 | 21:04.40 | 3:42.27 | 94840 | 111516
8 | 24:46.67 | 0:29.48 | 111517 | 113739
9 | 25:16.40 | 3:51.10 | 113740 | 131074
10 | 29:07.50 | 3:29.72 | 131075 | 146821
11 | 32:37.47 | 3:47.63 | 146822 | 163909
12 | 36:25.35 | 3:54.15 | 163910 | 181474
13 | 40:19.50 | 4:10.22 | 181475 | 200246
14 | 44:29.72 | 5:34.43 | 200247 | 225339
15 | 50:04.40 | 5:51.70 | 225340 | 251734
16 | 55:56.35 | 5:14.30 | 251735 | 275314
17 | 61:10.65 | 0:40.05 | 275315 | 278319
18 | 61:50.70 | 0:38.72 | 278320 | 281241
19 | 62:29.67 | 2:16.68 | 281242 | 291509

Track 1

Filename D:\Rips\VA - GTA Vice City O.S.T. Volume 2 Wave 103\201 - Vice City - DJ Adam First, Intro.wav

Pre-gap length 0:00:02.00

Peak level 99.8 %
Extraction speed 3.8 X
Track quality 100.0 %
Test CRC 4F3EAE6C
Copy CRC 4F3EAE6C
Accurately ripped (confidence 34) [4863EB8F] (AR v2)
Copy OK

Track 2

Filename D:\Rips\VA - GTA Vice City O.S.T. Volume 2 Wave 103\202 - Frankie Goes to Hollywood - Two Tribes.wav

Peak level 98.8 %
Extraction speed 4.7 X
Track quality 99.9 %
Test CRC 7FB390C3
Copy CRC 7FB390C3
Accurately ripped (confidence 34) [C8B56EFB] (AR v2)
Copy OK

Track 3

Filename D:\Rips\VA - GTA Vice City O.S.T. Volume 2 Wave 103\203 - Tears for Fears - Pale Shelter.wav

Peak level 87.8 %
Extraction speed 6.3 X
Track quality 100.0 %
Test CRC 2A643733
Copy CRC 2A643733
Accurately ripped (confidence 33) [6582441B] (AR v2)
Copy OK

Track 4

Filename D:\Rips\VA - GTA Vice City O.S.T. Volume 2 Wave 103\204 - Kim Wilde - Kids in America.wav

Peak level 83.0 %
Extraction speed 6.5 X
Track quality 100.0 %
Test CRC ED0E7F82
Copy CRC ED0E7F82
Accurately ripped (confidence 33) [5229B577] (AR v2)
Copy OK

Track 5

Filename D:\Rips\VA - GTA Vice City O.S.T. Volume 2 Wave 103\205 - Blondie - Atomic.wav

Peak level 100.0 %
Extraction speed 7.3 X
Track quality 100.0 %
Test CRC 6485CB9B
Copy CRC 6485CB9B
Accurately ripped (confidence 33) [B6343E10] (AR v2)
Copy OK

Track 6

Filename D:\Rips\VA - GTA Vice City O.S.T. Volume 2 Wave 103\206 - A Flock of Seagulls - I Ran (So Far Away).wav

Peak level 97.7 %
Extraction speed 7.4 X
Track quality 100.0 %
Test CRC 228142E9
Copy CRC 228142E9
Accurately ripped (confidence 33) [576E32CB] (AR v2)
Copy OK

Track 7

Filename D:\Rips\VA - GTA Vice City O.S.T. Volume 2 Wave 103\207 - The Human League - (Keep Feeling) Fascination.wav

Peak level 96.6 %
Extraction speed 7.8 X
Track quality 100.0 %
Test CRC 86EEF3F5
Copy CRC 86EEF3F5
Accurately ripped (confidence 33) [E2AF0C9B] (AR v2)
Copy OK

Track 8

Filename D:\Rips\VA - GTA Vice City O.S.T. Volume 2 Wave 103\208 - Vice City - DJ Adam First, Halftime.wav

Peak level 99.8 %
Extraction speed 4.0 X
Track quality 100.0 %
Test CRC EC242679
Copy CRC EC242679
Accurately ripped (confidence 32) [1A2FC9F0] (AR v2)
Copy OK

Track 9

Filename D:\Rips\VA - GTA Vice City O.S.T. Volume 2 Wave 103\209 - Nena - 99 Luftballons.wav

Peak level 99.8 %
Extraction speed 8.3 X
Track quality 100.0 %
Test CRC 491ACCC4
Copy CRC 491ACCC4
Accurately ripped (confidence 32) [1D9329BC] (AR v2)
Copy OK

Track 10

Filename D:\Rips\VA - GTA Vice City O.S.T. Volume 2 Wave 103\210 - The Psychedelic Furs - Love My Way.wav

Peak level 98.8 %
Extraction speed 8.4 X
Track quality 100.0 %
Test CRC A6436A37
Copy CRC A6436A37
Accurately ripped (confidence 32) [44924665] (AR v2)
Copy OK

Track 11

Filename D:\Rips\VA - GTA Vice City O.S.T. Volume 2 Wave 103\211 - Spandau Ballet - Gold.wav

Peak level 73.8 %
Extraction speed 8.8 X
Track quality 100.0 %
Test CRC 264BC0C3
Copy CRC 264BC0C3
Accurately ripped (confidence 33) [874BEDB2] (AR v2)
Copy OK

Track 12

Filename D:\Rips\VA - GTA Vice City O.S.T. Volume 2 Wave 103\212 - Aneka - Japanese Boy.wav

Peak level 79.3 %
Extraction speed 9.1 X
Track quality 100.0 %
Test CRC F20BD517
Copy CRC F20BD517
Accurately ripped (confidence 33) [094F5271] (AR v2)
Copy OK

Track 13

Filename D:\Rips\VA - GTA Vice City O.S.T. Volume 2 Wave 103\213 - Thomas Dolby - Hyperactive!.wav

Peak level 98.8 %
Extraction speed 8.1 X
Track quality 99.9 %
Test CRC 82760437
Copy CRC 82760437
Accurately ripped (confidence 33) [EC31D36E] (AR v2)
Copy OK

Track 14

Filename D:\Rips\VA - GTA Vice City O.S.T. Volume 2 Wave 103\214 - Animotion - Obsession.wav

Peak level 99.8 %
Extraction speed 10.3 X
Track quality 100.0 %
Test CRC 8685AA03
Copy CRC 8685AA03
Accurately ripped (confidence 33) [36E9AC68] (AR v2)
Copy OK

Track 15

Filename D:\Rips\VA - GTA Vice City O.S.T. Volume 2 Wave 103\215 - Romeo Void - Never Say Never.wav

Peak level 98.8 %
Extraction speed 9.5 X
Track quality 99.9 %
Test CRC B4A097AF
Copy CRC B4A097AF
Accurately ripped (confidence 33) [91F60082] (AR v2)
Copy OK

Track 16

Filename D:\Rips\VA - GTA Vice City O.S.T. Volume 2 Wave 103\216 - Corey Hart - Sunglasses at Night.wav

Peak level 98.8 %
Extraction speed 9.7 X
Track quality 99.9 %
Test CRC 303532BF
Copy CRC 303532BF
Accurately ripped (confidence 32) [5C69634E] (AR v2)
Copy OK

Track 17

Filename D:\Rips\VA - GTA Vice City O.S.T. Volume 2 Wave 103\217 - Vice City - DJ Adam First, Outro.wav

Peak level 100.0 %
Extraction speed 6.5 X
Track quality 100.0 %
Test CRC 63076C13
Copy CRC 63076C13
Accurately ripped (confidence 33) [7219DF61] (AR v2)
Copy OK

Track 18

Filename D:\Rips\VA - GTA Vice City O.S.T. Volume 2 Wave 103\218 - Vice City - Commercial, Sissy Spritz.wav

Peak level 99.9 %
Extraction speed 6.5 X
Track quality 100.0 %
Test CRC 8FD1AEC9
Copy CRC 8FD1AEC9
Accurately ripped (confidence 33) [1A3E081C] (AR v2)
Copy OK

Track 19

Filename D:\Rips\VA - GTA Vice City O.S.T. Volume 2 Wave 103\219 - Vice City - Commercial, Synth & Son.wav

Peak level 99.8 %
Extraction speed 9.9 X
Track quality 100.0 %
Test CRC C43F7C2A
Copy CRC C43F7C2A
Accurately ripped (confidence 32) [9085E5E3] (AR v2)
Copy OK

All tracks accurately ripped

No errors occurred

End of status report

==== Log checksum E01DD49F49D300D3E2F4BEED4BE73EFF7AE1B1D3D64A247479D8E7EAEFE19A99 ====
REM GENRE Soundtrack 
REM DATE 2002
REM DISCID 1B0F2E13
REM COMMENT "ExactAudioCopy v1.3"
CATALOG 5099751006121
PERFORMER "Various Artists"
TITLE "Grand Theft Auto: Vice City Official Soundtrack Box Set - Volume 2: Wave 103"
FILE "01. DJ Adam First - Intro.wav" WAVE
TRACK 01 AUDIO
TITLE "DJ Adam First: Intro"
PERFORMER "Vice City"
INDEX 01 00:00:00
FILE "02. Frankie Goes to Hollywood - Two Tribes.wav" WAVE
TRACK 02 AUDIO
TITLE "Two Tribes"
PERFORMER "Frankie Goes to Hollywood"
ISRC GBAHW9900024
INDEX 01 00:00:00
FILE "03. Tears for Fears - Pale Shelter.wav" WAVE
TRACK 03 AUDIO
TITLE "Pale Shelter"
PERFORMER "Tears for Fears"
INDEX 01 00:00:00
FILE "04. Kim Wilde - Kids in America.wav" WAVE
TRACK 04 AUDIO
TITLE "Kids in America"
PERFORMER "Kim Wilde"
INDEX 01 00:00:00
FILE "05. Blondie - Atomic.wav" WAVE
TRACK 05 AUDIO
TITLE "Atomic"
PERFORMER "Blondie"
INDEX 01 00:00:00
FILE "06. A Flock of Seagulls - I Ran (So Far Away).wav" WAVE
TRACK 06 AUDIO
TITLE "I Ran (So Far Away)"
PERFORMER "A Flock of Seagulls"
INDEX 01 00:00:00
FILE "07. The Human League - (Keep Feeling) Fascination.wav" WAVE
TRACK 07 AUDIO
TITLE "(Keep Feeling) Fascination"
PERFORMER "The Human League"
INDEX 01 00:00:00
FILE "08. DJ Adam First - Halftime.wav" WAVE
TRACK 08 AUDIO
TITLE "DJ Adam First: Halftime"
PERFORMER "Vice City"
INDEX 01 00:00:00
FILE "09. Nena - 99 Luftballons.wav" WAVE
TRACK 09 AUDIO
TITLE "99 Luftballons"
PERFORMER "Nena"
ISRC DEE868300011
INDEX 01 00:00:00
FILE "10. The Psychedelic Furs - Love My Way.wav" WAVE
TRACK 10 AUDIO
TITLE "Love My Way"
PERFORMER "The Psychedelic Furs"
ISRC GBBBN8200004
INDEX 01 00:00:00
FILE "11. Spandau Ballet - Gold.wav" WAVE
TRACK 11 AUDIO
TITLE "Gold"
PERFORMER "Spandau Ballet"
INDEX 01 00:00:00
FILE "12. Aneka - Japanese Boy.wav" WAVE
TRACK 12 AUDIO
TITLE "Japanese Boy"
PERFORMER "Aneka"
INDEX 01 00:00:00
FILE "13. Thomas Dolby - Hyperactive!.wav" WAVE
TRACK 13 AUDIO
TITLE "Hyperactive!"
PERFORMER "Thomas Dolby"
INDEX 01 00:00:00
FILE "14. Animotion - Obsession.wav" WAVE
TRACK 14 AUDIO
TITLE "Obsession"
PERFORMER "Animotion"
INDEX 01 00:00:00
FILE "15. Romeo Void - Never Say Never.wav" WAVE
TRACK 15 AUDIO
TITLE "Never Say Never"
PERFORMER "Romeo Void"
ISRC USSM10113439
INDEX 01 00:00:00
FILE "16. Corey Hart - Sunglasses at Night.wav" WAVE
TRACK 16 AUDIO
TITLE "Sunglasses at Night"
PERFORMER "Corey Hart"
ISRC USSM10113439
INDEX 01 00:00:00
FILE "17. DJ Adam First - Outro.wav" WAVE
TRACK 17 AUDIO
TITLE "DJ Adam First: Outro"
PERFORMER "Vice City"
INDEX 01 00:00:00
FILE "18. Commercial - Sissy Spritz.wav" WAVE
TRACK 18 AUDIO
TITLE "Commercial: Sissy Spritz"
PERFORMER "Vice City"
INDEX 01 00:00:00
FILE "19. Commercial - Synth & Son.wav" WAVE
TRACK 19 AUDIO
TITLE "Commercial: Synth & Son"
PERFORMER "Vice City"
INDEX 01 00:00:00
01. DJ Fernando: Intro (1:17) 
02. Toto - Africa (4:56)
03. Jan Hammer - Crockett's Theme (3:24)
04. John Waite - Missing You (4:26)
05. Cutting Crew - (I Just) Died in Your Arms (4:35)
06. Foreigner - Waiting for a Girl Like You (4:45)
07. Mr. Mister - Broken Wings (4:34)
08. DJ Fernando: Halftime (0:27)
09. Roxy Music - More Than This (4:27)
10. Squeeze - Tempted (3:58)
11. REO Speedwagon - Keep On Loving You (3:20)
12. Night Ranger - Sister Christian (4:55)
13. Luther Vandross - Never Too Much (3:49)
14. Kate Bush - Wow (3:41)
15. DJ Fernando: Outro (0:54)
16. Commercial: Knife After Dark (0:23)
17. Commercial: Petstuffers (2:48)

Exact Audio Copy V1.3 from 2. September 2016 

EAC extraction logfile from 27. March 2017, 1:48

Various Artists / GTA Vice City O.S.T. Volume 3: Emotion 98.3

Used drive : ATAPI iHDS118 5 Adapter: 1 ID: 0

Read mode : Secure
Utilize accurate stream : Yes
Defeat audio cache : Yes
Make use of C2 pointers : No

Read offset correction : 6
Overread into Lead-In and Lead-Out : No
Fill up missing offset samples with silence : Yes
Delete leading and trailing silent blocks : No
Null samples used in CRC calculations : Yes
Used interface : Native Win32 interface for Win NT & 2000
Gap handling : Appended to previous track

Used output format : User Defined Encoder
Selected bitrate : 128 kBit/s
Quality : High
Add ID3 tag : No
Command line compressor : C:\flac-1.3.2-win\win32\flac.exe
Additional command line options : -8 -V -T "ARTIST=%artist%" -T "TITLE=%title%" -T "ALBUM=%albumtitle%" -T "DATE=%year%" -T "TRACKNUMBER=%tracknr%" -T "TRACKTOTAL=%numtracks%" -T "DISCNUMBER=%cdnumber%" -T "DISCTOTAL=%totalcds%" -T "GENRE=%genre%" -T "DESCRIPTION=%comment%" -T "ALBUMARTIST=%albuminterpret%" -T "BAND=%albuminterpret%" -T "COMPOSER=%composer%" %hascover%--picture="%coverfile%"%hascover% %source% -o %dest%

TOC of the extracted CD

Track | Start | Length | Start sector | End sector
---------------------------------------------------------
1 | 0:00.00 | 1:16.45 | 0 | 5744
2 | 1:16.45 | 4:55.60 | 5745 | 27929
3 | 6:12.30 | 3:24.10 | 27930 | 43239
4 | 9:36.40 | 4:25.50 | 43240 | 63164
5 | 14:02.15 | 4:34.50 | 63165 | 83764
6 | 18:36.65 | 4:45.27 | 83765 | 105166
7 | 23:22.17 | 4:34.35 | 105167 | 125751
8 | 27:56.52 | 0:27.18 | 125752 | 127794
9 | 28:23.70 | 4:26.47 | 127795 | 147791
10 | 32:50.42 | 3:57.43 | 147792 | 165609
11 | 36:48.10 | 3:20.02 | 165610 | 180611
12 | 40:08.12 | 4:55.15 | 180612 | 202751
13 | 45:03.27 | 3:48.48 | 202752 | 219899
14 | 48:52.00 | 3:40.50 | 219900 | 236449
15 | 52:32.50 | 0:53.67 | 236450 | 240491
16 | 53:26.42 | 0:23.10 | 240492 | 242226
17 | 53:49.52 | 2:48.28 | 242227 | 254854

Track 1

Filename D:\Rips\VA - GTA Vice City O.S.T. Volume 3 Emotion 98.3\301 - Vice City - DJ Fernando, Intro.wav

Pre-gap length 0:00:02.00

Peak level 99.5 %
Extraction speed 1.3 X
Track quality 100.0 %
Test CRC E0A55D52
Copy CRC E0A55D52
Accurately ripped (confidence 26) [C3ADB776] (AR v2)
Copy OK

Track 2

Filename D:\Rips\VA - GTA Vice City O.S.T. Volume 3 Emotion 98.3\302 - Toto - Africa.wav

Peak level 98.8 %
Extraction speed 1.7 X
Track quality 99.9 %
Test CRC E981100F
Copy CRC E981100F
Accurately ripped (confidence 26) [DAFBFB15] (AR v2)
Copy OK

Track 3

Filename D:\Rips\VA - GTA Vice City O.S.T. Volume 3 Emotion 98.3\303 - Jan Hammer - Crockett's Theme.wav

Peak level 98.8 %
Extraction speed 2.0 X
Track quality 100.0 %
Test CRC FA2E94C7
Copy CRC FA2E94C7
Accurately ripped (confidence 26) [DE9BEF5A] (AR v2)
Copy OK

Track 4

Filename D:\Rips\VA - GTA Vice City O.S.T. Volume 3 Emotion 98.3\304 - John Waite - Missing You.wav

Peak level 98.8 %
Extraction speed 2.2 X
Track quality 100.0 %
Test CRC AD28B3BE
Copy CRC AD28B3BE
Accurately ripped (confidence 26) [13989C87] (AR v2)
Copy OK

Track 5

Filename D:\Rips\VA - GTA Vice City O.S.T. Volume 3 Emotion 98.3\305 - Cutting Crew - (I Just) Died in Your Arms.wav

Peak level 98.8 %
Extraction speed 2.4 X
Track quality 100.0 %
Test CRC FC72BFF1
Copy CRC FC72BFF1
Accurately ripped (confidence 26) [E1019E02] (AR v2)
Copy OK

Track 6

Filename D:\Rips\VA - GTA Vice City O.S.T. Volume 3 Emotion 98.3\306 - Foreigner - Waiting for a Girl Like You.wav

Peak level 98.8 %
Extraction speed 2.6 X
Track quality 100.0 %
Test CRC 4A579768
Copy CRC 4A579768
Accurately ripped (confidence 26) [4E930864] (AR v2)
Copy OK

Track 7

Filename D:\Rips\VA - GTA Vice City O.S.T. Volume 3 Emotion 98.3\307 - Mr. Mister - Broken Wings.wav

Peak level 98.8 %
Extraction speed 2.7 X
Track quality 100.0 %
Test CRC 76E1CBFF
Copy CRC 76E1CBFF
Accurately ripped (confidence 26) [A1285C0F] (AR v2)
Copy OK

Track 8

Filename D:\Rips\VA - GTA Vice City O.S.T. Volume 3 Emotion 98.3\308 - Vice City - DJ Fernando, Halftime.wav

Peak level 100.0 %
Extraction speed 1.2 X
Track quality 100.0 %
Test CRC DC5AF7AE
Copy CRC DC5AF7AE
Accurately ripped (confidence 26) [3E011EAE] (AR v2)
Copy OK

Track 9

Filename D:\Rips\VA - GTA Vice City O.S.T. Volume 3 Emotion 98.3\309 - Roxy Music - More Than This.wav

Peak level 98.8 %
Extraction speed 2.9 X
Track quality 100.0 %
Test CRC C561417D
Copy CRC C561417D
Accurately ripped (confidence 27) [C48B26A2] (AR v2)
Copy OK

Track 10

Filename D:\Rips\VA - GTA Vice City O.S.T. Volume 3 Emotion 98.3\310 - Squeeze - Tempted.wav

Peak level 98.9 %
Extraction speed 3.0 X
Track quality 100.0 %
Test CRC C3E04375
Copy CRC C3E04375
Accurately ripped (confidence 26) [D245C2A6] (AR v2)
Copy OK

Track 11

Filename D:\Rips\VA - GTA Vice City O.S.T. Volume 3 Emotion 98.3\311 - REO Speedwagon - Keep On Loving You.wav

Peak level 95.2 %
Extraction speed 3.0 X
Track quality 100.0 %
Test CRC E532113E
Copy CRC E532113E
Accurately ripped (confidence 26) [33679C82] (AR v2)
Copy OK

Track 12

Filename D:\Rips\VA - GTA Vice City O.S.T. Volume 3 Emotion 98.3\312 - Night Ranger - Sister Christian.wav

Peak level 98.8 %
Extraction speed 3.3 X
Track quality 100.0 %
Test CRC 254C7CA1
Copy CRC 254C7CA1
Accurately ripped (confidence 26) [81F9880E] (AR v2)
Copy OK

Track 13

Filename D:\Rips\VA - GTA Vice City O.S.T. Volume 3 Emotion 98.3\313 - Luther Vandross - Never Too Much.wav

Peak level 98.8 %
Extraction speed 3.3 X
Track quality 100.0 %
Test CRC DCB82B3A
Copy CRC DCB82B3A
Accurately ripped (confidence 26) [95FEC1DE] (AR v2)
Copy OK

Track 14

Filename D:\Rips\VA - GTA Vice City O.S.T. Volume 3 Emotion 98.3\314 - Kate Bush - Wow.wav

Peak level 98.8 %
Extraction speed 3.4 X
Track quality 100.0 %
Test CRC 2C0F042D
Copy CRC 2C0F042D
Accurately ripped (confidence 26) [C0ADFCC5] (AR v2)
Copy OK

Track 15

Filename D:\Rips\VA - GTA Vice City O.S.T. Volume 3 Emotion 98.3\315 - Vice City - DJ Fernando, Outro.wav

Peak level 100.0 %
Extraction speed 2.3 X
Track quality 100.0 %
Test CRC C63FA611
Copy CRC C63FA611
Accurately ripped (confidence 26) [1DB57943] (AR v2)
Copy OK

Track 16

Filename D:\Rips\VA - GTA Vice City O.S.T. Volume 3 Emotion 98.3\316 - Vice City - Commercial, Knife After Dark.wav

Peak level 79.3 %
Extraction speed 1.5 X
Track quality 100.0 %
Test CRC DFA4D0F2
Copy CRC DFA4D0F2
Accurately ripped (confidence 26) [7229C7FB] (AR v2)
Copy OK

Track 17

Filename D:\Rips\VA - GTA Vice City O.S.T. Volume 3 Emotion 98.3\317 - Vice City - Commercial, Petstuffers.wav

Peak level 99.8 %
Extraction speed 3.3 X
Track quality 100.0 %
Test CRC 0209C7F2
Copy CRC 0209C7F2
Accurately ripped (confidence 25) [79ADFACC] (AR v2)
Copy OK

All tracks accurately ripped

No errors occurred

End of status report

==== Log checksum 06E8589D4928B438CB91322967EA3EA126CD77B70EE5FDBB61D961E62FDDC66E ====
REM GENRE Soundtrack 
REM DATE 2002
REM DISCID DC0D4611
REM COMMENT "ExactAudioCopy v1.3"
CATALOG 5099751005926
PERFORMER "Various Artists"
TITLE "Grand Theft Auto: Vice City Official Soundtrack Box Set - Volume 3: Emotion 98.3"
FILE "01. DJ Fernando - Intro.wav" WAVE
TRACK 01 AUDIO
TITLE "DJ Fernando: Intro"
PERFORMER "Vice City"
INDEX 01 00:00:00
FILE "02. Toto - Africa.wav" WAVE
TRACK 02 AUDIO
TITLE "Africa"
PERFORMER "Toto"
ISRC USSM18200463
INDEX 01 00:00:00
FILE "03. Jan Hammer - Crockett's Theme.wav" WAVE
TRACK 03 AUDIO
TITLE "Crockett's Theme"
PERFORMER "Jan Hammer"
INDEX 01 00:00:00
FILE "04. John Waite - Missing You.wav" WAVE
TRACK 04 AUDIO
TITLE "Missing You"
PERFORMER "John Waite"
INDEX 01 00:00:00
FILE "05. Cutting Crew - (I Just) Died in Your Arms.wav" WAVE
TRACK 05 AUDIO
TITLE "(I Just) Died in Your Arms"
PERFORMER "Cutting Crew"
INDEX 01 00:00:00
FILE "06. Foreigner - Waiting for a Girl Like You.wav" WAVE
TRACK 06 AUDIO
TITLE "Waiting for a Girl Like You"
PERFORMER "Foreigner"
INDEX 01 00:00:00
FILE "07. Mr. Mister - Broken Wings.wav" WAVE
TRACK 07 AUDIO
TITLE "Broken Wings"
PERFORMER "Mr. Mister"
INDEX 01 00:00:00
FILE "08. DJ Fernando - Halftime.wav" WAVE
TRACK 08 AUDIO
TITLE "DJ Fernando: Halftime"
PERFORMER "Vice City"
INDEX 01 00:00:00
FILE "09. Roxy Music - More Than This.wav" WAVE
TRACK 09 AUDIO
TITLE "More Than This"
PERFORMER "Roxy Music"
INDEX 01 00:00:00
FILE "10. Squeeze - Tempted.wav" WAVE
TRACK 10 AUDIO
TITLE "Tempted"
PERFORMER "Squeeze"
INDEX 01 00:00:00
FILE "11. REO Speedwagon - Keep On Loving You.wav" WAVE
TRACK 11 AUDIO
TITLE "Keep On Loving You"
PERFORMER "REO Speedwagon"
ISRC USSM10012808
INDEX 01 00:00:00
FILE "12. Night Ranger - Sister Christian.wav" WAVE
TRACK 12 AUDIO
TITLE "Sister Christian"
PERFORMER "Night Ranger"
ISRC USSM10012808
INDEX 01 00:00:00
FILE "13. Luther Vandross - Never Too Much.wav" WAVE
TRACK 13 AUDIO
TITLE "Never Too Much"
PERFORMER "Luther Vandross"
ISRC USSM18100805
INDEX 01 00:00:00
FILE "14. Kate Bush - Wow.wav" WAVE
TRACK 14 AUDIO
TITLE "Wow"
PERFORMER "Kate Bush"
INDEX 01 00:00:00
FILE "15. DJ Fernando - Outro.wav" WAVE
TRACK 15 AUDIO
TITLE "DJ Fernando: Outro"
PERFORMER "Vice City"
INDEX 01 00:00:00
FILE "16. Commercial - Knife After Dark.wav" WAVE
TRACK 16 AUDIO
TITLE "Commercial: Knife After Dark"
PERFORMER "Vice City"
INDEX 01 00:00:00
FILE "17. Commercial - Petstuffers.wav" WAVE
TRACK 17 AUDIO
TITLE "Commercial: Petstuffers"
PERFORMER "Vice City"
INDEX 01 00:00:00
01. DJ Toni: Intro (0:40) 
02. Hall & Oates - Out of Touch (3:53)
03. Electric Light Orchestra - Four Little Diamonds (4:06)
04. Michael Jackson - Billie Jean (4:54)
05. The Outfield - Your Love (3:41)
06. Talk Talk - Life's What You Make It (4:25)
07. Bryan Adams - Run to You (3:49)
08. Wang Chung - Dance Hall Days (3:50)
09. DJ Toni: Halftime (0:38)
10. Go West - Call Me (4:08)
11. Glenn Frey - Smuggler's Blues (3:47)
12. Lionel Richie - Running with the Night (5:58)
13. Toto - Hold the Line (3:56)
14. Laura Branigan - Self Control (4:01)
15. Boys Don't Cry - I Wanna Be a Cowboy (3:24)
16. INXS - Kiss the Dirt (Falling Down the Mountain) (3:54)
17. Yes - Owner of a Lonely Heart (4:23)
18. DJ Toni: Outro (0:30)
19. Commercial: Blox (1:09)
20. Commercial: Just the Five of Us (2:23)

Exact Audio Copy V1.3 from 2. September 2016 

EAC extraction logfile from 27. March 2017, 21:05

Various Artists / GTA Vice City O.S.T. Volume 4: Flash FM

Used drive : ATAPI iHDS118 5 Adapter: 1 ID: 0

Read mode : Secure
Utilize accurate stream : Yes
Defeat audio cache : Yes
Make use of C2 pointers : No

Read offset correction : 6
Overread into Lead-In and Lead-Out : No
Fill up missing offset samples with silence : Yes
Delete leading and trailing silent blocks : No
Null samples used in CRC calculations : Yes
Used interface : Native Win32 interface for Win NT & 2000
Gap handling : Appended to previous track

Used output format : User Defined Encoder
Selected bitrate : 128 kBit/s
Quality : High
Add ID3 tag : No
Command line compressor : C:\flac-1.3.2-win\win32\flac.exe
Additional command line options : -8 -V -T "ARTIST=%artist%" -T "TITLE=%title%" -T "ALBUM=%albumtitle%" -T "DATE=%year%" -T "TRACKNUMBER=%tracknr%" -T "TRACKTOTAL=%numtracks%" -T "DISCNUMBER=%cdnumber%" -T "DISCTOTAL=%totalcds%" -T "GENRE=%genre%" -T "DESCRIPTION=%comment%" -T "ALBUMARTIST=%albuminterpret%" -T "BAND=%albuminterpret%" -T "COMPOSER=%composer%" %hascover%--picture="%coverfile%"%hascover% %source% -o %dest%

TOC of the extracted CD

Track | Start | Length | Start sector | End sector
---------------------------------------------------------
1 | 0:00.00 | 0:39.40 | 0 | 2964
2 | 0:39.40 | 3:53.35 | 2965 | 20474
3 | 4:33.00 | 4:05.67 | 20475 | 38916
4 | 8:38.67 | 4:53.38 | 38917 | 60929
5 | 13:32.30 | 3:40.47 | 60930 | 77476
6 | 17:13.02 | 4:25.13 | 77477 | 97364
7 | 21:38.15 | 3:49.17 | 97365 | 114556
8 | 25:27.32 | 3:50.05 | 114557 | 131811
9 | 29:17.37 | 0:38.13 | 131812 | 134674
10 | 29:55.50 | 4:08.12 | 134675 | 153286
11 | 34:03.62 | 3:47.25 | 153287 | 170336
12 | 37:51.12 | 5:57.50 | 170337 | 197161
13 | 43:48.62 | 3:55.53 | 197162 | 214839
14 | 47:44.40 | 4:00.55 | 214840 | 232894
15 | 51:45.20 | 3:23.50 | 232895 | 248169
16 | 55:08.70 | 3:53.42 | 248170 | 265686
17 | 59:02.37 | 4:23.00 | 265687 | 285411
18 | 63:25.37 | 0:29.43 | 285412 | 287629
19 | 63:55.05 | 1:09.07 | 287630 | 292811
20 | 65:04.12 | 2:22.55 | 292812 | 303516

Track 1

Filename D:\Rips\VA - GTA Vice City O.S.T. Volume 4 Flash FM\401 - Vice City - DJ Toni, Intro.wav

Pre-gap length 0:00:02.00

Peak level 100.0 %
Extraction speed 0.7 X
Track quality 99.7 %
Test CRC 7F54CFE3
Copy CRC 7F54CFE3
Accurately ripped (confidence 31) [775757E1] (AR v2)
Copy OK

Track 2

Filename D:\Rips\VA - GTA Vice City O.S.T. Volume 4 Flash FM\402 - Hall & Oates - Out of Touch.wav

Peak level 100.0 %
Extraction speed 1.9 X
Track quality 100.0 %
Test CRC D4A325C3
Copy CRC D4A325C3
Accurately ripped (confidence 32) [A5225341] (AR v2)
Copy OK

Track 3

Filename D:\Rips\VA - GTA Vice City O.S.T. Volume 4 Flash FM\403 - Electric Light Orchestra - Four Little Diamonds.wav

Peak level 97.7 %
Extraction speed 2.1 X
Track quality 100.0 %
Test CRC 33A235D7
Copy CRC 33A235D7
Accurately ripped (confidence 32) [273FB610] (AR v2)
Copy OK

Track 4

Filename D:\Rips\VA - GTA Vice City O.S.T. Volume 4 Flash FM\404 - Michael Jackson - Billie Jean.wav

Peak level 90.1 %
Extraction speed 2.4 X
Track quality 100.0 %
Test CRC 4C722161
Copy CRC 4C722161
Accurately ripped (confidence 32) [42B8732C] (AR v2)
Copy OK

Track 5

Filename D:\Rips\VA - GTA Vice City O.S.T. Volume 4 Flash FM\405 - The Outfield - Your Love.wav

Peak level 100.0 %
Extraction speed 2.4 X
Track quality 100.0 %
Test CRC B0533946
Copy CRC B0533946
Accurately ripped (confidence 32) [03008816] (AR v2)
Copy OK

Track 6

Filename D:\Rips\VA - GTA Vice City O.S.T. Volume 4 Flash FM\406 - Talk Talk - Life's What You Make It.wav

Peak level 100.0 %
Extraction speed 2.7 X
Track quality 100.0 %
Test CRC 54C7479B
Copy CRC 54C7479B
Accurately ripped (confidence 32) [8800381F] (AR v2)
Copy OK

Track 7

Filename D:\Rips\VA - GTA Vice City O.S.T. Volume 4 Flash FM\407 - Bryan Adams - Run to You.wav

Peak level 100.0 %
Extraction speed 2.7 X
Track quality 100.0 %
Test CRC D2155E26
Copy CRC D2155E26
Accurately ripped (confidence 32) [3B31029B] (AR v2)
Copy OK

Track 8

Filename D:\Rips\VA - GTA Vice City O.S.T. Volume 4 Flash FM\408 - Wang Chung - Dance Hall Days.wav

Peak level 100.0 %
Extraction speed 2.5 X
Track quality 99.9 %
Test CRC AD903038
Copy CRC AD903038
Accurately ripped (confidence 33) [20382244] (AR v2)
Copy OK

Track 9

Filename D:\Rips\VA - GTA Vice City O.S.T. Volume 4 Flash FM\409 - Vice City - DJ Toni, Halftime.wav

Peak level 100.0 %
Extraction speed 1.1 X
Track quality 99.7 %
Test CRC B0E62D7F
Copy CRC B0E62D7F
Accurately ripped (confidence 31) [6C42DBE0] (AR v2)
Copy OK

Track 10

Filename D:\Rips\VA - GTA Vice City O.S.T. Volume 4 Flash FM\410 - Go West - Call Me.wav

Peak level 100.0 %
Extraction speed 3.0 X
Track quality 100.0 %
Test CRC 25B6B194
Copy CRC 25B6B194
Accurately ripped (confidence 32) [F0773B0E] (AR v2)
Copy OK

Track 11

Filename D:\Rips\VA - GTA Vice City O.S.T. Volume 4 Flash FM\411 - Glenn Frey - Smuggler's Blues.wav

Peak level 99.8 %
Extraction speed 3.1 X
Track quality 100.0 %
Test CRC 89AE240A
Copy CRC 89AE240A
Accurately ripped (confidence 32) [2AA1EEE3] (AR v2)
Copy OK

Track 12

Filename D:\Rips\VA - GTA Vice City O.S.T. Volume 4 Flash FM\412 - Lionel Richie - Running with the Night.wav

Peak level 100.0 %
Extraction speed 3.5 X
Track quality 100.0 %
Test CRC CD80CBBD
Copy CRC CD80CBBD
Accurately ripped (confidence 32) [DA244CA7] (AR v2)
Copy OK

Track 13

Filename D:\Rips\VA - GTA Vice City O.S.T. Volume 4 Flash FM\413 - Toto - Hold the Line.wav

Peak level 99.8 %
Extraction speed 3.0 X
Track quality 99.9 %
Test CRC 4019BEAE
Copy CRC 4019BEAE
Accurately ripped (confidence 32) [FA223AB6] (AR v2)
Copy OK

Track 14

Filename D:\Rips\VA - GTA Vice City O.S.T. Volume 4 Flash FM\414 - Laura Branigan - Self Control.wav

Peak level 100.0 %
Extraction speed 3.5 X
Track quality 100.0 %
Test CRC 7492ED98
Copy CRC 7492ED98
Accurately ripped (confidence 32) [766BF5BA] (AR v2)
Copy OK

Track 15

Filename D:\Rips\VA - GTA Vice City O.S.T. Volume 4 Flash FM\415 - Boys Don't Cry - I Wanna Be a Cowboy.wav

Peak level 99.8 %
Extraction speed 3.5 X
Track quality 100.0 %
Test CRC B1CA0802
Copy CRC B1CA0802
Accurately ripped (confidence 32) [025A217C] (AR v2)
Copy OK

Track 16

Filename D:\Rips\VA - GTA Vice City O.S.T. Volume 4 Flash FM\416 - INXS - Kiss the Dirt (Falling Down the Mountain).wav

Peak level 100.0 %
Extraction speed 3.7 X
Track quality 100.0 %
Test CRC D1AF3C78
Copy CRC D1AF3C78
Accurately ripped (confidence 32) [7FDDA355] (AR v2)
Copy OK

Track 17

Filename D:\Rips\VA - GTA Vice City O.S.T. Volume 4 Flash FM\417 - Yes - Owner of a Lonely Heart.wav

Peak level 100.0 %
Extraction speed 3.8 X
Track quality 100.0 %
Test CRC 172F5124
Copy CRC 172F5124
Accurately ripped (confidence 31) [6C8A7442] (AR v2)
Copy OK

Track 18

Filename D:\Rips\VA - GTA Vice City O.S.T. Volume 4 Flash FM\418 - Vice City - DJ Toni, Outro.wav

Peak level 100.0 %
Extraction speed 1.8 X
Track quality 100.0 %
Test CRC 4C44E506
Copy CRC 4C44E506
Accurately ripped (confidence 31) [4975699E] (AR v2)
Copy OK

Track 19

Filename D:\Rips\VA - GTA Vice City O.S.T. Volume 4 Flash FM\419 - Vice City - Commercial, Blox.wav

Peak level 99.9 %
Extraction speed 2.9 X
Track quality 100.0 %
Test CRC 2899E6C8
Copy CRC 2899E6C8
Accurately ripped (confidence 31) [027DB6A0] (AR v2)
Copy OK

Track 20

Filename D:\Rips\VA - GTA Vice City O.S.T. Volume 4 Flash FM\420 - Vice City - Commercial, Just the Five of Us.wav

Peak level 99.8 %
Extraction speed 2.9 X
Track quality 99.9 %
Test CRC 6EEDD138
Copy CRC 6EEDD138
Accurately ripped (confidence 30) [E1E03A85] (AR v2)
Copy OK

All tracks accurately ripped

No errors occurred

End of status report

==== Log checksum 1954D9A8413E22C98B5FD4C09566AE88ED755A412DD7F1EE80D1695144C7970F ====
REM GENRE Soundtrack 
REM DATE 2002
REM DISCID 0B0FCE14
REM COMMENT "ExactAudioCopy v1.3"
CATALOG 5099751005728
PERFORMER "Various Artists"
TITLE "Grand Theft Auto: Vice City Official Soundtrack Box Set - Volume 4: Flash FM"
FILE "01. DJ Toni - Intro.wav" WAVE
TRACK 01 AUDIO
TITLE "DJ Toni: Intro"
PERFORMER "Vice City"
INDEX 01 00:00:00
FILE "02. Hall & Oates - Out of Touch.wav" WAVE
TRACK 02 AUDIO
TITLE "Out of Touch"
PERFORMER "Hall & Oates"
INDEX 01 00:00:00
FILE "03. Electric Light Orchestra - Four Little Diamonds.wav" WAVE
TRACK 03 AUDIO
TITLE "Four Little Diamonds"
PERFORMER "Electric Light Orchestra"
ISRC USSM10021045
INDEX 01 00:00:00
FILE "04. Michael Jackson - Billie Jean.wav" WAVE
TRACK 04 AUDIO
TITLE "Billie Jean"
PERFORMER "Michael Jackson"
ISRC USSM19902991
INDEX 01 00:00:00
FILE "05. The Outfield - Your Love.wav" WAVE
TRACK 05 AUDIO
TITLE "Your Love"
PERFORMER "The Outfield"
ISRC USSM19902991
INDEX 01 00:00:00
FILE "06. Talk Talk - Life's What You Make It.wav" WAVE
TRACK 06 AUDIO
TITLE "Life's What You Make It"
PERFORMER "Talk Talk"
INDEX 01 00:00:00
FILE "07. Bryan Adams - Run to You.wav" WAVE
TRACK 07 AUDIO
TITLE "Run to You"
PERFORMER "Bryan Adams"
ISRC USSM19912485
INDEX 01 00:00:00
FILE "08. Wang Chung - Dance Hall Days.wav" WAVE
TRACK 08 AUDIO
TITLE "Dance Hall Days"
PERFORMER "Wang Chung"
INDEX 01 00:00:00
FILE "09. DJ Toni - Halftime.wav" WAVE
TRACK 09 AUDIO
TITLE "DJ Toni: Halftime"
PERFORMER "Vice City"
INDEX 01 00:00:00
FILE "10. Go West - Call Me.wav" WAVE
TRACK 10 AUDIO
TITLE "Call Me"
PERFORMER "Go West"
INDEX 01 00:00:00
FILE "11. Glenn Frey - Smuggler's Blues.wav" WAVE
TRACK 11 AUDIO
TITLE "Smuggler's Blues"
PERFORMER "Glenn Frey"
INDEX 01 00:00:00
FILE "12. Lionel Richie - Running with the Night.wav" WAVE
TRACK 12 AUDIO
TITLE "Running with the Night"
PERFORMER "Lionel Richie"
ISRC USSM19912487
INDEX 01 00:00:00
FILE "13. Toto - Hold the Line.wav" WAVE
TRACK 13 AUDIO
TITLE "Hold the Line"
PERFORMER "Toto"
ISRC USSM17800444
INDEX 01 00:00:00
FILE "14. Laura Branigan - Self Control.wav" WAVE
TRACK 14 AUDIO
TITLE "Self Control"
PERFORMER "Laura Branigan"
INDEX 01 00:00:00
FILE "15. Boys Don't Cry - I Wanna Be a Cowboy.wav" WAVE
TRACK 15 AUDIO
TITLE "I Wanna Be a Cowboy"
PERFORMER "Boys Don't Cry"
INDEX 01 00:00:00
FILE "16. INXS - Kiss the Dirt (Falling Down the Mountain).wav" WAVE
TRACK 16 AUDIO
TITLE "Kiss the Dirt (Falling Down the Mountain)"
PERFORMER "INXS"
INDEX 01 00:00:00
FILE "17. Yes - Owner of a Lonely Heart.wav" WAVE
TRACK 17 AUDIO
TITLE "Owner of a Lonely Heart"
PERFORMER "Yes"
INDEX 01 00:00:00
FILE "18. DJ Toni - Outro.wav" WAVE
TRACK 18 AUDIO
TITLE "DJ Toni: Outro"
PERFORMER "Vice City"
INDEX 01 00:00:00
FILE "19. Commercial - Blox.wav" WAVE
TRACK 19 AUDIO
TITLE "Commercial: Blox"
PERFORMER "Vice City"
INDEX 01 00:00:00
FILE "20. Commercial - Just the Five of Us.wav" WAVE
TRACK 20 AUDIO
TITLE "Commercial: Just the Five of Us"
PERFORMER "Vice City"
INDEX 01 00:00:00
01. Mr. Magic: Intro (0:24) 
02. Herbie Hancock - Rockit (5:22)
03. Grandmaster Flash & the Furious Five - The Message (7:10)
04. Zapp & Roger - More Bounce to the Ounce (5:27)
05. Mr. Magic: Interlude 1 (0:13)
06. Davy DMX - One for the Treble (6:33)
07. Mantronix - Bassline (5:23)
08. Mr. Magic: Interlude 2 (0:11)
09. Man Parrish - Hip Hop Be Bop (Don't Stop) (5:42)
10. Hashim - Al-Naafiysh (the Soul) (7:43)
11. Cybotron - Clean (4:52)
12. Mr. Magic: Interlude 3 (0:10)
13. Afrika Bambaataa & the Soulsonic Force - Looking for the Perfect Beat (6:48)
14. Mr. Magic: Interlude 4 (0:05)
15. Run DMC - Rock Box (5:29)
16. Kurtis Blow - The Breaks (7:47)
17. Mr. Magic: Interlude 5 (0:09)
18. Whodini - Magic's Wand (5:36)
19. Mr. Magic: Interlude 6 (0:25)
20. Commercial: Degenerator (1:08)
21. Commercial: Maibatsu Thunder (0:53)

Exact Audio Copy V1.3 from 2. September 2016 

EAC extraction logfile from 27. March 2017, 21:59

Various Artists / GTA Vice City O.S.T. Volume 5: Wildstyle Pirate Radio

Used drive : ATAPI iHDS118 5 Adapter: 1 ID: 0

Read mode : Secure
Utilize accurate stream : Yes
Defeat audio cache : Yes
Make use of C2 pointers : No

Read offset correction : 6
Overread into Lead-In and Lead-Out : No
Fill up missing offset samples with silence : Yes
Delete leading and trailing silent blocks : No
Null samples used in CRC calculations : Yes
Used interface : Native Win32 interface for Win NT & 2000
Gap handling : Appended to previous track

Used output format : User Defined Encoder
Selected bitrate : 128 kBit/s
Quality : High
Add ID3 tag : No
Command line compressor : C:\flac-1.3.2-win\win32\flac.exe
Additional command line options : -8 -V -T "ARTIST=%artist%" -T "TITLE=%title%" -T "ALBUM=%albumtitle%" -T "DATE=%year%" -T "TRACKNUMBER=%tracknr%" -T "TRACKTOTAL=%numtracks%" -T "DISCNUMBER=%cdnumber%" -T "DISCTOTAL=%totalcds%" -T "GENRE=%genre%" -T "DESCRIPTION=%comment%" -T "ALBUMARTIST=%albuminterpret%" -T "BAND=%albuminterpret%" -T "COMPOSER=%composer%" %hascover%--picture="%coverfile%"%hascover% %source% -o %dest%

TOC of the extracted CD

Track | Start | Length | Start sector | End sector
---------------------------------------------------------
1 | 0:00.00 | 0:24.27 | 0 | 1826
2 | 0:24.27 | 5:22.25 | 1827 | 26001
3 | 5:46.52 | 7:09.68 | 26002 | 58244
4 | 12:56.45 | 5:27.07 | 58245 | 82776
5 | 18:23.52 | 0:13.35 | 82777 | 83786
6 | 18:37.12 | 6:32.55 | 83787 | 113241
7 | 25:09.67 | 5:23.05 | 113242 | 137471
8 | 30:32.72 | 0:11.25 | 137472 | 138321
9 | 30:44.22 | 5:41.38 | 138322 | 163934
10 | 36:25.60 | 7:43.20 | 163935 | 198679
11 | 44:09.05 | 4:52.05 | 198680 | 220584
12 | 49:01.10 | 0:10.25 | 220585 | 221359
13 | 49:11.35 | 6:47.40 | 221360 | 251924
14 | 55:59.00 | 0:05.35 | 251925 | 252334
15 | 56:04.35 | 5:28.55 | 252335 | 276989
16 | 61:33.15 | 7:47.37 | 276990 | 312051
17 | 69:20.52 | 0:08.50 | 312052 | 312701
18 | 69:29.27 | 5:36.15 | 312702 | 337916
19 | 75:05.42 | 0:24.48 | 337917 | 339764
20 | 75:30.15 | 1:08.07 | 339765 | 344871
21 | 76:38.22 | 0:53.13 | 344872 | 348859

Track 1

Filename D:\Rips\VA - GTA Vice City O.S.T. Volume 5 Wildstyle Pirate Radio\501 - Vice City - Mr. Magic, Intro.wav

Pre-gap length 0:00:02.00

Peak level 100.0 %
Extraction speed 0.8 X
Track quality 100.0 %
Test CRC CCC92A59
Copy CRC CCC92A59
Accurately ripped (confidence 21) [6767B8F0] (AR v2)
Copy OK

Track 2

Filename D:\Rips\VA - GTA Vice City O.S.T. Volume 5 Wildstyle Pirate Radio\502 - Herbie Hancock - Rockit.wav

Peak level 100.0 %
Extraction speed 1.9 X
Track quality 99.9 %
Test CRC 92BF7501
Copy CRC 92BF7501
Accurately ripped (confidence 17) [A34D08A2] (AR v2)
Copy OK

Track 3

Filename D:\Rips\VA - GTA Vice City O.S.T. Volume 5 Wildstyle Pirate Radio\503 - Grandmaster Flash & the Furious Five - The Message.wav

Peak level 100.0 %
Extraction speed 2.3 X
Track quality 99.9 %
Test CRC 6569EF6D
Copy CRC 6569EF6D
Accurately ripped (confidence 17) [BCACDF2B] (AR v2)
Copy OK

Track 4

Filename D:\Rips\VA - GTA Vice City O.S.T. Volume 5 Wildstyle Pirate Radio\504 - Zapp & Roger - More Bounce to the Ounce.wav

Peak level 100.0 %
Extraction speed 2.7 X
Track quality 100.0 %
Test CRC 698E810E
Copy CRC 698E810E
Accurately ripped (confidence 21) [EA495BE5] (AR v2)
Copy OK

Track 5

Filename D:\Rips\VA - GTA Vice City O.S.T. Volume 5 Wildstyle Pirate Radio\505 - Vice City - Mr. Magic, Interlude 1.wav

Peak level 100.0 %
Extraction speed 0.8 X
Track quality 100.0 %
Test CRC 064644E3
Copy CRC 064644E3
Accurately ripped (confidence 21) [DA609D2B] (AR v2)
Copy OK

Track 6

Filename D:\Rips\VA - GTA Vice City O.S.T. Volume 5 Wildstyle Pirate Radio\506 - Davy DMX - One for the Treble.wav

Peak level 100.0 %
Extraction speed 2.7 X
Track quality 99.9 %
Test CRC 03172864
Copy CRC 03172864
Accurately ripped (confidence 17) [884B5255] (AR v2)
Copy OK

Track 7

Filename D:\Rips\VA - GTA Vice City O.S.T. Volume 5 Wildstyle Pirate Radio\507 - Mantronix - Bassline.wav

Peak level 100.0 %
Extraction speed 3.1 X
Track quality 100.0 %
Test CRC 7A95044D
Copy CRC 7A95044D
Accurately ripped (confidence 21) [44EAD9F8] (AR v2)
Copy OK

Track 8

Filename D:\Rips\VA - GTA Vice City O.S.T. Volume 5 Wildstyle Pirate Radio\508 - Vice City - Mr. Magic, Interlude 2.wav

Peak level 100.0 %
Extraction speed 0.8 X
Track quality 100.0 %
Test CRC 31953A89
Copy CRC 31953A89
Accurately ripped (confidence 21) [EB1600FA] (AR v2)
Copy OK

Track 9

Filename D:\Rips\VA - GTA Vice City O.S.T. Volume 5 Wildstyle Pirate Radio\509 - Man Parrish - Hip Hop Be Bop (Don't Stop).wav

Peak level 100.0 %
Extraction speed 3.3 X
Track quality 100.0 %
Test CRC 1C256829
Copy CRC 1C256829
Accurately ripped (confidence 17) [6E337B66] (AR v2)
Copy OK

Track 10

Filename D:\Rips\VA - GTA Vice City O.S.T. Volume 5 Wildstyle Pirate Radio\510 - Hashim - Al-Naafiysh (the Soul).wav

Peak level 100.0 %
Extraction speed 3.6 X
Track quality 100.0 %
Test CRC FC4F7832
Copy CRC FC4F7832
Accurately ripped (confidence 17) [5E50C8C4] (AR v2)
Copy OK

Track 11

Filename D:\Rips\VA - GTA Vice City O.S.T. Volume 5 Wildstyle Pirate Radio\511 - Cybotron - Clean.wav

Peak level 100.0 %
Extraction speed 3.7 X
Track quality 100.0 %
Test CRC AE0DE424
Copy CRC AE0DE424
Accurately ripped (confidence 21) [A9A95876] (AR v2)
Copy OK

Track 12

Filename D:\Rips\VA - GTA Vice City O.S.T. Volume 5 Wildstyle Pirate Radio\512 - Vice City - Mr. Magic, Interlude 3.wav

Peak level 100.0 %
Extraction speed 0.8 X
Track quality 100.0 %
Test CRC 19785200
Copy CRC 19785200
Accurately ripped (confidence 21) [AAE013A6] (AR v2)
Copy OK

Track 13

Filename D:\Rips\VA - GTA Vice City O.S.T. Volume 5 Wildstyle Pirate Radio\513 - Afrika Bambaataa & the Soulsonic Force - Looking for the Perfect Beat.wav

Peak level 100.0 %
Extraction speed 4.0 X
Track quality 100.0 %
Test CRC D21DCF2F
Copy CRC D21DCF2F
Accurately ripped (confidence 17) [09F7CD8F] (AR v2)
Copy OK

Track 14

Filename D:\Rips\VA - GTA Vice City O.S.T. Volume 5 Wildstyle Pirate Radio\514 - Vice City - Mr. Magic, Interlude 4.wav

Peak level 100.0 %
Extraction speed 0.5 X
Track quality 100.0 %
Test CRC 406045C1
Copy CRC 406045C1
Accurately ripped (confidence 4) [E6AC7D9D] (AR v2)
Copy OK

Track 15

Filename D:\Rips\VA - GTA Vice City O.S.T. Volume 5 Wildstyle Pirate Radio\515 - Run DMC - Rock Box.wav

Peak level 100.0 %
Extraction speed 4.0 X
Track quality 100.0 %
Test CRC 6BD9E5FB
Copy CRC 6BD9E5FB
Accurately ripped (confidence 21) [3DB9FF67] (AR v2)
Copy OK

Track 16

Filename D:\Rips\VA - GTA Vice City O.S.T. Volume 5 Wildstyle Pirate Radio\516 - Kurtis Blow - The Breaks.wav

Peak level 100.0 %
Extraction speed 4.3 X
Track quality 100.0 %
Test CRC 0C018B3F
Copy CRC 0C018B3F
Accurately ripped (confidence 20) [8D6153F1] (AR v2)
Copy OK

Track 17

Filename D:\Rips\VA - GTA Vice City O.S.T. Volume 5 Wildstyle Pirate Radio\517 - Vice City - Mr. Magic, Interlude 5.wav

Peak level 100.0 %
Extraction speed 0.8 X
Track quality 100.0 %
Test CRC 39E171A7
Copy CRC 39E171A7
Accurately ripped (confidence 21) [0DB5E3F2] (AR v2)
Copy OK

Track 18

Filename D:\Rips\VA - GTA Vice City O.S.T. Volume 5 Wildstyle Pirate Radio\518 - Whodini - Magic's Wand.wav

Peak level 100.0 %
Extraction speed 4.4 X
Track quality 100.0 %
Test CRC C019276C
Copy CRC C019276C
Accurately ripped (confidence 17) [CE1180FF] (AR v2)
Copy OK

Track 19

Filename D:\Rips\VA - GTA Vice City O.S.T. Volume 5 Wildstyle Pirate Radio\519 - Vice City - Mr. Magic, Interlude 6.wav

Peak level 100.0 %
Extraction speed 1.9 X
Track quality 100.0 %
Test CRC 5DF5FE30
Copy CRC 5DF5FE30
Accurately ripped (confidence 21) [9E4CE36B] (AR v2)
Copy OK

Track 20

Filename D:\Rips\VA - GTA Vice City O.S.T. Volume 5 Wildstyle Pirate Radio\520 - Vice City - Commercial, Degenerator.wav

Peak level 100.0 %
Extraction speed 3.1 X
Track quality 100.0 %
Test CRC EDC8DD45
Copy CRC EDC8DD45
Accurately ripped (confidence 21) [C3849342] (AR v2)
Copy OK

Track 21

Filename D:\Rips\VA - GTA Vice City O.S.T. Volume 5 Wildstyle Pirate Radio\521 - Vice City - Commercial, Maibatsu Thunder.wav

Peak level 100.0 %
Extraction speed 2.8 X
Track quality 100.0 %
Test CRC E926CF8D
Copy CRC E926CF8D
Accurately ripped (confidence 20) [B6664901] (AR v2)
Copy OK

All tracks accurately ripped

No errors occurred

End of status report

==== Log checksum FD86F3FA79C01F70EE6AEA19D349BB0DAE40210631C8E824B7E6E74A89187FEF ====
REM GENRE Soundtrack 
REM DATE 2002
REM DISCID 2B122B15
REM COMMENT "ExactAudioCopy v1.3"
CATALOG 5099751006220
PERFORMER "Various Artists"
TITLE "Grand Theft Auto: Vice City Official Soundtrack Box Set - Volume 5: Wildstyle Pirate Radio"
FILE "01. Mr. Magic - Intro.wav" WAVE
TRACK 01 AUDIO
TITLE "Mr. Magic: Intro"
PERFORMER "Vice City"
ISRC USSM10212380
INDEX 01 00:00:00
FILE "02. Herbie Hancock - Rockit.wav" WAVE
TRACK 02 AUDIO
TITLE "Rockit"
PERFORMER "Herbie Hancock"
ISRC USSM18300607
INDEX 01 00:00:00
FILE "03. Grandmaster Flash & the Furious Five - The Message.wav" WAVE
TRACK 03 AUDIO
TITLE "The Message"
PERFORMER "Grandmaster Flash & the Furious Five"
INDEX 01 00:00:00
FILE "04. Zapp & Roger - More Bounce to the Ounce.wav" WAVE
TRACK 04 AUDIO
TITLE "More Bounce to the Ounce"
PERFORMER "Zapp & Roger"
INDEX 01 00:00:00
FILE "05. Mr. Magic - Interlude 1.wav" WAVE
TRACK 05 AUDIO
TITLE "Mr. Magic: Interlude 1"
PERFORMER "Vice City"
ISRC USSM10212386
INDEX 01 00:00:00
FILE "06. Davy DMX - One for the Treble.wav" WAVE
TRACK 06 AUDIO
TITLE "One for the Treble"
PERFORMER "Davy DMX"
ISRC USSM18300415
INDEX 01 00:00:00
FILE "07. Mantronix - Bassline.wav" WAVE
TRACK 07 AUDIO
TITLE "Bassline"
PERFORMER "Mantronix"
INDEX 01 00:00:00
FILE "08. Mr. Magic - Interlude 2.wav" WAVE
TRACK 08 AUDIO
TITLE "Mr. Magic: Interlude 2"
PERFORMER "Vice City"
ISRC USSM10212381
INDEX 01 00:00:00
FILE "09. Man Parrish - Hip Hop Be Bop (Don't Stop).wav" WAVE
TRACK 09 AUDIO
TITLE "Hip Hop Be Bop (Don't Stop)"
PERFORMER "Man Parrish"
INDEX 01 00:00:00
FILE "10. Hashim - Al-Naafiysh (the Soul).wav" WAVE
TRACK 10 AUDIO
TITLE "Al-Naafiysh (the Soul)"
PERFORMER "Hashim"
INDEX 01 00:00:00
FILE "11. Cybotron - Clean.wav" WAVE
TRACK 11 AUDIO
TITLE "Clean"
PERFORMER "Cybotron"
INDEX 01 00:00:00
FILE "12. Mr. Magic - Interlude 3.wav" WAVE
TRACK 12 AUDIO
TITLE "Mr. Magic: Interlude 3"
PERFORMER "Vice City"
ISRC USSM10212387
INDEX 01 00:00:00
FILE "13. Afrika Bambaataa & the Soulsonic Force - Looking for the Perfect Beat.wav" WAVE
TRACK 13 AUDIO
TITLE "Looking for the Perfect Beat"
PERFORMER "Afrika Bambaataa & the Soulsonic Force"
ISRC USSM10212387
INDEX 01 00:00:00
FILE "14. Mr. Magic - Interlude 4.wav" WAVE
TRACK 14 AUDIO
TITLE "Mr. Magic: Interlude 4"
PERFORMER "Vice City"
INDEX 01 00:00:00
FILE "15. Run DMC - Rock Box.wav" WAVE
TRACK 15 AUDIO
TITLE "Rock Box"
PERFORMER "Run DMC"
INDEX 01 00:00:00
FILE "16. Kurtis Blow - The Breaks.wav" WAVE
TRACK 16 AUDIO
TITLE "The Breaks"
PERFORMER "Kurtis Blow"
INDEX 01 00:00:00
FILE "17. Mr. Magic - Interlude 5.wav" WAVE
TRACK 17 AUDIO
TITLE "Mr. Magic: Interlude 5"
PERFORMER "Vice City"
INDEX 01 00:00:00
FILE "18. Whodini - Magic's Wand.wav" WAVE
TRACK 18 AUDIO
TITLE "Magic's Wand"
PERFORMER "Whodini"
INDEX 01 00:00:00
FILE "19. Mr. Magic - Interlude 6.wav" WAVE
TRACK 19 AUDIO
TITLE "Mr. Magic: Interlude 6"
PERFORMER "Vice City"
ISRC USSM10212383
INDEX 01 00:00:00
FILE "20. Commercial - Degenerator.wav" WAVE
TRACK 20 AUDIO
TITLE "Commercial: Degenerator"
PERFORMER "Vice City"
ISRC USSM10212383
INDEX 01 00:00:00
FILE "21. Commercial - Maibatsu Thunder.wav" WAVE
TRACK 21 AUDIO
TITLE "Commercial: Maibatsu Thunder"
PERFORMER "Vice City"
ISRC USSM10212385
INDEX 01 00:00:00
01. DJ Oliver 'Ladykiller' Biscuit: Intro (0:50) 
02. Michael Jackson - Wanna Be Startin' Somethin' (6:01)
03. The Pointer Sisters - Automatic (6:06)
04. Fat Larry's Band - Act Like You Know (6:28)
05. Mtume - Juicy Fruit (5:52)
06. Teena Marie - Behind the Groove (3:58)
07. DJ Oliver 'Ladykiller' Biscuit: Halftime (0:33)
08. Oliver Cheatham - Get Down Saturday Night (6:50)
09. Rick James - Ghetto Life (4:19)
10. Evelyn 'Champagne' King - Shame (6:31)
11. Mary Jane Girls - All Night Long (5:44)
12. Kool & the Gang - Summer Madness (4:15)
13. Ren & Angela - I'll Be Good (4:08)
14. Indeep - Last Night a D.J. Saved My Life (5:39)
15. The Whispers - And the Beat Goes On (7:35)
16. DJ Oliver 'Ladykiller' Biscuit: Outro (0:36)
17. Commercial: Salivex (1:06)
18. Commercial: Yuppie & the Alien (2:55)

Exact Audio Copy V1.3 from 2. September 2016 

EAC extraction logfile from 27. March 2017, 22:53

Various Artists / GTA Vice City O.S.T. Volume 6: Fever 105

Used drive : ATAPI iHDS118 5 Adapter: 1 ID: 0

Read mode : Secure
Utilize accurate stream : Yes
Defeat audio cache : Yes
Make use of C2 pointers : No

Read offset correction : 6
Overread into Lead-In and Lead-Out : No
Fill up missing offset samples with silence : Yes
Delete leading and trailing silent blocks : No
Null samples used in CRC calculations : Yes
Used interface : Native Win32 interface for Win NT & 2000
Gap handling : Appended to previous track

Used output format : User Defined Encoder
Selected bitrate : 128 kBit/s
Quality : High
Add ID3 tag : No
Command line compressor : C:\flac-1.3.2-win\win32\flac.exe
Additional command line options : -8 -V -T "ARTIST=%artist%" -T "TITLE=%title%" -T "ALBUM=%albumtitle%" -T "DATE=%year%" -T "TRACKNUMBER=%tracknr%" -T "TRACKTOTAL=%numtracks%" -T "DISCNUMBER=%cdnumber%" -T "DISCTOTAL=%totalcds%" -T "GENRE=%genre%" -T "DESCRIPTION=%comment%" -T "ALBUMARTIST=%albuminterpret%" -T "BAND=%albuminterpret%" -T "COMPOSER=%composer%" %hascover%--picture="%coverfile%"%hascover% %source% -o %dest%

TOC of the extracted CD

Track | Start | Length | Start sector | End sector
---------------------------------------------------------
1 | 0:00.00 | 0:50.17 | 0 | 3766
2 | 0:50.17 | 6:01.23 | 3767 | 30864
3 | 6:51.40 | 6:05.40 | 30865 | 58279
4 | 12:57.05 | 6:28.12 | 58280 | 87391
5 | 19:25.17 | 5:51.65 | 87392 | 113781
6 | 25:17.07 | 3:58.08 | 113782 | 131639
7 | 29:15.15 | 0:33.17 | 131640 | 134131
8 | 29:48.32 | 6:50.05 | 134132 | 164886
9 | 36:38.37 | 4:19.30 | 164887 | 184341
10 | 40:57.67 | 6:31.00 | 184342 | 213666
11 | 47:28.67 | 5:43.58 | 213667 | 239449
12 | 53:12.50 | 4:15.22 | 239450 | 258596
13 | 57:27.72 | 4:08.05 | 258597 | 277201
14 | 61:36.02 | 5:39.15 | 277202 | 302641
15 | 67:15.17 | 7:34.50 | 302642 | 336741
16 | 74:49.67 | 0:35.65 | 336742 | 339431
17 | 75:25.57 | 1:05.68 | 339432 | 344374
18 | 76:31.50 | 2:55.02 | 344375 | 357501

Track 1

Filename D:\Rips\VA - GTA Vice City O.S.T. Volume 6 Fever 105\601 - Vice City - DJ Oliver ''Ladykiller'' Biscuit, Intro.wav

Pre-gap length 0:00:02.00

Peak level 99.8 %
Extraction speed 1.3 X
Track quality 100.0 %
Test CRC 564F5F74
Copy CRC 564F5F74
Accurately ripped (confidence 25) [6BB0089A] (AR v2)
Copy OK

Track 2

Filename D:\Rips\VA - GTA Vice City O.S.T. Volume 6 Fever 105\602 - Michael Jackson - Wanna Be Startin' Somethin'.wav

Peak level 98.8 %
Extraction speed 2.2 X
Track quality 100.0 %
Test CRC 264AEEE1
Copy CRC 264AEEE1
Accurately ripped (confidence 25) [E67BBDDD] (AR v2)
Copy OK

Track 3

Filename D:\Rips\VA - GTA Vice City O.S.T. Volume 6 Fever 105\603 - The Pointer Sisters - Automatic.wav

Peak level 98.8 %
Extraction speed 2.3 X
Track quality 99.9 %
Test CRC BCEE4C5F
Copy CRC BCEE4C5F
Accurately ripped (confidence 25) [D3A00761] (AR v2)
Copy OK

Track 4

Filename D:\Rips\VA - GTA Vice City O.S.T. Volume 6 Fever 105\604 - Fat Larry's Band - Act Like You Know.wav

Peak level 98.8 %
Extraction speed 2.8 X
Track quality 100.0 %
Test CRC B1554120
Copy CRC B1554120
Accurately ripped (confidence 25) [EC4DEAE1] (AR v2)
Copy OK

Track 5

Filename D:\Rips\VA - GTA Vice City O.S.T. Volume 6 Fever 105\605 - Mtume - Juicy Fruit.wav

Peak level 94.4 %
Extraction speed 3.0 X
Track quality 100.0 %
Test CRC B668195D
Copy CRC B668195D
Accurately ripped (confidence 25) [12DF54B1] (AR v2)
Copy OK

Track 6

Filename D:\Rips\VA - GTA Vice City O.S.T. Volume 6 Fever 105\606 - Teena Marie - Behind the Groove.wav

Peak level 99.8 %
Extraction speed 3.0 X
Track quality 100.0 %
Test CRC 79D51FB1
Copy CRC 79D51FB1
Accurately ripped (confidence 25) [95BDAB82] (AR v2)
Copy OK

Track 7

Filename D:\Rips\VA - GTA Vice City O.S.T. Volume 6 Fever 105\607 - Vice City - DJ Oliver ''Ladykiller'' Biscuit, Halftime.wav

Peak level 99.8 %
Extraction speed 1.7 X
Track quality 100.0 %
Test CRC C65AF7BA
Copy CRC C65AF7BA
Accurately ripped (confidence 25) [5ADEDBEF] (AR v2)
Copy OK

Track 8

Filename D:\Rips\VA - GTA Vice City O.S.T. Volume 6 Fever 105\608 - Oliver Cheatham - Get Down Saturday Night.wav

Peak level 100.0 %
Extraction speed 3.4 X
Track quality 100.0 %
Test CRC 13FC9021
Copy CRC 13FC9021
Accurately ripped (confidence 25) [9F4ABBD2] (AR v2)
Copy OK

Track 9

Filename D:\Rips\VA - GTA Vice City O.S.T. Volume 6 Fever 105\609 - Rick James - Ghetto Life.wav

Peak level 97.7 %
Extraction speed 3.4 X
Track quality 100.0 %
Test CRC A6C89751
Copy CRC A6C89751
Accurately ripped (confidence 25) [D0F9B121] (AR v2)
Copy OK

Track 10

Filename D:\Rips\VA - GTA Vice City O.S.T. Volume 6 Fever 105\610 - Evelyn ''Champagne'' King - Shame.wav

Peak level 97.7 %
Extraction speed 3.7 X
Track quality 100.0 %
Test CRC 9B1EEE6A
Copy CRC 9B1EEE6A
Accurately ripped (confidence 25) [7E594E1E] (AR v2)
Copy OK

Track 11

Filename D:\Rips\VA - GTA Vice City O.S.T. Volume 6 Fever 105\611 - Mary Jane Girls - All Night Long.wav

Peak level 98.8 %
Extraction speed 3.8 X
Track quality 100.0 %
Test CRC 1C8B5506
Copy CRC 1C8B5506
Accurately ripped (confidence 25) [F1DA7C95] (AR v2)
Copy OK

Track 12

Filename D:\Rips\VA - GTA Vice City O.S.T. Volume 6 Fever 105\612 - Kool & the Gang - Summer Madness.wav

Peak level 99.8 %
Extraction speed 3.4 X
Track quality 99.9 %
Test CRC E76C3203
Copy CRC E76C3203
Accurately ripped (confidence 25) [630AC26F] (AR v2)
Copy OK

Track 13

Filename D:\Rips\VA - GTA Vice City O.S.T. Volume 6 Fever 105\613 - Ren & Angela - I'll Be Good.wav

Peak level 98.8 %
Extraction speed 3.9 X
Track quality 100.0 %
Test CRC BDFDC940
Copy CRC BDFDC940
Accurately ripped (confidence 25) [065151BE] (AR v2)
Copy OK

Track 14

Filename D:\Rips\VA - GTA Vice City O.S.T. Volume 6 Fever 105\614 - Indeep - Last Night a D.J. Saved My Life.wav

Peak level 99.8 %
Extraction speed 4.1 X
Track quality 100.0 %
Test CRC CFDAE6FB
Copy CRC CFDAE6FB
Accurately ripped (confidence 24) [02C8B054] (AR v2)
Copy OK

Track 15

Filename D:\Rips\VA - GTA Vice City O.S.T. Volume 6 Fever 105\615 - The Whispers - And the Beat Goes On.wav

Peak level 99.4 %
Extraction speed 4.4 X
Track quality 100.0 %
Test CRC 1F5410B9
Copy CRC 1F5410B9
Accurately ripped (confidence 22) [BF993B1F] (AR v2)
Copy OK

Track 16

Filename D:\Rips\VA - GTA Vice City O.S.T. Volume 6 Fever 105\616 - Vice City - DJ Oliver ''Ladykiller'' Biscuit, Outro.wav

Peak level 99.8 %
Extraction speed 1.5 X
Track quality 99.7 %
Test CRC AC73D22A
Copy CRC AC73D22A
Accurately ripped (confidence 24) [B5E72A46] (AR v2)
Copy OK

Track 17

Filename D:\Rips\VA - GTA Vice City O.S.T. Volume 6 Fever 105\617 - Vice City - Commercial, Salivex.wav

Pre-gap length 0:00:00.02

Peak level 94.0 %
Extraction speed 3.1 X
Track quality 100.0 %
Test CRC D1ADB108
Copy CRC D1ADB108
Accurately ripped (confidence 23) [79A73FD0] (AR v2)
Copy OK

Track 18

Filename D:\Rips\VA - GTA Vice City O.S.T. Volume 6 Fever 105\618 - Vice City - Commercial, Yuppie & the Alien.wav

Pre-gap length 0:00:00.03

Peak level 99.8 %
Extraction speed 4.0 X
Track quality 100.0 %
Test CRC 6062DC00
Copy CRC 6062DC00
Accurately ripped (confidence 22) [657240F8] (AR v2)
Copy OK

All tracks accurately ripped

No errors occurred

End of status report

==== Log checksum 9EC39CF3E450B22D91787256D0D9BCFF73800D5DC2D0106660CAF03FC8B1A1AF ====
REM GENRE Soundtrack 
REM DATE 2002
REM DISCID 1A129E12
REM COMMENT "ExactAudioCopy v1.3"
CATALOG 5099751006022
PERFORMER "Various Artists"
TITLE "Grand Theft Auto: Vice City Official Soundtrack Box Set - Volume 6: Fever 105"
FILE "01. DJ Oliver 'Ladykiller' Biscuit - Intro.wav" WAVE
TRACK 01 AUDIO
TITLE "DJ Oliver 'Ladykiller' Biscuit: Intro"
PERFORMER "Vice City"
INDEX 01 00:00:00
FILE "02. Michael Jackson - Wanna Be Startin' Somethin'.wav" WAVE
TRACK 02 AUDIO
TITLE "Wanna Be Startin' Somethin'"
PERFORMER "Michael Jackson"
ISRC USSM19902986
INDEX 01 00:00:00
FILE "03. The Pointer Sisters - Automatic.wav" WAVE
TRACK 03 AUDIO
TITLE "Automatic"
PERFORMER "The Pointer Sisters"
INDEX 01 00:00:00
FILE "04. Fat Larry's Band - Act Like You Know.wav" WAVE
TRACK 04 AUDIO
TITLE "Act Like You Know"
PERFORMER "Fat Larry's Band"
INDEX 01 00:00:00
FILE "05. Mtume - Juicy Fruit.wav" WAVE
TRACK 05 AUDIO
TITLE "Juicy Fruit"
PERFORMER "Mtume"
ISRC USSM18300593
INDEX 01 00:00:00
FILE "06. Teena Marie - Behind the Groove.wav" WAVE
TRACK 06 AUDIO
TITLE "Behind the Groove"
PERFORMER "Teena Marie"
ISRC USSM10211765
INDEX 01 00:00:00
FILE "07. DJ Oliver 'Ladykiller' Biscuit - Halftime.wav" WAVE
TRACK 07 AUDIO
TITLE "DJ Oliver 'Ladykiller' Biscuit: Halftime"
PERFORMER "Vice City"
INDEX 01 00:00:00
FILE "08. Oliver Cheatham - Get Down Saturday Night.wav" WAVE
TRACK 08 AUDIO
TITLE "Get Down Saturday Night"
PERFORMER "Oliver Cheatham"
INDEX 01 00:00:00
FILE "09. Rick James - Ghetto Life.wav" WAVE
TRACK 09 AUDIO
TITLE "Ghetto Life"
PERFORMER "Rick James"
INDEX 01 00:00:00
FILE "10. Evelyn 'Champagne' King - Shame.wav" WAVE
TRACK 10 AUDIO
TITLE "Shame"
PERFORMER "Evelyn 'Champagne' King"
INDEX 01 00:00:00
FILE "11. Mary Jane Girls - All Night Long.wav" WAVE
TRACK 11 AUDIO
TITLE "All Night Long"
PERFORMER "Mary Jane Girls"
INDEX 01 00:00:00
FILE "12. Kool & the Gang - Summer Madness.wav" WAVE
TRACK 12 AUDIO
TITLE "Summer Madness"
PERFORMER "Kool & the Gang"
INDEX 01 00:00:00
FILE "13. Ren & Angela - I'll Be Good.wav" WAVE
TRACK 13 AUDIO
TITLE "I'll Be Good"
PERFORMER "Ren & Angela"
INDEX 01 00:00:00
FILE "14. Indeep - Last Night a D.J. Saved My Life.wav" WAVE
TRACK 14 AUDIO
TITLE "Last Night a D.J. Saved My Life"
PERFORMER "Indeep"
INDEX 01 00:00:00
FILE "15. The Whispers - And the Beat Goes On.wav" WAVE
TRACK 15 AUDIO
TITLE "And the Beat Goes On"
PERFORMER "The Whispers"
ISRC USSM19913316
INDEX 01 00:00:00
FILE "16. DJ Oliver 'Ladykiller' Biscuit - Outro.wav" WAVE
TRACK 16 AUDIO
TITLE "DJ Oliver 'Ladykiller' Biscuit: Outro"
PERFORMER "Vice City"
INDEX 01 00:00:00
TRACK 17 AUDIO
TITLE "Commercial: Salivex"
PERFORMER "Vice City"
INDEX 00 00:35:63
FILE "17. Commercial - Salivex.wav" WAVE
INDEX 01 00:00:00
TRACK 18 AUDIO
TITLE "Commercial: Yuppie & the Alien"
PERFORMER "Vice City"
INDEX 00 01:05:65
FILE "18. Commercial - Yuppie & the Alien.wav" WAVE
INDEX 01 00:00:00
01. DJ Pepe: Intro (1:01) 
02. Deodato - Super Strut (8:54)
03. Cachao - A Gozar Con Mi Combo (6:18)
04. Mongo Santamaria - Me and You Baby (Picao Y Tostao) (5:00)
05. Machito & His Afro-Cuban Orchestra - Mambo Mucho Mambo (3:00)
06. Xavier Cugat & His Orchestra - Jamay (2:39)
07. DJ Pepe: Halftime (0:08)
08. Mongo Santamaria - Mama Papa Tu (3:38)
09. Unaesta - La Vida Es Una Lenteja (4:25)
10. Lonnie Liston Smith - Expansions (6:03)
11. Irakere - Aguanile (6:01)
12. Beny Moré - Maracaibo Oriento (3:07)
13. Deodato - Latin Flute (4:46)
14. Tito Puente - Mambo Gozón (2:45)
15. DJ Pepe: Outro (0:24)
16. Commercial: Fernando's Medillion (0:56)
17. Commercial: Think Your Way to Success (2:59)

Exact Audio Copy V1.3 from 2. September 2016 

EAC extraction logfile from 27. March 2017, 23:43

Various Artists / GTA Vice City O.S.T. Volume 7: Radio Espantoso

Used drive : ATAPI iHDS118 5 Adapter: 1 ID: 0

Read mode : Secure
Utilize accurate stream : Yes
Defeat audio cache : Yes
Make use of C2 pointers : No

Read offset correction : 6
Overread into Lead-In and Lead-Out : No
Fill up missing offset samples with silence : Yes
Delete leading and trailing silent blocks : No
Null samples used in CRC calculations : Yes
Used interface : Native Win32 interface for Win NT & 2000
Gap handling : Appended to previous track

Used output format : User Defined Encoder
Selected bitrate : 128 kBit/s
Quality : High
Add ID3 tag : No
Command line compressor : C:\flac-1.3.2-win\win32\flac.exe
Additional command line options : -8 -V -T "ARTIST=%artist%" -T "TITLE=%title%" -T "ALBUM=%albumtitle%" -T "DATE=%year%" -T "TRACKNUMBER=%tracknr%" -T "TRACKTOTAL=%numtracks%" -T "DISCNUMBER=%cdnumber%" -T "DISCTOTAL=%totalcds%" -T "GENRE=%genre%" -T "DESCRIPTION=%comment%" -T "ALBUMARTIST=%albuminterpret%" -T "BAND=%albuminterpret%" -T "COMPOSER=%composer%" %hascover%--picture="%coverfile%"%hascover% %source% -o %dest%

TOC of the extracted CD

Track | Start | Length | Start sector | End sector
---------------------------------------------------------
1 | 0:00.00 | 1:00.57 | 0 | 4556
2 | 1:00.57 | 8:53.58 | 4557 | 44589
3 | 9:54.40 | 6:18.27 | 44590 | 72966
4 | 16:12.67 | 4:59.48 | 72967 | 95439
5 | 21:12.40 | 3:00.20 | 95440 | 108959
6 | 24:12.60 | 2:38.45 | 108960 | 120854
7 | 26:51.30 | 0:08.27 | 120855 | 121481
8 | 26:59.57 | 3:37.45 | 121482 | 137801
9 | 30:37.27 | 4:25.13 | 137802 | 157689
10 | 35:02.40 | 6:02.45 | 157690 | 184884
11 | 41:05.10 | 6:00.50 | 184885 | 211934
12 | 47:05.60 | 3:07.32 | 211935 | 225991
13 | 50:13.17 | 4:46.25 | 225992 | 247466
14 | 54:59.42 | 2:44.68 | 247467 | 259834
15 | 57:44.35 | 0:24.32 | 259835 | 261666
16 | 58:08.67 | 0:56.23 | 261667 | 265889
17 | 59:05.15 | 2:58.60 | 265890 | 279299

Track 1

Filename D:\Rips\VA - GTA Vice City O.S.T. Volume 7 Radio Espantoso\701 - Vice City - DJ Pepe, Intro.wav

Pre-gap length 0:00:02.00

Peak level 100.0 %
Extraction speed 0.8 X
Track quality 99.8 %
Test CRC 0E648900
Copy CRC 0E648900
Accurately ripped (confidence 27) [0B7E3F51] (AR v2)
Copy OK

Track 2

Filename D:\Rips\VA - GTA Vice City O.S.T. Volume 7 Radio Espantoso\702 - Deodato - Super Strut.wav

Peak level 100.0 %
Extraction speed 2.1 X
Track quality 100.0 %
Test CRC 41C34E7D
Copy CRC 41C34E7D
Accurately ripped (confidence 23) [F9BA2677] (AR v2)
Copy OK

Track 3

Filename D:\Rips\VA - GTA Vice City O.S.T. Volume 7 Radio Espantoso\703 - Cachao - A Gozar Con Mi Combo.wav

Peak level 100.0 %
Extraction speed 2.4 X
Track quality 100.0 %
Test CRC 63316E53
Copy CRC 63316E53
Accurately ripped (confidence 27) [58AAE9D4] (AR v2)
Copy OK

Track 4

Filename D:\Rips\VA - GTA Vice City O.S.T. Volume 7 Radio Espantoso\704 - Mongo Santamaria - Me and You Baby (Picao Y Tostao).wav

Peak level 100.0 %
Extraction speed 2.5 X
Track quality 100.0 %
Test CRC D5978431
Copy CRC D5978431
Accurately ripped (confidence 23) [2EFDE5A4] (AR v2)
Copy OK

Track 5

Filename D:\Rips\VA - GTA Vice City O.S.T. Volume 7 Radio Espantoso\705 - Machito & His Afro-Cuban Orchestra - Mambo Mucho Mambo.wav

Peak level 100.0 %
Extraction speed 2.1 X
Track quality 99.9 %
Test CRC E19009BF
Copy CRC E19009BF
Accurately ripped (confidence 27) [23D6E4FC] (AR v2)
Copy OK

Track 6

Filename D:\Rips\VA - GTA Vice City O.S.T. Volume 7 Radio Espantoso\706 - Xavier Cugat & His Orchestra - Jamay.wav

Peak level 100.0 %
Extraction speed 2.5 X
Track quality 100.0 %
Test CRC B2A7B582
Copy CRC B2A7B582
Accurately ripped (confidence 27) [63452B5A] (AR v2)
Copy OK

Track 7

Filename D:\Rips\VA - GTA Vice City O.S.T. Volume 7 Radio Espantoso\707 - Vice City - DJ Pepe, Halftime.wav

Peak level 100.0 %
Extraction speed 0.5 X
Track quality 100.0 %
Test CRC 86E16138
Copy CRC 86E16138
Accurately ripped (confidence 27) [A05C6485] (AR v2)
Copy OK

Track 8

Filename D:\Rips\VA - GTA Vice City O.S.T. Volume 7 Radio Espantoso\708 - Mongo Santamaria - Mama Papa Tu.wav

Peak level 100.0 %
Extraction speed 2.8 X
Track quality 100.0 %
Test CRC 09070B04
Copy CRC 09070B04
Accurately ripped (confidence 27) [5DCB483D] (AR v2)
Copy OK

Track 9

Filename D:\Rips\VA - GTA Vice City O.S.T. Volume 7 Radio Espantoso\709 - Unaesta - La Vida Es Una Lenteja.wav

Peak level 99.8 %
Extraction speed 3.0 X
Track quality 100.0 %
Test CRC 305EA5E9
Copy CRC 305EA5E9
Accurately ripped (confidence 27) [016545AD] (AR v2)
Copy OK

Track 10

Filename D:\Rips\VA - GTA Vice City O.S.T. Volume 7 Radio Espantoso\710 - Lonnie Liston Smith - Expansions.wav

Peak level 100.0 %
Extraction speed 3.2 X
Track quality 100.0 %
Test CRC 3AB451CA
Copy CRC 3AB451CA
Accurately ripped (confidence 23) [6492A8BA] (AR v2)
Copy OK

Track 11

Filename D:\Rips\VA - GTA Vice City O.S.T. Volume 7 Radio Espantoso\711 - Irakere - Aguanile.wav

Peak level 99.8 %
Extraction speed 3.4 X
Track quality 100.0 %
Test CRC DEE771DE
Copy CRC DEE771DE
Accurately ripped (confidence 24) [5828BC30] (AR v2)
Copy OK

Track 12

Filename D:\Rips\VA - GTA Vice City O.S.T. Volume 7 Radio Espantoso\712 - Beny Moré - Maracaibo Oriento.wav

Pre-gap length 0:00:00.28

Peak level 99.9 %
Extraction speed 3.2 X
Track quality 100.0 %
Test CRC 55B8FB7F
Copy CRC 55B8FB7F
Accurately ripped (confidence 27) [A8A6C2E8] (AR v2)
Copy OK

Track 13

Filename D:\Rips\VA - GTA Vice City O.S.T. Volume 7 Radio Espantoso\713 - Deodato - Latin Flute.wav

Pre-gap length 0:00:00.37

Peak level 100.0 %
Extraction speed 3.5 X
Track quality 100.0 %
Test CRC 108FA805
Copy CRC 108FA805
Accurately ripped (confidence 27) [F8AF9A91] (AR v2)
Copy OK

Track 14

Filename D:\Rips\VA - GTA Vice City O.S.T. Volume 7 Radio Espantoso\714 - Tito Puente - Mambo Gozón.wav

Peak level 94.8 %
Extraction speed 3.3 X
Track quality 100.0 %
Test CRC 799CCB17
Copy CRC 799CCB17
Accurately ripped (confidence 27) [439A3B0A] (AR v2)
Copy OK

Track 15

Filename D:\Rips\VA - GTA Vice City O.S.T. Volume 7 Radio Espantoso\715 - Vice City - DJ Pepe, Outro.wav

Peak level 100.0 %
Extraction speed 1.6 X
Track quality 100.0 %
Test CRC F33436B5
Copy CRC F33436B5
Accurately ripped (confidence 27) [47237D0D] (AR v2)
Copy OK

Track 16

Filename D:\Rips\VA - GTA Vice City O.S.T. Volume 7 Radio Espantoso\716 - Vice City - Commercial, Fernando's Medillion.wav

Peak level 94.7 %
Extraction speed 2.5 X
Track quality 100.0 %
Test CRC D70F5A38
Copy CRC D70F5A38
Accurately ripped (confidence 27) [02E76D07] (AR v2)
Copy OK

Track 17

Filename D:\Rips\VA - GTA Vice City O.S.T. Volume 7 Radio Espantoso\717 - Vice City - Commercial, Think Your Way to Success.wav

Peak level 100.0 %
Extraction speed 3.5 X
Track quality 100.0 %
Test CRC A58C66BB
Copy CRC A58C66BB
Accurately ripped (confidence 25) [9D472CF4] (AR v2)
Copy OK

All tracks accurately ripped

No errors occurred

End of status report

==== Log checksum EAC0609E04D0C6528EC3795445EF4A0B58153882F177F5FC06B5E555B552B13E ====
REM GENRE Soundtrack 
REM DATE 2002
REM DISCID EB0E8C11
REM COMMENT "ExactAudioCopy v1.3"
CATALOG 5099751006329
PERFORMER "Various Artists"
TITLE "Grand Theft Auto: Vice City Official Soundtrack Box Set - Volume 7: Radio Espantoso"
FILE "01. DJ Pepe - Intro.wav" WAVE
TRACK 01 AUDIO
TITLE "DJ Pepe: Intro"
PERFORMER "Vice City"
INDEX 01 00:00:00
FILE "02. Deodato - Super Strut.wav" WAVE
TRACK 02 AUDIO
TITLE "Super Strut"
PERFORMER "Deodato"
ISRC USSM10113331
INDEX 01 00:00:00
FILE "03. Cachao - A Gozar Con Mi Combo.wav" WAVE
TRACK 03 AUDIO
TITLE "A Gozar Con Mi Combo"
PERFORMER "Cachao"
ISRC USSM19402098
INDEX 01 00:00:00
FILE "04. Mongo Santamaria - Me and You Baby (Picao Y Tostao).wav" WAVE
TRACK 04 AUDIO
TITLE "Me and You Baby (Picao Y Tostao)"
PERFORMER "Mongo Santamaria"
ISRC USSM10006063
INDEX 01 00:00:00
FILE "05. Machito & His Afro-Cuban Orchestra - Mambo Mucho Mambo.wav" WAVE
TRACK 05 AUDIO
TITLE "Mambo Mucho Mambo"
PERFORMER "Machito & His Afro-Cuban Orchestra"
ISRC USSM10006063
INDEX 01 00:00:00
FILE "06. Xavier Cugat & His Orchestra - Jamay.wav" WAVE
TRACK 06 AUDIO
TITLE "Jamay"
PERFORMER "Xavier Cugat & His Orchestra"
ISRC USSM10205156
INDEX 01 00:00:00
FILE "07. DJ Pepe - Halftime.wav" WAVE
TRACK 07 AUDIO
TITLE "DJ Pepe: Halftime"
PERFORMER "Vice City"
ISRC USSM10006065
INDEX 01 00:00:00
FILE "08. Mongo Santamaria - Mama Papa Tu.wav" WAVE
TRACK 08 AUDIO
TITLE "Mama Papa Tu"
PERFORMER "Mongo Santamaria"
ISRC USSM10006065
INDEX 01 00:00:00
FILE "09. Unaesta - La Vida Es Una Lenteja.wav" WAVE
TRACK 09 AUDIO
TITLE "La Vida Es Una Lenteja"
PERFORMER "Unaesta"
INDEX 01 00:00:00
FILE "10. Lonnie Liston Smith - Expansions.wav" WAVE
TRACK 10 AUDIO
TITLE "Expansions"
PERFORMER "Lonnie Liston Smith"
INDEX 01 00:00:00
FILE "11. Irakere - Aguanile.wav" WAVE
TRACK 11 AUDIO
TITLE "Aguanile"
PERFORMER "Irakere"
ISRC USSM10111537
INDEX 01 00:00:00
TRACK 12 AUDIO
TITLE "Maracaibo Oriento"
PERFORMER "Beny Morй"
INDEX 00 06:00:22
FILE "12. Beny Moré - Maracaibo Oriento.wav" WAVE
INDEX 01 00:00:00
TRACK 13 AUDIO
TITLE "Latin Flute"
PERFORMER "Deodato"
ISRC USSM10113335
INDEX 00 03:06:70
FILE "13. Deodato - Latin Flute.wav" WAVE
INDEX 01 00:00:00
FILE "14. Tito Puente - Mambo Gozón.wav" WAVE
TRACK 14 AUDIO
TITLE "Mambo Gozуn"
PERFORMER "Tito Puente"
INDEX 01 00:00:00
FILE "15. DJ Pepe - Outro.wav" WAVE
TRACK 15 AUDIO
TITLE "DJ Pepe: Outro"
PERFORMER "Vice City"
INDEX 01 00:00:00
FILE "16. Commercial - Fernando's Medillion.wav" WAVE
TRACK 16 AUDIO
TITLE "Commercial: Fernando's Medillion"
PERFORMER "Vice City"
INDEX 01 00:00:00
FILE "17. Vice City - Commercial- Think Your Way to Success.wav" WAVE
TRACK 17 AUDIO
TITLE "Commercial: Think Your Way to Success"
PERFORMER "Vice City"
INDEX 01 00:00:00
info [Профиль]  [ЛС] 

TheNameLessOne

Пол: Пол:Муж

Стаж: 14 лет

Сообщений: 1821

Испания
Рейтинг

post 07-Июл-2024 01:20 (спустя 3 часа) [-]1[+]

[Цитировать] 

Под V-Rock так зажигалось на дорогах Вайс Сити...Эх молодость.

_________________
Und darum leben wir hier
Darum leben wir jetzt
Memento Mori, bis der Tod die Messer wetzt
Und darum leben wir hier
Darum leben wir jetzt
Memento Mori, denn du nimmst nichts mit ins Grab
Bis auf deinen Sarg!
info [Профиль]  [ЛС] 
Показать сообщения:    
Ответить на тему

Текущее время: 12-Июл 13:56

Часовой пояс: GMT + 4



Вы не можете начинать темы
Вы не можете отвечать на сообщения
Вы не можете редактировать свои сообщения
Вы не можете удалять свои сообщения
Вы не можете голосовать в опросах
Вы не можете прикреплять файлы к сообщениям
Вы не можете скачивать файлы