Ошибка

Белоснежка и семь гномов / Snow White and the Seven Dwarfs (Дэвид Хэнд / David Hand) [1937, фэнтези, мелодрама, мюзикл, семейный, мультфильм, BDRip-AVC]

Ответить на тему
 
Автор Сообщение

Skazhutin

Пол: Пол:Муж

Стаж: 6 лет 11 месяцев

Сообщений: 53

СССР
Рейтинг

post 13-Фев-2010 09:42 0[+]

[Цитировать] 

Белоснежка и семь гномов / Snow White and the Seven Dwarfs

pic="http://s003.radikal.ru/i204/1002/d8/60fcbdc2cd6f.jpg"
Слоган: «The One That Started It All»

Год выпуска: 1937
Страна: США
Жанр: фэнтези, мелодрама, мюзикл, семейный, мультфильм
Продолжительность: 01:23:11
Перевод: Профессиональный (полное дублирование)
Cубтитры: русские, английские
Навигация по главам: есть

Режиссер: Дэвид Хэнд
Сценарий: Вильгельм Гримм, Якоб Гримм, Тед Сирс
Продюсер: Уолт Дисней
Оператор: Максвелл Морган
Композитор: Фрэнк Черчилль, Ли Харлин, Пол Дж. Смит
В ролях: Рой Этвелл, Стюарт Бьюкэнэн, Адриана Каселотти, Эдди Коллинз, Пинто Колвиг, Мэрион Дарлингтон, Билли Гилберт, Отис Хэрлан, Люсиль Ла Верн, Джеймс МакДональд

Бюджет: $1 499 000
Сборы в США: $184 925 486
релиз на DVD: 20 ноября 2008, 29 октября 2009, «Уолт Дисней Компани СНГ»
Описание: Экранизация знаменитой немецкой сказки братьев Гримм о Белоснежке, жившей в замке со злой мачехой-королевой, которая очень гордилась своей красотой. Узнав от волшебного зеркальца, что Белоснежка стала самой прекрасной девушкой на свете, завистница решила погубить прелестную падчерицу. Но бедная девушка не погибла в лесу, а наоборот, встретила там настоящих друзей - забавных семерых гномов: Профессора, Ворчуна, Весельчака, Скромника, Чихоню, Соню и Молчуна…
Рейтинг:
kinopoisk.ru: 8.092 (3 395)
imdb.com: 7.80 (35 834)
MPAA: G
Качество: BDRip
Исходник: Blu-Ray
Формат: Matroska
Видеокодек: AVC
Видео: 964x720 (4:3); 2445 Kbps; 23,976 fps
Аудио №1: Russian; AC3; 6ch; 48Hz; CBR; 640 Kbps; Дубляж
Аудио №2: English; AC3; 6ch; 48Hz; CBR; 640 Kbps; Original
Субтитры №1: Russian
Субтитры №2: English
Субтитры №3: English; SDH
Субтитры №4: Russian; comments
Субтитры №5: Russian; надписи
-> SAMPLE narod<-
-> SAMPLE multi-up<-

  • Клип группы Rammstein - Sonne пародирует мультфильм о Белоснежке: участники группы играют гномов, а Белоснежка представлена декадентствующей великаншей, которая заставляет их работать в забое, сама же нюхает наркотики.
  • На 15:37 (сцена перед входом в дом) в течение одного кадра перепутан порядок слоев персонажей.
  • «Белоснежка и семь гномов» Уолта Диснея стала первым в мире полнометражным мультфильмом.
  • «Белоснежка и семь гномов» стал также первым фильмом в истории, который был полностью восстановлен с помощью цифровой технологии. Для финального восстановления в 1994 году были собраны пятеро оставшихся в живых художников, которые работали над оригинальной версией.
  • В конце производства фильма Уолт Дисней заметил недостаток в фигуре Принца в момент, когда он наклоняется к Белоснежке для поцелуя. Журнал Liberty сообщил, что Уолт тщательно проконтролировал новый вариант изображения Принца и заставил все кинотеатры, которые показывали «Белоснежку», заменить копию.
  • Специально для «Белоснежки» было написано в общей сложности двадцать пять оригинальных песен. В мультфильме было использовано лишь восемь из них.

General
Complete name : Snow.White.and.the.Seven.Dwarfs.1937.x264.tRuAVC.mkv
Format : Matroska
File size : 2.17 GiB
Duration : 1h 23mn
Overall bit rate : 3 728 Kbps
Encoded date : UTC 2010-02-10 14:32:20
Writing application : mkvmerge v3.1.0 ('Happy up here') built on Jan 19 2010 12:09:24
Writing library : libebml v0.7.9 + libmatroska v0.8.1
Cover : Yes

Video
ID : 1
Format : AVC
Format/Info : Advanced Video Codec
Format profile : High@L4.0
Format settings, CABAC : Yes
Format settings, ReFrames : 11 frames
Muxing mode : Container profile=Unknown@4.0
Codec ID : V_MPEG4/ISO/AVC
Duration : 1h 23mn
Bit rate : 2 374 Kbps
Width : 964 pixels
Height : 720 pixels
Display aspect ratio : 4:3
Frame rate : 23.976 fps
Resolution : 8 bits
Colorimetry : 4:2:0
Scan type : Progressive
Bits/(Pixel*Frame) : 0.143
Stream size : 1.38 GiB (64%)
Title : 964x720 (4:3); 2445 Kbps; 23,976 fps
Writing library : x264 core 84 r1416kMod fcf70c2
Encoding settings : cabac=1 / ref=11 / deblock=1:-2:-1 / analyse=0x3:0x113 / me=umh / subme=10 / psy=1 / psy_rd=0.8:0.1 / mixed_ref=1 / me_range=32 / chroma_me=1 / trellis=2 / 8x8dct=1 / cqm=0 / deadzone=21,11 / fast_pskip=1 / chroma_qp_offset=-3 / threads=6 / sliced_threads=0 / nr=0 / decimate=1 / mbaff=0 / constrained_intra=0 / bframes=9 / b_pyramid=2 / b_adapt=2 / b_bias=0 / direct=3 / wpredb=1 / wpredp=2 / keyint=250 / keyint_min=25 / scenecut=45 / intra_refresh=0 / rc_lookahead=60 / rc=crf / mbtree=1 / crf=18.8000 / qcomp=0.70 / qpmin=10 / qpmax=51 / qpstep=4 / ip_ratio=1.35 / aq=4:0.80
Language : English
Matrix coefficients : BT.709-5, BT.1361, IEC 61966-2-4 709, SMPTE RP177

Audio #1
ID : 2
Format : AC-3
Format/Info : Audio Coding 3
Codec ID : A_AC3
Duration : 1h 23mn
Bit rate mode : Constant
Bit rate : 640 Kbps
Channel(s) : 6 channels
Channel positions : Front: L C R, Surround: L R, LFE
Sampling rate : 48.0 KHz
Stream size : 381 MiB (17%)
Title : AC3; 640 Kbps; CBR; 6 ch; Dub
Language : Russian

Audio #2
ID : 3
Format : AC-3
Format/Info : Audio Coding 3
Codec ID : A_AC3
Duration : 1h 23mn
Bit rate mode : Constant
Bit rate : 640 Kbps
Channel(s) : 6 channels
Channel positions : Front: L C R, Surround: L R, LFE
Sampling rate : 48.0 KHz
Stream size : 381 MiB (17%)
Title : AC3; 640 Kbps; CBR; 6 ch; Original
Language : English

Text #1
ID : 4
Format : UTF-8
Codec ID : S_TEXT/UTF8
Codec ID/Info : UTF-8 Plain Text
Language : Russian

Text #2
ID : 5
Format : UTF-8
Codec ID : S_TEXT/UTF8
Codec ID/Info : UTF-8 Plain Text
Language : English

Text #3
ID : 6
Format : UTF-8
Codec ID : S_TEXT/UTF8
Codec ID/Info : UTF-8 Plain Text
Title : SDH
Language : English

Text #4
ID : 7
Format : UTF-8
Codec ID : S_TEXT/UTF8
Codec ID/Info : UTF-8 Plain Text
Title : comments
Language : Russian

Text #5
ID : 8
Format : UTF-8
Codec ID : S_TEXT/UTF8
Codec ID/Info : UTF-8 Plain Text
Language : Russian

Menu
00:00:00.000 : en:1. opening credits
00:01:22.708 : en:2. once upon a time
00:02:11.965 : en:3. the magic mirror
00:03:35.507 : en:4. "i'm wishing"
00:05:25.825 : en:5. the prince ["one song"]
00:07:00.045 : en:6. the queen's evil plan
00:09:11.426 : en:7. flight through the forest
00:11:34.736 : en:8. "with a smile and a song
00:14:56.979 : en:9. the dwarfs' cottage
00:17:38.349 : en:10. "whistle while you work"
00:21:25.284 : en:11. "heigh-ho"
00:24:09.156 : en:12. snow white explores upstairs
00:25:29.820 : en:13. the dwarfs arrive home
00:34:55.427 : en:14. snow white wakes up
00:42:47.398 : en:15. "bluddle-uddle-um-dum"
00:47:49.408 : en:16. deceived
00:49:15.828 : en:17. the queen prepares a disguise
00:52:02.119 : en:18. "the dwarfs' yodel song"
00:56:49.448 : en:19. "some day my prince will come"
00:58:53.321 : en:20. setting down for the night
01:02:38.797 : en:21. the poison apple
01:05:40.937 : en:22. the next morning
01:08:24.559 : en:23. the old peddler woman
01:11:41.297 : en:24. the animals warn the dwarfs
01:14:08.903 : en:25. the apple
01:17:42.992 : en:26. a bedside vigil
01:20:27.614 : en:27. love's first kiss

Код:

avs [info]: 964x720p 1:1 @ 24000/1001 fps (cfr)
x264 [info]: using SAR=1/1
x264 [info]: using cpu capabilities: MMX2 SSE2Fast SSSE3 FastShuffle SSE4.1 Cache64
x264 [info]: profile High, level 4.0
x264 [info]: frame I:833   Avg QP:15.14  size:123547  PSNR Mean Y:48.28 U:50.36 V:50.57 Avg:48.89 Global:48.73
x264 [info]: frame P:32651 Avg QP:19.71  size: 22515  PSNR Mean Y:45.71 U:48.04 V:48.43 Avg:46.38 Global:46.14
x264 [info]: frame B:86186 Avg QP:23.13  size:  7979  PSNR Mean Y:45.29 U:47.70 V:48.11 Avg:45.99 Global:45.71
x264 [info]: consecutive B-frames:  1.9%  3.2% 25.4% 40.6% 18.5%  7.5%  1.2%  0.8%  0.6%  0.3%
x264 [info]: mb I  I16..4: 11.0% 60.0% 29.0%
x264 [info]: mb P  I16..4:  1.0%  7.3%  1.9%  P16..4: 27.8% 15.1% 10.6%  0.0%  0.0%    skip:36.3%
x264 [info]: mb B  I16..4:  0.1%  1.2%  0.6%  B16..8: 24.3%  2.4%  2.6%  direct: 3.0%  skip:65.8%  L0:43.9% L1:50.1% BI: 6.1%
x264 [info]: 8x8 transform intra:66.9% inter:63.8%
x264 [info]: direct mvs  spatial:100.0% temporal:0.0%
x264 [info]: coded y,uvDC,uvAC intra: 80.7% 86.2% 71.1% inter: 14.7% 16.9% 5.5%
x264 [info]: i16 v,h,dc,p: 31% 17% 21% 31%
x264 [info]: i8 v,h,dc,ddl,ddr,vr,hd,vl,hu:  9% 10%  8% 10% 13% 12% 12% 12% 13%
x264 [info]: i4 v,h,dc,ddl,ddr,vr,hd,vl,hu: 10% 12%  5% 10% 15% 13% 13% 11% 12%
x264 [info]: Weighted P-Frames: Y:4.7%
x264 [info]: ref P L0: 48.2% 14.7% 11.5%  5.6%  5.3%  3.6%  3.0%  2.2%  1.8%  1.8%  1.7%  0.6%  0.0%
x264 [info]: ref B L0: 67.5% 11.4%  6.3%  3.7%  2.9%  2.5%  2.1%  1.8%  1.1%  0.7%
x264 [info]: ref B L1: 94.7%  5.3%
x264 [info]: SSIM Mean Y:0.9836673
x264 [info]: PSNR Mean Y:45.427 U:47.808 V:48.212 Avg:46.115 Global:45.836 kb/s:2445.42

encoded 119670 frames, 5.06 fps, 2445.42 kb/s


Релиз совместим с iconBIT HDS4L
info [Профиль]  [ЛС] 

Yasia-tian

Пол: Пол:Жен

Стаж: 7 лет 4 месяца

Сообщений: 35

Шри-Ланка
Рейтинг

post 05-Мар-2010 00:37 (спустя 19 дней) [-]0[+]

[Цитировать] 

помню помню мультяшку))
такой стёбный там седьмой гном)))
потискать бы его))
ой..чтото увлеклась я сегодня мультиками..
и все такие милые..
и этот не исключение)))
советую всем)))
info [Профиль]  [ЛС] 
Показать сообщения:    
Ответить на тему

Текущее время: 03-Дек 15:42

Часовой пояс: GMT + 4



Вы не можете начинать темы
Вы не можете отвечать на сообщения
Вы не можете редактировать свои сообщения
Вы не можете удалять свои сообщения
Вы не можете голосовать в опросах
Вы не можете прикреплять файлы к сообщениям
Вы не можете скачивать файлы