Ошибка

(Breakbeat/Electronic) The Crystal Method - Divided By Night (Upmix) - 2009, DTS (image+.cue), 1411

Ответить на тему
 
Автор Сообщение

Fokich

Пол: Пол:Муж

Стаж: 7 лет 6 месяцев

Сообщений: 259

Россия
Рейтинг

post 26-Янв-2010 21:21 0[+]

[Цитировать] 

The Crystal Method - Divided By Night (Upmix)

Жанр: Breakbeat/Electronic
Происхождение исполнителя: USA
Год: 2009
Происхождение материала: USA
Тип релиза: image+.cue
Аудио кодек: DTS
Битрейт аудио: 1411
Продолжительность: 1:06:44
Полиграфия: отсутствует
01. Divided By Night (4:55)
02. Dirty Thirty (Featuring Peter Hook) (5:24)
03. Drown In The Now (Featuring Matisyahu) (5:47)
04. Kling To The Wreckage (Featuring Justin Warfield) (4:04)
05. Smile (5:33)
06. Sine Language (Featuring LMFAO) (6:14)
07. Double Down Under (5:49)
08. Come Back Clean (Featuring Emily Haines) (4:57)
09. Slipstream (Featuring Jason Lytle) (5:18)
10. Black Rainbows (Featuring Stephanie King Warfield) (6:20)
11. Blunts & Robots (Featuring Peter Hook) (5:48)
12. Falling Hard (Featuring Meiko) (6:35)
REM GENRE
REM DATE 2009
PERFORMER "The Crystal Method"
TITLE "Divided By Night"
FILE "The Crystal Method - Divided By Night DTS.wav" WAVE
TRACK 01 AUDIO
TITLE "Divided By Night"
INDEX 01 00:00:00
TRACK 02 AUDIO
TITLE "Dirty Thirty (feat Peter Hook)"
INDEX 01 05:00:72
TRACK 03 AUDIO
TITLE "Drown In The Now (feat Matisyahu)"
INDEX 01 10:25:09
TRACK 04 AUDIO
TITLE "Kling To The Wreckage (feat Justin Warfield)"
INDEX 01 16:12:10
TRACK 05 AUDIO
TITLE "Smile"
INDEX 01 20:16:22
TRACK 06 AUDIO
TITLE "Sine Language (feat LMFAO)"
INDEX 01 25:50:06
TRACK 07 AUDIO
TITLE "Double Down Under"
INDEX 01 32:04:52
TRACK 08 AUDIO
TITLE "Come Back Clean (feat Emily Haines)"
INDEX 01 37:53:57
TRACK 09 AUDIO
TITLE "Slipstream (feat Jason Lytle)"
INDEX 01 42:50:74
TRACK 10 AUDIO
TITLE "Black Rainbows (feat Stefanie King Warfield)"
INDEX 01 48:09:22
TRACK 11 AUDIO
TITLE "Blunts & Robots (feat Peter Hook)"
INDEX 01 54:30:06
TRACK 12 AUDIO
TITLE "Falling Hard (feat Meiko)"
INDEX 01 60:18:44
info [Профиль]  [ЛС] 

Spirit11

Пол: Пол:Муж

Стаж: 7 лет 3 месяца

Сообщений: 122

Предупреждений: 1

Россия
Рейтинг

post 27-Янв-2010 00:39 (спустя 3 часа) [-]-1[+]

[Цитировать] 

Fokich
а пошустрее можно? 15 Кб\с качается

_________________
info [Профиль]  [ЛС] 

F16

Пол: Пол:Муж

Стаж: 7 лет 1 месяц

Сообщений: 20

Предупреждений: 1

Россия
Рейтинг

post 27-Фев-2010 22:43 (спустя 1 месяц) [-]0[+]

[Цитировать] 

Скачали 9 человек и никто не напишет - как музыка-то?
info [Профиль]  [ЛС] 

sergoff16

Пол: Пол:Муж

Стаж: 6 лет 8 месяцев

Сообщений: 6

Предупреждений: 1

Россия
Рейтинг

post 24-Мар-2010 11:31 (спустя 24 дня) [-]0[+]

[Цитировать] 

записал на CD образ а двд шник только картинку показал непонятно-(
info [Профиль]  [ЛС] 

depacas

Пол: Пол:Муж

Стаж: 7 лет 6 месяцев

Сообщений: 95

Ирак
Рейтинг

post 02-Июн-2010 18:58 (спустя 2 месяца 9 дней) [-]0[+]

[Цитировать] 

да уже не то старпёры непонятно чё уже замутили 3-

_________________
МЕБЕЛЬ СТАЛА ВДРУГ ПРОЗРАЧНЕЙ
В ГОЛОВЕ РАСТЁТ ТРАВА
Я СЕГОДНЯ ВСЕХ УПЯЧНЕЙ
ПОТОМУ ЧТО
ВЕЩЁСТВА (С)
info [Профиль]  [ЛС] 
Показать сообщения:    
Ответить на тему

Текущее время: 05-Дек 08:34

Часовой пояс: GMT + 4



Вы не можете начинать темы
Вы не можете отвечать на сообщения
Вы не можете редактировать свои сообщения
Вы не можете удалять свои сообщения
Вы не можете голосовать в опросах
Вы не можете прикреплять файлы к сообщениям
Вы не можете скачивать файлы