Ошибка

(Celtic/Irish/Folk) Maire Brennan - дискография [1992 - 2008], APE (image + .cue), lossless

Ответить на тему
 
Автор Сообщение

чучило-мяучило

Пол: Пол:Жен

Стаж: 7 лет 4 месяца

Сообщений: 492

Предупреждений: 1

Россия
Рейтинг

post 21-Янв-2010 19:42 0[+]

[Цитировать] 

Maire Brennan (Máire Ní Bhraonáin)
дискография

Страна: Ireland
Жанр: Celtic/Irish/Folk
Охваченный период творчества: 1992-2008
Аудио кодек: APE
Тип рипа: image+.cue
Битрейт аудио: lossless
Происхождение релиза: рип со своих дисков by Gunman

Немногое о...
Ирландская певица Мойя Бреннан (Maire Ni Bhraonain) известна большинству поклонников музыки нью-эйдж прежде всего, как вокалистка группы Clannad, которую она организовала в начале 70х годов вместе с братьями Полом и Кираном и дядюшками Патриком и Ноэлем Дагганами. Первую сольную пластинку, названную "Maire", Мойя записала в 1992 году для BMG/ RCA; через два года вышел альбом "Misty Eyed Adventures". В конце 90х были выпущены еще два альбома - "Perfect Time" и "Whisper To The Wild Water" (1999). Последняя на сегодняшний день работа певицы - "Two Horizons" (2003). Помимо записи сольных пластинок и работы в Clannad, Мойя Бреннан активно сотрудничает и с другими исполнителями - Ронаном Китином, Шэйном Макговэном Бонни Тайлер.
Дата оригинального релиза: 1992
Год выпуска: 1992
Полная длительность звучания: 0:45:15
Тип альбома: Studio
Количество дисков: 1
Издатель: Atlantic
Каталожный номер: ATL82421.2
Трэклист:
1 - Cé Leis
2 - Against the Wind
3 - Oró
4 - Voices of the Land
5 - Jealous Heart
6 - Land of Youth (Tir Na NÓg)
7 - I Believe (Deep Within)
8 - Beating Heart
9 - No Easy Way
10 - Atlantic Shore

Код:

Exact Audio Copy V0.99 prebeta 3 from 28. July 2007

EAC extraction logfile from 23. October 2007, 23:02

Maire Brennan / Maire

Used drive  : LITEON  DVD-ROM LTD163   Adapter: 1  ID: 0

Read mode               : Secure
Utilize accurate stream : Yes
Defeat audio cache      : Yes
Make use of C2 pointers : No

Read offset correction                      : 594
Overread into Lead-In and Lead-Out          : No
Fill up missing offset samples with silence : Yes
Delete leading and trailing silent blocks   : No
Null samples used in CRC calculations       : Yes
Used interface                              : Native Win32 interface for Win NT & 2000

Used output format : Internal WAV Routines
Sample format      : 44.100 Hz; 16 Bit; Stereo

TOC of the extracted CD

     Track |   Start  |  Length  | Start sector | End sector
    ---------------------------------------------------------
        1  |  0:00.32 |  4:05.08 |        32    |    18414   
        2  |  4:05.40 |  5:35.10 |     18415    |    43549   
        3  |  9:40.50 |  3:58.62 |     43550    |    61461   
        4  | 13:39.37 |  3:23.68 |     61462    |    76754   
        5  | 17:03.30 |  4:39.27 |     76755    |    97706   
        6  | 21:42.57 |  5:52.55 |     97707    |   124161   
        7  | 27:35.37 |  3:57.43 |    124162    |   141979   
        8  | 31:33.05 |  4:16.47 |    141980    |   161226   
        9  | 35:49.52 |  5:24.05 |    161227    |   185531   
       10  | 41:13.57 |  4:01.58 |    185532    |   203664   

Range status and errors

Selected range

     Filename E:\_TEMP\Maire.wav

     Peak level 97.7 %
     Range quality 100.0 %
     Copy CRC 20AA2574
     Copy OK

No errors occurred

 
AccurateRip summary
 
Track  1  cannot be verified as accurate (confidence 4)  [5DD16FEF], AccurateRip returned [82DD30B7]
Track  2  cannot be verified as accurate (confidence 4)  [A79DEF33], AccurateRip returned [8468BB3B]
Track  3  cannot be verified as accurate (confidence 4)  [F9A21AB4], AccurateRip returned [C3EECA04]
Track  4  cannot be verified as accurate (confidence 4)  [38C9FE2D], AccurateRip returned [FDC9FF4C]
Track  5  cannot be verified as accurate (confidence 4)  [6AE08879], AccurateRip returned [700DAC02]
Track  6  cannot be verified as accurate (confidence 4)  [39B979DA], AccurateRip returned [E1C452EA]
Track  7  cannot be verified as accurate (confidence 4)  [DCE92CF6], AccurateRip returned [27027F66]
Track  8  cannot be verified as accurate (confidence 4)  [353C7AE5], AccurateRip returned [7169E875]
Track  9  cannot be verified as accurate (confidence 4)  [E0C2E8B4], AccurateRip returned [E781693C]
Track 10  cannot be verified as accurate (confidence 4)  [1056FA63], AccurateRip returned [001F7CE1]
 
No tracks could be verified as accurate
You may have a different pressing from the one(s) in the database

End of status report

Код:

REM GENRE Celtic
REM DATE 1992
REM DISCID 7E0A9B0A
REM COMMENT "ExactAudioCopy v0.99pb3"
CATALOG 0075678242120
PERFORMER "Maire Brennan"
TITLE "Maire"
FILE "Maire.ape" WAVE
  TRACK 01 AUDIO
    TITLE "Ce Leis"
    PERFORMER "Maire Brennan"
    ISRC USAT29902247
    INDEX 00 00:00:00
    INDEX 01 00:00:32
  TRACK 02 AUDIO
    TITLE "Against The Wind"
    PERFORMER "Maire Brennan"
    ISRC USAT29902248
    INDEX 00 04:03:42
    INDEX 01 04:05:40
  TRACK 03 AUDIO
    TITLE "Oro"
    PERFORMER "Maire Brennan"
    ISRC USAT29902249
    INDEX 00 09:34:62
    INDEX 01 09:40:50
  TRACK 04 AUDIO
    TITLE "Voices Of The Land"
    PERFORMER "Maire Brennan"
    ISRC USAT29902250
    INDEX 00 13:37:42
    INDEX 01 13:39:37
  TRACK 05 AUDIO
    TITLE "Jealous Heart"
    PERFORMER "Maire Brennan"
    ISRC USAT29902251
    INDEX 01 17:03:30
  TRACK 06 AUDIO
    TITLE "Land Of Youth (Tir Na Nog)"
    PERFORMER "Maire Brennan"
    ISRC USAT29902252
    INDEX 00 21:39:45
    INDEX 01 21:42:57
  TRACK 07 AUDIO
    TITLE "I Believe (Deep Within)"
    PERFORMER "Maire Brennan"
    ISRC USAT29902253
    INDEX 00 27:34:40
    INDEX 01 27:35:37
  TRACK 08 AUDIO
    TITLE "Beating Heart"
    PERFORMER "Maire Brennan"
    ISRC USAT29902254
    INDEX 00 31:31:50
    INDEX 01 31:33:05
  TRACK 09 AUDIO
    TITLE "No Easy Way"
    PERFORMER "Maire Brennan"
    ISRC USAT29902255
    INDEX 00 35:46:57
    INDEX 01 35:49:52
  TRACK 10 AUDIO
    TITLE "Atlantic Shore"
    PERFORMER "Maire Brennan"
    ISRC USAT29902256
    INDEX 00 41:11:32
    INDEX 01 41:13:57
Дата оригинального релиза: 1994
Год выпуска: 1994
Полная длительность звучания: 0:56:42
Тип альбома: Studio
Количество дисков: 1
Издатель: Atlantic
Каталожный номер: ATL82701.2
Трэклист:
1 - The Days of the Dancing
2 - A Place Among the Stones
3 - The Watchman
4 - An Fharraige
5 - Pilgrim's Way
6 - Big Yellow Taxi
7 - The Mighty One
8 - Heroes
9 - Misty Eyed Adventures
10 - Dream On
11 - Éirigh Suas a Stóirín (Rise Up My Love)

Код:

Exact Audio Copy V0.99 prebeta 3 from 28. July 2007

EAC extraction logfile from 24. October 2007, 0:13

Maire Brennan / Misty Eyed Adventures

Used drive  : LITEON  DVD-ROM LTD163   Adapter: 1  ID: 0

Read mode               : Secure
Utilize accurate stream : Yes
Defeat audio cache      : Yes
Make use of C2 pointers : No

Read offset correction                      : 594
Overread into Lead-In and Lead-Out          : No
Fill up missing offset samples with silence : Yes
Delete leading and trailing silent blocks   : No
Null samples used in CRC calculations       : Yes
Used interface                              : Native Win32 interface for Win NT & 2000

Used output format : Internal WAV Routines
Sample format      : 44.100 Hz; 16 Bit; Stereo

TOC of the extracted CD

     Track |   Start  |  Length  | Start sector | End sector
    ---------------------------------------------------------
        1  |  0:00.32 |  5:26.73 |        32    |    24554   
        2  |  5:27.30 |  6:45.35 |     24555    |    54964   
        3  | 12:12.65 |  5:46.00 |     54965    |    80914   
        4  | 17:58.65 |  5:04.27 |     80915    |   103741   
        5  | 23:03.17 |  4:17.58 |    103742    |   123074   
        6  | 27:21.00 |  4:10.65 |    123075    |   141889   
        7  | 31:31.65 |  4:34.47 |    141890    |   162486   
        8  | 36:06.37 |  6:20.43 |    162487    |   191029   
        9  | 42:27.05 |  5:34.40 |    191030    |   216119   
       10  | 48:01.45 |  4:38.67 |    216120    |   237036   
       11  | 52:40.37 |  4:02.33 |    237037    |   255219   

Range status and errors

Selected range

     Filename E:\_TEMP\Misty Eyed Adventures.wav

     Peak level 100.0 %
     Range quality 100.0 %
     Copy CRC E4B8A881
     Copy OK

No errors occurred

 
AccurateRip summary
 
Track  1  not present in database
Track  2  not present in database
Track  3  not present in database
Track  4  not present in database
Track  5  not present in database
Track  6  not present in database
Track  7  not present in database
Track  8  not present in database
Track  9  not present in database
Track 10  not present in database
Track 11  not present in database
 
None of the tracks are present in the AccurateRip database

End of status report

Код:

REM GENRE Folk
REM DATE 1994
REM DISCID A10D4A0B
REM COMMENT "ExactAudioCopy v0.99pb3"
CATALOG 0075678270123
PERFORMER "Maire Brennan"
TITLE "Misty Eyed Adventures"
FILE "Misty Eyed Adventures.ape" WAVE
  TRACK 01 AUDIO
    TITLE "The Days Of The Dancing"
    PERFORMER "Maire Brennan"
    ISRC USAT20104925
    INDEX 00 00:00:00
    INDEX 01 00:00:32
  TRACK 02 AUDIO
    TITLE "A Place Among The Stones"
    PERFORMER "Maire Brennan"
    ISRC USAT20104926
    INDEX 00 05:27:27
    INDEX 01 05:27:30
  TRACK 03 AUDIO
    TITLE "The Watchman"
    PERFORMER "Maire Brennan"
    ISRC USAT20104927
    INDEX 00 12:12:62
    INDEX 01 12:12:65
  TRACK 04 AUDIO
    TITLE "An Fharraige"
    PERFORMER "Maire Brennan"
    ISRC USAT20104928
    INDEX 00 17:58:62
    INDEX 01 17:58:65
  TRACK 05 AUDIO
    TITLE "Pilgrim's Way"
    PERFORMER "Maire Brennan"
    ISRC USAT20104929
    INDEX 00 23:03:15
    INDEX 01 23:03:17
  TRACK 06 AUDIO
    TITLE "Big Yellow Taxi"
    PERFORMER "Maire Brennan"
    ISRC USAT20104930
    INDEX 00 27:20:72
    INDEX 01 27:21:00
  TRACK 07 AUDIO
    TITLE "The Mighty One"
    PERFORMER "Maire Brennan"
    ISRC USAT20104931
    INDEX 00 31:31:07
    INDEX 01 31:31:65
  TRACK 08 AUDIO
    TITLE "Heroes"
    PERFORMER "Maire Brennan"
    ISRC USAT20104932
    INDEX 00 36:06:35
    INDEX 01 36:06:37
  TRACK 09 AUDIO
    TITLE "Misty Eyed Adventures"
    PERFORMER "Maire Brennan"
    ISRC USAT20104933
    INDEX 00 42:27:02
    INDEX 01 42:27:05
  TRACK 10 AUDIO
    TITLE "Dream on "
    PERFORMER "Maire Brennan"
    ISRC USAT20104934
    INDEX 00 48:01:42
    INDEX 01 48:01:45
  TRACK 11 AUDIO
    TITLE "Йirigh Suas a Stуirнn"
    PERFORMER "Maire Brennan"
    ISRC USAT20104935
    INDEX 00 52:40:35
    INDEX 01 52:40:37
Дата оригинального релиза: 1998
Год выпуска: 1998
Полная длительность звучания: 0:42:02
Тип альбома: Studio
Количество дисков: 1
Издатель: Word Records
Каталожный номер: 7019965601
Трэклист:
01 - The Big Rock
02 - Perfect Time
03 - The Light On The Hill
04 - Na Páislí
05 - Heal This Land
06 - Song Of David
07 - Our World
08 - Doon Well
09 - Grá Dé
10 - The Big Rock (Instrumental)

Код:

Exact Audio Copy V0.99 prebeta 3 from 28. July 2007

EAC extraction logfile from 26. November 2007, 20:17

Mбire Brennan / Perfect Time

Used drive  : PLEXTOR CD-R   PREMIUM2   Adapter: 1  ID: 1

Read mode               : Secure
Utilize accurate stream : Yes
Defeat audio cache      : Yes
Make use of C2 pointers : No

Read offset correction                      : 30
Overread into Lead-In and Lead-Out          : No
Fill up missing offset samples with silence : Yes
Delete leading and trailing silent blocks   : No
Null samples used in CRC calculations       : Yes
Used interface                              : Native Win32 interface for Win NT & 2000

Used output format : Internal WAV Routines
Sample format      : 44.100 Hz; 16 Bit; Stereo

TOC of the extracted CD

     Track |   Start  |  Length  | Start sector | End sector
    ---------------------------------------------------------
        1  |  0:00.00 |  3:04.25 |         0    |    13824   
        2  |  3:04.25 |  4:46.15 |     13825    |    35289   
        3  |  7:50.40 |  4:02.10 |     35290    |    53449   
        4  | 11:52.50 |  2:39.42 |     53450    |    65416   
        5  | 14:32.17 |  3:45.10 |     65417    |    82301   
        6  | 18:17.27 |  4:08.25 |     82302    |   100926   
        7  | 22:25.52 |  6:10.28 |    100927    |   128704   
        8  | 28:36.05 |  3:57.60 |    128705    |   146539   
        9  | 32:33.65 |  6:25.40 |    146540    |   175454   
       10  | 38:59.30 |  3:03.27 |    175455    |   189206   

Range status and errors

Selected range

     Filename E:\_TEMP\Perfect Time.wav

     Peak level 99.9 %
     Range quality 100.0 %
     Copy CRC 00BA9443
     Copy OK

No errors occurred

 
AccurateRip summary
 
Track  1  cannot be verified as accurate (confidence 7)  [D03C69FF], AccurateRip returned [65A60330]
Track  2  cannot be verified as accurate (confidence 6)  [89D233B4], AccurateRip returned [D46DC19F]
Track  3  cannot be verified as accurate (confidence 6)  [BD17AF17], AccurateRip returned [D82C191A]
Track  4  cannot be verified as accurate (confidence 6)  [510BAF1E], AccurateRip returned [D2242C87]
Track  5  cannot be verified as accurate (confidence 7)  [41D5A650], AccurateRip returned [929F9044]
Track  6  cannot be verified as accurate (confidence 7)  [747CF80D], AccurateRip returned [A635DF44]
Track  7  cannot be verified as accurate (confidence 6)  [11C811FC], AccurateRip returned [288A5EAE]
Track  8  cannot be verified as accurate (confidence 6)  [CF0E5B75], AccurateRip returned [9362A8F3]
Track  9  cannot be verified as accurate (confidence 7)  [87BC4FE8], AccurateRip returned [6B9278B0]
Track 10  cannot be verified as accurate (confidence 7)  [51F2CA1C], AccurateRip returned [A81CDC6F]
 
No tracks could be verified as accurate
You may have a different pressing from the one(s) in the database

End of status report

Код:

REM GENRE Folk
REM DATE 1998
REM DISCID 8E09DA0A
REM COMMENT "ExactAudioCopy v0.99pb3"
PERFORMER "Mбire Brennan"
TITLE "Perfect Time"
FILE "Perfect Time.ape" WAVE
  TRACK 01 AUDIO
    TITLE "The Big Rock"
    PERFORMER "Mбire Brennan"
    INDEX 01 00:00:00
  TRACK 02 AUDIO
    TITLE "Perfect Time"
    PERFORMER "Mбire Brennan"
    INDEX 01 03:04:25
  TRACK 03 AUDIO
    TITLE "The Light On The Hill"
    PERFORMER "Mбire Brennan"
    INDEX 01 07:50:40
  TRACK 04 AUDIO
    TITLE "Na Paisli"
    PERFORMER "Mбire Brennan"
    INDEX 01 11:52:50
  TRACK 05 AUDIO
    TITLE "Heal This Land"
    PERFORMER "Mбire Brennan"
    INDEX 01 14:32:17
  TRACK 06 AUDIO
    TITLE "Song Of David"
    PERFORMER "Mбire Brennan"
    INDEX 01 18:17:27
  TRACK 07 AUDIO
    TITLE "Our World"
    PERFORMER "Mбire Brennan"
    INDEX 01 22:25:52
  TRACK 08 AUDIO
    TITLE "Doon Well"
    PERFORMER "Mбire Brennan"
    INDEX 01 28:36:05
  TRACK 09 AUDIO
    TITLE "Gra De"
    PERFORMER "Mбire Brennan"
    INDEX 01 32:33:65
  TRACK 10 AUDIO
    TITLE "The Big Rock (Instrumental)"
    PERFORMER "Mбire Brennan"
    INDEX 01 38:59:30
Дата оригинального релиза: 1999
Год выпуска: 1999
Полная длительность звучания: 1:03:54
Тип альбома: Studio, Japan Release
Количество дисков: 1
Издатель: Epic Records, Japan
Каталожный номер: ESCA 8192
Трэклист:
01 - Follow The Word
02 - Where I Stand
03 - Hard To Break The Seal
04 - To The Water
05 - Whisper To The Wild Water
06 - Peacemaker
07 - Ageless Messengers
08 - Iláthair Dé (In God's Presence)
09 - Life
10 - Rinne Tú (You Made)
11 - Mary Of The Gaels
12 - Sign From The Hills
13 - Bí Thusa Mo Shúile (Be Thou My Vision)
Bonus track:
14 - Don't Give Up (With Michael McDonald)

Код:

Exact Audio Copy V0.99 prebeta 3 from 28. July 2007

EAC extraction logfile from 24. October 2007, 17:53

Mбire Brennan / Whisper To The Wild Water

Used drive  : PLEXTOR CD-R   PREMIUM2   Adapter: 1  ID: 1

Read mode               : Secure
Utilize accurate stream : Yes
Defeat audio cache      : Yes
Make use of C2 pointers : No

Read offset correction                      : 30
Overread into Lead-In and Lead-Out          : No
Fill up missing offset samples with silence : Yes
Delete leading and trailing silent blocks   : No
Null samples used in CRC calculations       : Yes
Used interface                              : Native Win32 interface for Win NT & 2000

Used output format : Internal WAV Routines
Sample format      : 44.100 Hz; 16 Bit; Stereo

TOC of the extracted CD

     Track |   Start  |  Length  | Start sector | End sector
    ---------------------------------------------------------
        1  |  0:00.00 |  5:12.32 |         0    |    23431   
        2  |  5:12.32 |  5:17.48 |     23432    |    47254   
        3  | 10:30.05 |  4:35.60 |     47255    |    67939   
        4  | 15:05.65 |  3:25.40 |     67940    |    83354   
        5  | 18:31.30 |  4:44.07 |     83355    |   104661   
        6  | 23:15.37 |  4:28.63 |    104662    |   124824   
        7  | 27:44.25 |  4:45.15 |    124825    |   146214   
        8  | 32:29.40 |  3:44.37 |    146215    |   163051   
        9  | 36:14.02 |  4:51.20 |    163052    |   184896   
       10  | 41:05.22 |  5:02.38 |    184897    |   207584   
       11  | 46:07.60 |  4:24.35 |    207585    |   227419   
       12  | 50:32.20 |  4:34.57 |    227420    |   248026   
       13  | 55:07.02 |  1:56.43 |    248027    |   256769   
       14  | 57:03.45 |  6:50.67 |    256770    |   287586   

Range status and errors

Selected range

     Filename E:\_TEMP\Whisper To The Wild Water.wav

     Peak level 98.8 %
     Range quality 100.0 %
     Copy CRC DAB72A20
     Copy OK

No errors occurred

 
AccurateRip summary
 
Track  1  not present in database
Track  2  not present in database
Track  3  not present in database
Track  4  not present in database
Track  5  not present in database
Track  6  not present in database
Track  7  not present in database
Track  8  not present in database
Track  9  not present in database
Track 10  not present in database
Track 11  not present in database
Track 12  not present in database
Track 13  not present in database
Track 14  not present in database
 
None of the tracks are present in the AccurateRip database

End of status report

Код:

REM GENRE folk
REM DATE 1999
REM DISCID C40EFA0E
REM COMMENT "ExactAudioCopy v0.99pb3"
PERFORMER "Mбire Brennan"
TITLE "Whisper To The Wild Water"
FILE "Whisper To The Wild Water.ape" WAVE
  TRACK 01 AUDIO
    TITLE "Follow The Word"
    PERFORMER "Mбire Brennan"
    ISRC USSM19907065
    INDEX 01 00:00:00
  TRACK 02 AUDIO
    TITLE "Where I Stand"
    PERFORMER "Mбire Brennan"
    ISRC USSM19907066
    INDEX 01 05:12:32
  TRACK 03 AUDIO
    TITLE "Hard To Break The Seal"
    PERFORMER "Mбire Brennan"
    ISRC USSM19907069
    INDEX 01 10:30:05
  TRACK 04 AUDIO
    TITLE "To The Water"
    PERFORMER "Mбire Brennan"
    ISRC USSM19907068
    INDEX 01 15:05:65
  TRACK 05 AUDIO
    TITLE "Whisper To The Wild Water"
    PERFORMER "Mбire Brennan"
    ISRC USSM19907067
    INDEX 01 18:31:30
  TRACK 06 AUDIO
    TITLE "Peacemaker"
    PERFORMER "Mбire Brennan"
    ISRC USSM19907072
    INDEX 00 23:13:52
    INDEX 01 23:15:37
  TRACK 07 AUDIO
    TITLE "Ageless Messengers"
    PERFORMER "Mбire Brennan"
    ISRC USSM19907073
    INDEX 00 27:43:25
    INDEX 01 27:44:25
  TRACK 08 AUDIO
    TITLE "I Lбthair Dй (In God's Presence)"
    PERFORMER "Mбire Brennan"
    ISRC USSM19907070
    INDEX 01 32:29:40
  TRACK 09 AUDIO
    TITLE "Life"
    PERFORMER "Mбire Brennan"
    ISRC USSM19907075
    INDEX 01 36:14:02
  TRACK 10 AUDIO
    TITLE "Rinne Tъ"
    PERFORMER "Mбire Brennan"
    ISRC USSM19907076
    INDEX 00 41:04:17
    INDEX 01 41:05:22
  TRACK 11 AUDIO
    TITLE "Mary Of The Gaels"
    PERFORMER "Mбire Brennan"
    ISRC USSM19907071
    INDEX 00 46:06:32
    INDEX 01 46:07:60
  TRACK 12 AUDIO
    TITLE "Sign From The Hills"
    PERFORMER "Mбire Brennan"
    ISRC USSM19907074
    INDEX 01 50:32:20
  TRACK 13 AUDIO
    TITLE "Bн Thusa Mo Shъile (Be Thou My Vision)"
    PERFORMER "Mбire Brennan"
    ISRC USSM19907079
    INDEX 00 55:06:00
    INDEX 01 55:07:02
  TRACK 14 AUDIO
    TITLE "Don't Give Up (With Michael McDonald)"
    PERFORMER "Mбire Brennan"
    INDEX 00 57:01:30
    INDEX 01 57:03:45
Дата оригинального релиза: 2003
Год выпуска: 2003
Полная длительность звучания: 0:58:54
Тип альбома: Studio
Количество дисков: 1
Издатель: DECCA
Каталожный номер: DCAB000191512.2
Трэклист:
1 - Show Me
2 - Bright Star
3 - Change My World
4 - Bí Liom
5 - Is It Now (Theme)
6 - Falling
7 - Tara
8 - Ancient Town
9 - Show Me (Theme)
10 - Sailing Away
11 - River
12 - Is It Now?
13 - Mothers of the Desert
14 - Harpsong
15 - Two Horizons
Bonus track:
16 - Show Me [Jakatta Mix]

Код:

Exact Audio Copy V0.99 prebeta 3 from 28. July 2007

EAC extraction logfile from 13. December 2007, 23:32

Moya Brennan / Two Horizons

Used drive  : PLEXTOR CD-R   PREMIUM2   Adapter: 1  ID: 1

Read mode               : Secure
Utilize accurate stream : Yes
Defeat audio cache      : Yes
Make use of C2 pointers : No

Read offset correction                      : 30
Overread into Lead-In and Lead-Out          : No
Fill up missing offset samples with silence : Yes
Delete leading and trailing silent blocks   : No
Null samples used in CRC calculations       : Yes
Used interface                              : Native Win32 interface for Win NT & 2000

Used output format : Internal WAV Routines
Sample format      : 44.100 Hz; 16 Bit; Stereo

TOC of the extracted CD

     Track |   Start  |  Length  | Start sector | End sector
    ---------------------------------------------------------
        1  |  0:00.00 |  4:57.43 |         0    |    22317   
        2  |  4:57.43 |  4:15.06 |     22318    |    41448   
        3  |  9:12.49 |  3:45.70 |     41449    |    58393   
        4  | 12:58.44 |  4:32.12 |     58394    |    78805   
        5  | 17:30.56 |  0:38.52 |     78806    |    81707   
        6  | 18:09.33 |  4:19.37 |     81708    |   101169   
        7  | 22:28.70 |  5:02.72 |    101170    |   123891   
        8  | 27:31.67 |  3:45.44 |    123892    |   140810   
        9  | 31:17.36 |  1:08.41 |    140811    |   145951   
       10  | 32:26.02 |  3:05.36 |    145952    |   159862   
       11  | 35:31.38 |  4:08.56 |    159863    |   178518   
       12  | 39:40.19 |  3:50.52 |    178519    |   195820   
       13  | 43:30.71 |  3:53.04 |    195821    |   213299   
       14  | 47:24.00 |  3:23.01 |    213300    |   228525   
       15  | 50:47.01 |  4:29.53 |    228526    |   248753   
       16  | 55:16.54 |  3:38.11 |    248754    |   265114   
       17  | 61:26.65 | 14:58.48 |    276515    |   343912   

Range status and errors

Selected range

     Filename E:\_TEMP\Two Horizons.wav

     Peak level 99.9 %
     Range quality 100.0 %
     Copy CRC 6956865F
     Copy OK

No errors occurred

 
AccurateRip summary
 
Track  1  accurately ripped (confidence 14)  [FE898492]
Track  2  accurately ripped (confidence 14)  [9EE422B6]
Track  3  accurately ripped (confidence 14)  [9AD8E389]
Track  4  accurately ripped (confidence 14)  [654B10D6]
Track  5  accurately ripped (confidence 14)  [8B13E287]
Track  6  accurately ripped (confidence 14)  [AFB40241]
Track  7  accurately ripped (confidence 14)  [F07D551A]
Track  8  accurately ripped (confidence 14)  [89351806]
Track  9  accurately ripped (confidence 14)  [6161678B]
Track 10  accurately ripped (confidence 14)  [2E77C644]
Track 11  accurately ripped (confidence 14)  [12DD8852]
Track 12  accurately ripped (confidence 14)  [11E1C7F5]
Track 13  accurately ripped (confidence 14)  [4648FDE4]
Track 14  accurately ripped (confidence 14)  [46D3EB55]
Track 15  accurately ripped (confidence 13)  [5CE03392]
Track 16  accurately ripped (confidence 14)  [6DBC2EB7]
 
All tracks accurately ripped

End of status report

Код:

REM GENRE "New Age"
REM DATE 2004
REM DISCID FC11E911
REM COMMENT "ExactAudioCopy v0.99pb3"
CATALOG 0602498010686
PERFORMER "Moya Brennan"
TITLE "Two Horizons"
FILE "Two Horizons.ape" WAVE
  TRACK 01 AUDIO
    TITLE "Show Me"
    PERFORMER "Moya Brennan"
    ISRC GBFWU0300016
    INDEX 01 00:00:00
  TRACK 02 AUDIO
    TITLE "Bright Star"
    PERFORMER "Moya Brennan"
    ISRC GBFWU0300018
    INDEX 01 04:57:43
  TRACK 03 AUDIO
    TITLE "Change My World"
    PERFORMER "Moya Brennan"
    ISRC GBFWU0300017
    INDEX 01 09:12:49
  TRACK 04 AUDIO
    TITLE "Bi Liom"
    PERFORMER "Moya Brennan"
    ISRC GBFWU0300019
    INDEX 00 12:56:58
    INDEX 01 12:58:44
  TRACK 05 AUDIO
    TITLE "Is It Now (Theme)"
    PERFORMER "Moya Brennan"
    ISRC GBFWU0300026
    INDEX 01 17:30:56
  TRACK 06 AUDIO
    TITLE "Falling"
    PERFORMER "Moya Brennan"
    ISRC GBFWU0300020
    INDEX 01 18:09:33
  TRACK 07 AUDIO
    TITLE "Tara"
    PERFORMER "Moya Brennan"
    ISRC GBFWU0300021
    INDEX 01 22:28:70
  TRACK 08 AUDIO
    TITLE "Ancient Town"
    PERFORMER "Moya Brennan"
    ISRC GBFWU0300022
    INDEX 00 27:30:61
    INDEX 01 27:31:67
  TRACK 09 AUDIO
    TITLE "Show Me (Theme)"
    PERFORMER "Moya Brennan"
    ISRC GBFWU0300027
    INDEX 01 31:17:36
  TRACK 10 AUDIO
    TITLE "Sailing Away"
    PERFORMER "Moya Brennan"
    ISRC GBFWU0300023
    INDEX 01 32:26:02
  TRACK 11 AUDIO
    TITLE "River"
    PERFORMER "Moya Brennan"
    ISRC GBFWU0300024
    INDEX 01 35:31:38
  TRACK 12 AUDIO
    TITLE "Is It Now"
    PERFORMER "Moya Brennan"
    ISRC GBFWU0300025
    INDEX 01 39:40:19
  TRACK 13 AUDIO
    TITLE "Mothers Of The Desert"
    PERFORMER "Moya Brennan"
    ISRC GBFWU0300028
    INDEX 01 43:30:71
  TRACK 14 AUDIO
    TITLE "Harpsong"
    PERFORMER "Moya Brennan"
    ISRC GBFWU0300029
    INDEX 01 47:24:00
  TRACK 15 AUDIO
    TITLE "Two Horizons"
    PERFORMER "Moya Brennan"
    ISRC GBFWU0300030
    INDEX 01 50:47:01
  TRACK 16 AUDIO
    TITLE "Show Me (Jakatta Mix)_Bonus Track"
    PERFORMER "Moya Brennan"
    ISRC GBFWU0300031
    INDEX 00 55:08:57
    INDEX 01 55:16:54
Дата оригинального релиза: 2006
Год выпуска: 2006
Полная длительность звучания: 0:46:54
Тип альбома: Studio, US Release
Количество дисков: 1
Издатель: BEO Records
Каталожный номер: SPD66784B.2
Трэклист:
1 - Carol of the Bells
2 - The Wexford Carol
3 - Deck the Halls
4 - Do You Hear/Don Oíche Ud I Mbeithil
5 - God Rest Ye Merry Gentlemen
6 - Gabriel's Message
7 - Joy to the World
8 - What Child Is This? *
9 - In the Bleak Midwinter
10 - Angels We Have Heard on High *
11 - In Dulci Jubilo
12 - Oíche Chúin (Silent Night)
* Релиз альбома An Irish Christmas в Америке состоялся в 2006 году. В него вошли две эксклюзивные Рождественские песни: "What Child Is This?" и "Angels We Have Heard On High"

Код:

Exact Audio Copy V0.99 prebeta 3 from 28. July 2007

EAC extraction logfile from 13. December 2007, 23:02

Moya Brennan / An Irish Christmas (US-Version)

Used drive  : PLEXTOR CD-R   PREMIUM2   Adapter: 1  ID: 1

Read mode               : Secure
Utilize accurate stream : Yes
Defeat audio cache      : Yes
Make use of C2 pointers : No

Read offset correction                      : 30
Overread into Lead-In and Lead-Out          : No
Fill up missing offset samples with silence : Yes
Delete leading and trailing silent blocks   : No
Null samples used in CRC calculations       : Yes
Used interface                              : Native Win32 interface for Win NT & 2000

Used output format : Internal WAV Routines
Sample format      : 44.100 Hz; 16 Bit; Stereo

TOC of the extracted CD

     Track |   Start  |  Length  | Start sector | End sector
    ---------------------------------------------------------
        1  |  0:00.00 |  4:56.65 |         0    |    22264   
        2  |  4:56.65 |  3:36.58 |     22265    |    38522   
        3  |  8:33.48 |  3:45.16 |     38523    |    55413   
        4  | 12:18.64 |  4:17.54 |     55414    |    74742   
        5  | 16:36.43 |  3:33.70 |     74743    |    90787   
        6  | 20:10.38 |  3:18.26 |     90788    |   105663   
        7  | 23:28.64 |  3:24.04 |    105664    |   120967   
        8  | 26:52.68 |  4:34.31 |    120968    |   141548   
        9  | 31:27.24 |  3:59.12 |    141549    |   159485   
       10  | 35:26.36 |  4:02.04 |    159486    |   177639   
       11  | 39:28.40 |  3:46.12 |    177640    |   194601   
       12  | 43:14.52 |  3:39.43 |    194602    |   211069   

Range status and errors

Selected range

     Filename E:\_TEMP\An Irish Christmas.wav

     Peak level 99.9 %
     Range quality 99.9 %
     Copy CRC E13A9618
     Copy OK

No errors occurred

 
AccurateRip summary
 
Track  1  accurately ripped (confidence 4)  [3B27DB95]
Track  2  accurately ripped (confidence 4)  [69A35EA7]
Track  3  accurately ripped (confidence 4)  [7ABA03FD]
Track  4  accurately ripped (confidence 4)  [5FF08BC4]
Track  5  accurately ripped (confidence 4)  [57DAD337]
Track  6  accurately ripped (confidence 4)  [092F68D8]
Track  7  accurately ripped (confidence 4)  [2292E3D7]
Track  8  accurately ripped (confidence 4)  [4CB8958F]
Track  9  accurately ripped (confidence 4)  [FF163881]
Track 10  accurately ripped (confidence 4)  [560B749E]
Track 11  accurately ripped (confidence 4)  [B67B52AB]
Track 12  accurately ripped (confidence 4)  [D0E02ADC]
 
All tracks accurately ripped

End of status report

Код:

REM GENRE Folk
REM DATE 2006
REM DISCID A60AFE0C
REM COMMENT "ExactAudioCopy v0.99pb3"
PERFORMER "Moya Brennan"
TITLE "An Irish Christmas (US-Version)"
FILE "An Irish Christmas.ape" WAVE
  TRACK 01 AUDIO
    TITLE "Carol Of The Bells"
    PERFORMER "Moya Brennan"
    ISRC IEAQN0500001
    INDEX 01 00:00:00
  TRACK 02 AUDIO
    TITLE "The Wexford Carol"
    PERFORMER "Moya Brennan"
    ISRC IEAQN0500002
    INDEX 00 04:55:48
    INDEX 01 04:56:65
  TRACK 03 AUDIO
    TITLE "Deck The Halls"
    PERFORMER "Moya Brennan"
    ISRC IEAQN0500003
    INDEX 00 08:31:01
    INDEX 01 08:33:48
  TRACK 04 AUDIO
    TITLE "Do You Hear / Don Oнche ud i mBeithil"
    PERFORMER "Moya Brennan"
    ISRC IEAQN0500004
    INDEX 00 12:17:44
    INDEX 01 12:18:64
  TRACK 05 AUDIO
    TITLE "God Rest Ye Merry Gentlemen"
    PERFORMER "Moya Brennan"
    ISRC IEAQN0500005
    INDEX 01 16:36:43
  TRACK 06 AUDIO
    TITLE "Gabriel's Message"
    PERFORMER "Moya Brennan"
    ISRC IEAQN0500006
    INDEX 00 20:09:39
    INDEX 01 20:10:38
  TRACK 07 AUDIO
    TITLE "Joy To The World"
    PERFORMER "Moya Brennan"
    ISRC IEAQN0500007
    INDEX 00 23:27:66
    INDEX 01 23:28:64
  TRACK 08 AUDIO
    TITLE "What Child Is This?"
    PERFORMER "Moya Brennan"
    ISRC IEAQN0600001
    INDEX 00 26:51:34
    INDEX 01 26:52:68
  TRACK 09 AUDIO
    TITLE "In The Bleak Midwinter"
    PERFORMER "Moya Brennan"
    ISRC IEAQN0500009
    INDEX 00 31:25:18
    INDEX 01 31:27:24
  TRACK 10 AUDIO
    TITLE "Angels We Have Heard On High"
    PERFORMER "Moya Brennan"
    ISRC IEAQN0600002
    INDEX 00 35:23:38
    INDEX 01 35:26:36
  TRACK 11 AUDIO
    TITLE "In Dulci Jubilo"
    PERFORMER "Moya Brennan"
    ISRC IEAQN0500011
    INDEX 00 39:26:31
    INDEX 01 39:28:40
  TRACK 12 AUDIO
    TITLE "Oнche Chъin (Silent Night)"
    PERFORMER "Moya Brennan"
    ISRC IEAQN0500012
    INDEX 00 43:12:31
    INDEX 01 43:14:52
Дата оригинального релиза: 2006
Год выпуска: 2007
Полная длительность звучания: 0:47:38 + 0:18:47
Тип альбома: Studio, Special Tour Edition
Количество дисков: 2
Издатель: Edel Records, Germany
Каталожный номер: 0178452CTT
Трэклист:
Disk: 1
1 - Purple Haze
2 - No One Talks
3 - Merry-go-round
4 - Always
5 - Tapestry
6 - Black Night
7 - Hear My Prayer
8 - Never Stray Far Away
9 - Many Faces
10 - Hidden Stories
11 - Gone Are The Days
12 - Pill A Rún Ó
Disk: 2
1 - Pill A Rún Ó (live)
2 - Black Night (live)
3 - Many Faces (live)
4 - Tapestry (live)
5 - Gone Are The Days (live)

Код:

Exact Audio Copy V0.99 prebeta 3 from 28. July 2007

EAC extraction logfile from 12. December 2007, 9:55

Moya Brennan / Signature

Used drive  : PLEXTOR CD-R   PREMIUM2   Adapter: 1  ID: 1

Read mode               : Secure
Utilize accurate stream : Yes
Defeat audio cache      : Yes
Make use of C2 pointers : No

Read offset correction                      : 30
Overread into Lead-In and Lead-Out          : No
Fill up missing offset samples with silence : Yes
Delete leading and trailing silent blocks   : No
Null samples used in CRC calculations       : Yes
Used interface                              : Native Win32 interface for Win NT & 2000

Used output format : Internal WAV Routines
Sample format      : 44.100 Hz; 16 Bit; Stereo

TOC of the extracted CD

     Track |   Start  |  Length  | Start sector | End sector
    ---------------------------------------------------------
        1  |  0:00.00 |  4:00.07 |         0    |    18006   
        2  |  4:00.07 |  4:20.73 |     18007    |    37579   
        3  |  8:21.05 |  4:39.69 |     37580    |    58573   
        4  | 13:00.74 |  4:03.06 |     58574    |    76804   
        5  | 17:04.05 |  3:40.00 |     76805    |    93304   
        6  | 20:44.05 |  3:16.08 |     93305    |   108012   
        7  | 24:00.13 |  3:41.53 |    108013    |   124640   
        8  | 27:41.66 |  4:17.20 |    124641    |   143935   
        9  | 31:59.11 |  3:30.62 |    143936    |   159747   
       10  | 35:29.73 |  4:18.22 |    159748    |   179119   
       11  | 39:48.20 |  4:02.58 |    179120    |   197327   
       12  | 43:51.03 |  3:47.36 |    197328    |   214388   

Range status and errors

Selected range

     Filename E:\_TEMP\Signature.wav

     Peak level 99.9 %
     Range quality 100.0 %
     Copy CRC 18300C3C
     Copy OK

No errors occurred

 
AccurateRip summary
 
Track  1  cannot be verified as accurate (confidence 2)  [E3F8625F], AccurateRip returned [3D2DDA4B]
Track  2  cannot be verified as accurate (confidence 2)  [A96219AE], AccurateRip returned [631EB853]
Track  3  cannot be verified as accurate (confidence 2)  [AC32E2B7], AccurateRip returned [83DC0A01]
Track  4  cannot be verified as accurate (confidence 2)  [602AE41C], AccurateRip returned [47A42FF0]
Track  5  cannot be verified as accurate (confidence 2)  [01D451CE], AccurateRip returned [E292E8A1]
Track  6  cannot be verified as accurate (confidence 2)  [6577B8A6], AccurateRip returned [FCD1F855]
Track  7  cannot be verified as accurate (confidence 2)  [F4BC0C42], AccurateRip returned [8B74459A]
Track  8  cannot be verified as accurate (confidence 2)  [6F6A94A7], AccurateRip returned [4F10BD42]
Track  9  cannot be verified as accurate (confidence 2)  [58820A0E], AccurateRip returned [516CFF83]
Track 10  cannot be verified as accurate (confidence 2)  [935B69E5], AccurateRip returned [0777F7F5]
Track 11  cannot be verified as accurate (confidence 2)  [FACE5604], AccurateRip returned [7A665E63]
Track 12  cannot be verified as accurate (confidence 2)  [1C16073B], AccurateRip returned [308DFAE1]
 
No tracks could be verified as accurate
You may have a different pressing from the one(s) in the database

End of status report

Код:

REM GENRE Folk
REM DATE 2006
REM DISCID 840B2A0C
REM COMMENT "ExactAudioCopy v0.99pb3"
PERFORMER "Moya Brennan"
TITLE "Signature"
FILE "Signature.ape" WAVE
  TRACK 01 AUDIO
    TITLE "Purple Haze"
    PERFORMER "Moya Brennan"
    ISRC IEAQN0600003
    INDEX 01 00:00:00
  TRACK 02 AUDIO
    TITLE "No one talks"
    PERFORMER "Moya Brennan"
    ISRC IEAQN0600004
    INDEX 00 03:58:67
    INDEX 01 04:00:07
  TRACK 03 AUDIO
    TITLE "Merry go round"
    PERFORMER "Moya Brennan"
    ISRC IEAQN0600005
    INDEX 00 08:20:42
    INDEX 01 08:21:05
  TRACK 04 AUDIO
    TITLE "Always"
    PERFORMER "Moya Brennan"
    ISRC IEAQN0600006
    INDEX 00 13:00:57
    INDEX 01 13:00:74
  TRACK 05 AUDIO
    TITLE "Tapestry"
    PERFORMER "Moya Brennan"
    ISRC IEAQN0600007
    INDEX 00 17:03:08
    INDEX 01 17:04:05
  TRACK 06 AUDIO
    TITLE "Black night"
    PERFORMER "Moya Brennan"
    ISRC IEAQN0600008
    INDEX 00 20:42:43
    INDEX 01 20:44:05
  TRACK 07 AUDIO
    TITLE "Hear my prayer"
    PERFORMER "Moya Brennan"
    ISRC IEAQN0600009
    INDEX 00 23:58:72
    INDEX 01 24:00:13
  TRACK 08 AUDIO
    TITLE "Never stray far away"
    PERFORMER "Moya Brennan"
    ISRC IEAQN0600010
    INDEX 00 27:40:54
    INDEX 01 27:41:66
  TRACK 09 AUDIO
    TITLE "Many faces"
    PERFORMER "Moya Brennan"
    ISRC IEAQN0600011
    INDEX 00 31:58:28
    INDEX 01 31:59:11
  TRACK 10 AUDIO
    TITLE "Hidden stories"
    PERFORMER "Moya Brennan"
    ISRC IEAQN0600012
    INDEX 00 35:28:24
    INDEX 01 35:29:73
  TRACK 11 AUDIO
    TITLE "Gone are the days"
    PERFORMER "Moya Brennan"
    ISRC IEAQN0600013
    INDEX 00 39:47:01
    INDEX 01 39:48:20
  TRACK 12 AUDIO
    TITLE "Pill A run O"
    PERFORMER "Moya Brennan"
    ISRC IEAQN0600014
    INDEX 00 43:48:71
    INDEX 01 43:51:03

Код:

Exact Audio Copy V0.99 prebeta 3 from 28. July 2007

EAC extraction logfile from 12. December 2007, 10:11

Moya Brennan / Signature Live

Used drive  : PLEXTOR CD-R   PREMIUM2   Adapter: 1  ID: 1

Read mode               : Secure
Utilize accurate stream : Yes
Defeat audio cache      : Yes
Make use of C2 pointers : No

Read offset correction                      : 30
Overread into Lead-In and Lead-Out          : No
Fill up missing offset samples with silence : Yes
Delete leading and trailing silent blocks   : No
Null samples used in CRC calculations       : Yes
Used interface                              : Native Win32 interface for Win NT & 2000

Used output format : Internal WAV Routines
Sample format      : 44.100 Hz; 16 Bit; Stereo

TOC of the extracted CD

     Track |   Start  |  Length  | Start sector | End sector
    ---------------------------------------------------------
        1  |  0:00.00 |  3:26.38 |         0    |    15487   
        2  |  3:26.38 |  3:18.50 |     15488    |    30387   
        3  |  6:45.13 |  3:49.43 |     30388    |    47605   
        4  | 10:34.56 |  3:59.50 |     47606    |    65580   
        5  | 14:34.31 |  4:13.24 |     65581    |    84579   

Range status and errors

Selected range

     Filename E:\_TEMP\Signature Live.wav

     Peak level 100.0 %
     Range quality 100.0 %
     Copy CRC 94700BFA
     Copy OK

No errors occurred

 
AccurateRip summary
 
Track  1  not present in database
Track  2  not present in database
Track  3  not present in database
Track  4  not present in database
Track  5  not present in database
 
None of the tracks are present in the AccurateRip database

End of status report

Код:

REM GENRE Folk
REM DATE 2007
REM DISCID 3B046705
REM COMMENT "ExactAudioCopy v0.99pb3"
PERFORMER "Moya Brennan"
TITLE "Signature Live"
FILE "Signature Live.ape" WAVE
  TRACK 01 AUDIO
    TITLE "Pill A Run O"
    PERFORMER "Moya Brennan"
    ISRC IEAQN0700007
    INDEX 01 00:00:00
  TRACK 02 AUDIO
    TITLE "Black Night"
    PERFORMER "Moya Brennan"
    ISRC IEAQN0700008
    INDEX 01 03:26:38
  TRACK 03 AUDIO
    TITLE "Many Faces"
    PERFORMER "Moya Brennan"
    ISRC IEAQN0700009
    INDEX 01 06:45:13
  TRACK 04 AUDIO
    TITLE "Tapestry"
    PERFORMER "Moya Brennan"
    ISRC IEAQN0700010
    INDEX 01 10:34:56
  TRACK 05 AUDIO
    TITLE "Gone Are The Days"
    PERFORMER "Moya Brennan"
    ISRC IEAQN0700011
    INDEX 01 14:34:31
Дата оригинального релиза: 2008
Год выпуска: 2008
Полная длительность звучания: 1:00:28
Тип альбома: Live
Количество дисков: 1
Издатель: BEO Records
Каталожный номер: FIERCD43
Трэклист:
01 - Tapestry
02 - Perfect Time
03 - Mhorag's Na Horo Gheallaidh
04 - Alasdair MacColla
05 - Molly Fair
06 - Sailing Away
07 - Gone Are The Days
08 - Tunes Medley (Eleanor Plunkett, Hobknobs, Father Francis Cameron)
09 - I Will Find You
10 - Merry Go Around
11 - No One Talks
12 - In A Lifetime
13 - Against The Wind
14 - Harry's Game

Код:

Exact Audio Copy V0.99 prebeta 3 from 28. July 2007

EAC extraction logfile from 16. October 2008, 19:34

Moya Brennan / Heart Strings

Used drive  : PLEXTOR CD-R   PREMIUM2   Adapter: 1  ID: 0

Read mode               : Secure
Utilize accurate stream : Yes
Defeat audio cache      : Yes
Make use of C2 pointers : No

Read offset correction                      : 30
Overread into Lead-In and Lead-Out          : No
Fill up missing offset samples with silence : Yes
Delete leading and trailing silent blocks   : No
Null samples used in CRC calculations       : Yes
Used interface                              : Native Win32 interface for Win NT & 2000

Used output format : Internal WAV Routines
Sample format      : 44.100 Hz; 16 Bit; Stereo

TOC of the extracted CD

     Track |   Start  |  Length  | Start sector | End sector
    ---------------------------------------------------------
        1  |  0:00.00 |  4:27.46 |         0    |    20070   
        2  |  4:27.46 |  4:34.12 |     20071    |    40632   
        3  |  9:01.58 |  2:08.67 |     40633    |    50299   
        4  | 11:10.50 |  3:39.03 |     50300    |    66727   
        5  | 14:49.53 |  4:07.40 |     66728    |    85292   
        6  | 18:57.18 |  5:07.29 |     85293    |   108346   
        7  | 24:04.47 |  4:02.42 |    108347    |   126538   
        8  | 28:07.14 |  7:25.12 |    126539    |   159925   
        9  | 35:32.26 |  4:49.16 |    159926    |   181616   
       10  | 40:21.42 |  4:59.06 |    181617    |   204047   
       11  | 45:20.48 |  4:26.19 |    204048    |   224016   
       12  | 49:46.67 |  3:40.70 |    224017    |   240586   
       13  | 53:27.62 |  4:16.26 |    240587    |   259812   
       14  | 57:44.13 |  2:44.35 |    259813    |   272147   

Range status and errors

Selected range

     Filename E:\_TEMP\Heart Strings.wav

     Peak level 100.0 %
     Range quality 100.0 %
     Test CRC 2F181E46
     Copy CRC 2F181E46
     Copy OK

No errors occurred

 
AccurateRip summary
 
Track  1  not present in database
Track  2  not present in database
Track  3  not present in database
Track  4  not present in database
Track  5  not present in database
Track  6  not present in database
Track  7  not present in database
Track  8  not present in database
Track  9  not present in database
Track 10  not present in database
Track 11  not present in database
Track 12  not present in database
Track 13  not present in database
Track 14  not present in database
 
None of the tracks are present in the AccurateRip database

End of status report

Код:

REM GENRE Folk
REM DATE 2008
REM DISCID D30E2C0E
REM COMMENT "ExactAudioCopy v0.99pb3"
PERFORMER "Moya Brennan"
TITLE "Heart Strings"
FILE "Heart Strings.ape" WAVE
  TRACK 01 AUDIO
    TITLE "Tapestry"
    PERFORMER "Moya Brennan"
    ISRC IEAQN0800001
    INDEX 01 00:00:00
  TRACK 02 AUDIO
    TITLE "Perfect Time"
    PERFORMER "Moya Brennan"
    ISRC IEAQN0800002
    INDEX 01 04:27:46
  TRACK 03 AUDIO
    TITLE "Mhorag's Na Horo Gheallaidh"
    PERFORMER "Moya Brennan"
    ISRC IEAQN0800003
    INDEX 01 09:01:58
  TRACK 04 AUDIO
    TITLE "Alasdair MacColla"
    PERFORMER "Moya Brennan"
    ISRC IEAQN0800004
    INDEX 01 11:10:50
  TRACK 05 AUDIO
    TITLE "Molly Fair"
    PERFORMER "Moya Brennan"
    ISRC IEAQN0800005
    INDEX 01 14:49:53
  TRACK 06 AUDIO
    TITLE "Sailing Away"
    PERFORMER "Moya Brennan"
    ISRC IEAQN0800006
    INDEX 01 18:57:18
  TRACK 07 AUDIO
    TITLE "Gone Are The Days"
    PERFORMER "Moya Brennan"
    ISRC IEAQN0800007
    INDEX 01 24:04:47
  TRACK 08 AUDIO
    TITLE "Tunes Medley"
    PERFORMER "Moya Brennan"
    ISRC IEAQN0800008
    INDEX 01 28:07:14
  TRACK 09 AUDIO
    TITLE "I Will Find You"
    PERFORMER "Moya Brennan"
    ISRC IEAQN0800009
    INDEX 01 35:32:26
  TRACK 10 AUDIO
    TITLE "Merry Go Around"
    PERFORMER "Moya Brennan"
    ISRC IEAQN0800010
    INDEX 01 40:21:42
  TRACK 11 AUDIO
    TITLE "No One Talks"
    PERFORMER "Moya Brennan"
    ISRC IEAQN0800011
    INDEX 01 45:20:48
  TRACK 12 AUDIO
    TITLE "In A Lifetime"
    PERFORMER "Moya Brennan"
    ISRC IEAQN0800012
    INDEX 01 49:46:67
  TRACK 13 AUDIO
    TITLE "Against The Wind"
    PERFORMER "Moya Brennan"
    ISRC IEAQN0800013
    INDEX 01 53:27:62
  TRACK 14 AUDIO
    TITLE "Harry's Game"
    PERFORMER "Moya Brennan"
    ISRC IEAQN0800014
    INDEX 01 57:44:13
info [Профиль]  [ЛС] 

post 21-Янв-2010 21:22 (спустя 1 час 39 минут) [-]0[+]

Топик был перенесен из форума Оформление раздач (Музыка и Музыкальное видео) в форум Фольклор, Народная и Этническая музыка (lossless)

чучило-мяучило
 

mr_jw

Пол: Пол:Муж

Стаж: 7 лет 7 месяцев

Сообщений: 74

Украина
Рейтинг

post 18-Июн-2010 12:52 (спустя 4 месяца 27 дней) [-]0[+]

[Цитировать] 

народ, плиз, дайте слить!! сидов вижу, а даунлоад не идёт

_________________
Let The Justice Be Honoured
info [Профиль]  [ЛС] 

mr_jw

Пол: Пол:Муж

Стаж: 7 лет 7 месяцев

Сообщений: 74

Украина
Рейтинг

post 21-Июн-2010 20:45 (спустя 3 дня) [-]0[+]

[Цитировать] 

дров дадут? ну не жадничайте..

_________________
Let The Justice Be Honoured
info [Профиль]  [ЛС] 

петя1

Пол: Пол:Муж

Стаж: 4 года 11 месяцев

Сообщений: 7

Россия
Рейтинг

post 15-Янв-2012 09:47 (спустя 1 год 6 месяцев) [-]0[+]

[Цитировать] 

народ, где блин раздающие???? дайте докачать!!!! закачал всего 51%.....
info [Профиль]  [ЛС] 
Показать сообщения:    
Ответить на тему

Текущее время: 09-Дек 04:04

Часовой пояс: GMT + 4



Вы не можете начинать темы
Вы не можете отвечать на сообщения
Вы не можете редактировать свои сообщения
Вы не можете удалять свои сообщения
Вы не можете голосовать в опросах
Вы не можете прикреплять файлы к сообщениям
Вы не можете скачивать файлы