Ошибка

Школа под прицелом (Академия Поднебесной) | Psychic School Wars | Nerawareta Gakuen [Movie][2012 г., романтика, фантастика, повседневность][BDRip][720p][Любительский (JAP+SUB)] от 3df_voice

Ответить на тему
 
Автор Сообщение

ReBootRus

Пол: Пол:Муж

Стаж: 1 год 3 месяца

Сообщений: 86

Южная Георгия и Южные Сандвичевы острова
Рейтинг

post 17-Май-2020 15:36 0[+]

[Цитировать] 

Школа под прицелом | Академия Поднебесной
Psychic School Wars | Nerawareta Gakuen

Год выпуска: 2012
Страна: Япония
Жанр: романтика, фантастика, повседневность
Тип: Movie
Продолжительность: 106 мин.
Режиссер: Накамура Рёсукэ
Автор оригинала: Маюмура Таку
Студия:
Озвучка: Многоголосая, студия (г. Тула), 2020г.
На русский роли озвучивали: Глеб Янышев, Мария Яковлева, Александр Аносов, Евгения Андрианова, Никита Кузнецов, Ольга Кужельная, Андрей Соболевский, Альбина Штанина, Дарья Колетвинова, Евгений Бородаенко, Екатерина Филина, Татьяна Серебрякова и Павел Тимонин.
Сведение и мастеринг: Александр Шмат.

Перевод:
русские субтитры CAMELIASUBS (.ass) (Перевод: Diablo, Редактор/Тайм-код/Перевод песен/Оформление: LeoDreaM, Перевод песен: Лилия Де-Франц, Редактор: Шеленара)
английские субтитры gg (.ass)
Описание:
Весна стала началом нового учебного года в старшей школе Камакура. Новый ученик по обмену, Кёичи Кёгоку зачислен в класс N8. Суть в том, что Кёгоку — телепат, и он очень хорошо запомнил наказ отца использовать свой дар в личных целях. Благодаря своей внешности и телепатии он быстро становится популярным в школе. Все склоняются перед влиянием очарования Кёгоку, а он охотно управляет ими. Причем, к тем, кто не благоговеет перед ним, он относится без малейшей жалости. Уже все пали жертвами его чар, и лишь Сэки стойко противостоит Кёгоку. Удастся ли Сэки вырвать школьников из объятий магии Кёгоку?
Информационные ссылки: || || ||
Релиз/Энкод: Beatrice-Raws
Качество: BDRip
Тип видео: без хардсаба
Формат: mkv
Видео: H.264/AVC, Hi10P (10-bit), 1280x720 (16:9), 23,976 кадр/с, 7048 Кбит/с
Аудио RUS 3df_voice: AAC, 48 kHz, 301 Кбит/с, 2 ch
Аудио JAP: DTS, 48 kHz, 1509 Кбит/с, 6 ch

Код:

Общее
Уникальный идентификатор                 : 259445556584635507243288817216485200913 (0xC32F6589F780006857E76BD6CF6A1411)
Полное имя                               : Nerawareta Gakuen BDRip 720p [3df_voice] [10 bit Beatrice-Raws].mkv
Формат                                   : Matroska
Версия формата                           : Version 4
Размер файла                             : 6,60 Гбайт
Продолжительность                        : 1 ч. 46 м.
Общий поток                              : 8 868 Кбит/сек
Дата кодирования                         : UTC 2020-05-16 07:39:49
Программа кодирования                    : mkvmerge v44.0.0 ('Domino') 64-bit
Библиотека кодирования                   : libebml v1.3.10 + libmatroska v1.5.2
Attachments                              : Clannad_Round_Regular.ttf / danielbk.ttf / DINk.ttf / Light at the end.ttf / MeriendaOne-Regular.ttf / TodaySHOP-Medium.otf / Vera.ttf / Advert-Light.otf / Amira-Semibold.otf / ARNORG.TTF / BAARS.TTF / CartoGothicStd-Book.otf / chalkboard.ttf

Видео
Идентификатор                            : 1
Формат                                   : AVC
Формат/Информация                        : Advanced Video Codec
Профиль формата                          : High 10@L4.1
Настройки формата                        : CABAC / 4 Ref Frames
Параметр CABAC формата                   : Да
Параметр RefFrames формата               : 4 кадра
Идентификатор кодека                     : V_MPEG4/ISO/AVC
Продолжительность                        : 1 ч. 46 м.
Битрейт                                  : 7 048 Кбит/сек
Ширина                                   : 1 280 пикселей
Высота                                   : 720 пикселей
Соотношение сторон                       : 16:9
Режим частоты кадров                     : Постоянный
Частота кадров                           : 23,976 (24000/1001) кадра/сек
Цветовое пространство                    : YUV
Субдискретизация насыщенности            : 4:2:0
Битовая глубина                          : 10 бит
Тип развёртки                            : Прогрессивная
Бит/(Пиксели*Кадры)                      : 0.319
Размер потока                            : 5,24 Гбайт (79%)
Библиотека кодирования                   : x264 core 129 r2245+729M 1a52e03
Настройки программы                      : cabac=1 / ref=4 / deblock=1:1:-1 / analyse=0x3:0x113 / me=umh / subme=9 / psy=1 / fade_compensate=0.00 / psy_rd=1.00:0.00 / mixed_ref=1 / me_range=32 / chroma_me=1 / trellis=2 / 8x8dct=1 / cqm=0 / deadzone=21,11 / fast_pskip=1 / chroma_qp_offset=-2 / threads=12 / lookahead_threads=2 / sliced_threads=0 / nr=0 / decimate=1 / interlaced=0 / bluray_compat=0 / constrained_intra=0 / fgo=0 / bframes=9 / b_pyramid=2 / b_adapt=2 / b_bias=0 / direct=1 / weightb=1 / open_gop=0 / weightp=2 / keyint=240 / keyint_min=24 / scenecut=40 / intra_refresh=0 / rc=crf / mbtree=0 / crf=16.0 / qcomp=0.72 / qpmin=0 / qpmax=81 / qpstep=4 / ip_ratio=1.40 / pb_ratio=1.30 / aq=1:0.85
Default                                  : Да
Forced                                   : Нет
Цветовой диапазон                        : Limited
Основные цвета                           : BT.709
Характеристики трансфера                 : BT.709
Коэффициенты матрицы                     : BT.709

Аудио #1
Идентификатор                            : 2
Формат                                   : AAC LC
Формат/Информация                        : Advanced Audio Codec Low Complexity
Идентификатор кодека                     : A_AAC-2
Продолжительность                        : 1 ч. 46 м.
Битрейт                                  : 301 Кбит/сек
Каналы                                   : 2 канала
Channel layout                           : L R
Частота                                  : 48,0 КГц
Частота кадров                           : 46,875 кадров/сек (1024 SPF)
Метод сжатия                             : С потерями
Задержка видео                           : 9 мс.
Размер потока                            : 229 Мбайт (3%)
Заголовок                                : 3df_voice
Язык                                     : Russian
Default                                  : Да
Forced                                   : Нет

Аудио #2
Идентификатор                            : 3
Формат                                   : DTS
Формат/Информация                        : Digital Theater Systems
Идентификатор кодека                     : A_DTS
Продолжительность                        : 1 ч. 46 м.
Вид битрейта                             : Постоянный
Битрейт                                  : 1 509 Кбит/сек
Каналы                                   : 6 каналов
Channel layout                           : C L R Ls Rs LFE
Частота                                  : 48,0 КГц
Частота кадров                           : 93,750 кадра/сек (512 SPF)
Битовая глубина                          : 24 бит
Метод сжатия                             : С потерями
Размер потока                            : 1,12 Гбайт (17%)
Язык                                     : Japanese
Default                                  : Нет
Forced                                   : Нет

Текст #1
Идентификатор                            : 4
Формат                                   : ASS
Идентификатор кодека                     : S_TEXT/ASS
Идентификатор кодека/Информация          : Advanced Sub Station Alpha
Продолжительность                        : 1 ч. 46 м.
Битрейт                                  : 3 350 бит/сек
Count of elements                        : 12128
Метод сжатия                             : Без потерь
Размер потока                            : 2,55 Мбайт (0%)
Заголовок                                : CAMELIASUBS
Язык                                     : Russian
Default                                  : Нет
Forced                                   : Нет

Текст #2
Идентификатор                            : 5
Формат                                   : ASS
Идентификатор кодека                     : S_TEXT/ASS
Идентификатор кодека/Информация          : Advanced Sub Station Alpha
Продолжительность                        : 1 ч. 45 м.
Битрейт                                  : 1 654 бит/сек
Count of elements                        : 3498
Метод сжатия                             : Без потерь
Размер потока                            : 1,25 Мбайт (0%)
Язык                                     : English
Default                                  : Нет
Forced                                   : Нет

Меню
00:00:00.000                             : en:00:00:00.000
00:01:53.697                             : en:00:01:53.697
00:08:48.695                             : en:00:08:48.695
00:14:09.265                             : en:00:14:09.265
00:18:16.220                             : en:00:18:16.220
00:26:48.190                             : en:00:26:48.190
00:30:50.557                             : en:00:30:50.557
00:34:18.848                             : en:00:34:18.848
00:37:33.543                             : en:00:37:33.543
00:42:29.672                             : en:00:42:29.672
00:48:37.748                             : en:00:48:37.748
00:54:37.983                             : en:00:54:37.983
00:58:58.535                             : en:00:58:58.535
01:02:43.301                             : en:01:02:43.301
01:06:35.992                             : en:01:06:35.992
01:10:27.849                             : en:01:10:27.849
01:15:48.544                             : en:01:15:48.544
01:22:13.762                             : en:01:22:13.762
01:26:40.946                             : en:01:26:40.946
01:28:34.851                             : en:01:28:34.851
01:33:05.288                             : en:01:33:05.288
01:37:10.867                             : en:01:37:10.867
01:40:20.640                             : en:01:40:20.640
01:44:43.277                             : en:01:44:43.277
 
File: Nerawareta Gakuen BDRip 720p [3df_voice] [10 bit Beatrice-Raws].mkv
Duration: 01:46:31 (6391.38)
Track #1: video
lang: und (1)
codc: V_MPEG4/ISO/AVC -> H264/AVC (22)
reso: 1280x720 (1280x720) -> 16:9
fram: 23.976 fps
rate: 7048 kbps (7048.22)
dura: 01:46:31 (6391.34)
size: 5.24 GB (5630950463)
Track #2: audio (3df_voice)
lang: rus -> Russian (15)
codc: A_AAC -> AAC (9)
chan: 2 -> Stereo
samp: 48000 Hz
rate: 301 kbps (301.34)
dura: 01:46:31 (6391.25)
size: 229.59 MB (240741731)
Track #3: audio
lang: jpn -> Japanese (2)
codc: A_DTS -> DTS (13)
chan: 6 -> 5.1 Surround
samp: 48000 Hz
rate: 1509 kbps (1509.11)
dura: 01:46:31 (6391.34)
size: 1.12 GB (1205650835)
Track #4: subtitles (CAMELIASUBS)
lang: rus -> Russian (15)
type: S_TEXT/ASS -> ASS (5)
size: 2.55 MB (2672387)
Track #5: subtitles
lang: Unknown (1)
type: S_TEXT/ASS -> ASS (5)
size: 1.25 MB (1312709)
Sizes: (check sanity)
disk: 6.60 GB (7084825454)
atts: 720.67 KB (737968)
trac: 2.60 GB (2786360829) [based on track size]
bitr: 6.59 GB (7077347157) [based on bitrate]
tdif: 4.00 GB (4297726657) 60.66%
bdif: 6.43 MB (6740328) 0.09%
info [Профиль]  [ЛС] 
Показать сообщения:    
Ответить на тему

Текущее время: 02-Июн 08:49

Часовой пояс: GMT + 4



Вы не можете начинать темы
Вы не можете отвечать на сообщения
Вы не можете редактировать свои сообщения
Вы не можете удалять свои сообщения
Вы не можете голосовать в опросах
Вы не можете прикреплять файлы к сообщениям
Вы не можете скачивать файлы