Ошибка

До окончания фрилича осталось:


Школа под прицелом (Академия Поднебесной) | Psychic School Wars | Nerawareta Gakuen [Movie][2012 г., романтика, фантастика, повседневность][BDRip][1080p][Любительский (JAP+SUB)] от 3df_voice

Ответить на тему
 
Автор Сообщение

ReBootRus

Пол: Пол:Муж

Стаж: 1 год 3 месяца

Сообщений: 86

Южная Георгия и Южные Сандвичевы острова
Рейтинг

post 17-Май-2020 15:30 0[+]

[Цитировать] 

Школа под прицелом | Академия Поднебесной
Psychic School Wars | Nerawareta Gakuen

Год выпуска: 2012
Страна: Япония
Жанр: романтика, фантастика, повседневность
Тип: Movie
Продолжительность: 106 мин.
Режиссер: Накамура Рёсукэ
Автор оригинала: Маюмура Таку
Студия:
Озвучка: Многоголосая, студия (г. Тула), 2020г.
На русский роли озвучивали: Глеб Янышев, Мария Яковлева, Александр Аносов, Евгения Андрианова, Никита Кузнецов, Ольга Кужельная, Андрей Соболевский, Альбина Штанина, Дарья Колетвинова, Евгений Бородаенко, Екатерина Филина, Татьяна Серебрякова и Павел Тимонин.
Сведение и мастеринг: Александр Шмат.

Перевод:
русские субтитры CAMELIASUBS (.ass) (Перевод: Diablo, Редактор/Тайм-код/Перевод песен/Оформление: LeoDreaM, Перевод песен: Лилия Де-Франц, Редактор: Шеленара)
английские субтитры gg (.ass)
Описание:
Весна стала началом нового учебного года в старшей школе Камакура. Новый ученик по обмену, Кёичи Кёгоку зачислен в класс N8. Суть в том, что Кёгоку — телепат, и он очень хорошо запомнил наказ отца использовать свой дар в личных целях. Благодаря своей внешности и телепатии он быстро становится популярным в школе. Все склоняются перед влиянием очарования Кёгоку, а он охотно управляет ими. Причем, к тем, кто не благоговеет перед ним, он относится без малейшей жалости. Уже все пали жертвами его чар, и лишь Сэки стойко противостоит Кёгоку. Удастся ли Сэки вырвать школьников из объятий магии Кёгоку?
Информационные ссылки: || || ||
Релиз/Энкод: Moozzi2
Качество: BDRip
Тип видео: без хардсаба
Формат: mkv
Видео: H.264/AVC, 8-bit, 1920x1080 (16:9), 23,976 кадр/с, 6526 Кбит/с
Аудио RUS 3df_voice: FLAC, 48 kHz, 949 Кбит/с, 2 ch
Аудио JAP: FLAC, 48 kHz, 1029 Кбит/с, 2 ch
Аудио JAP: DTS-HD, 48 kHz, 2 878 Кбит/с, 6 ch
Аудио JAP: DTS, 48 kHz, 255 Кбит/с, 2 ch

Код:

Общее
Уникальный идентификатор                 : 29241196044367849052314526230421958703 (0x15FFA64619D35E003C47895AACC7F02F)
Полное имя                               : Nerawareta Gakuen BDRip 1080p [3df_voice] [8 bit Moozzi2].mkv
Формат                                   : Matroska
Версия формата                           : Version 4
Размер файла                             : 8,67 Гбайт
Продолжительность                        : 1 ч. 46 м.
Режим общего битрейта                    : Переменный
Общий поток                              : 11,6 Мбит/сек
Дата кодирования                         : UTC 2020-05-16 07:54:46
Программа кодирования                    : mkvmerge v44.0.0 ('Domino') 64-bit
Библиотека кодирования                   : libebml v1.3.10 + libmatroska v1.5.2
Attachments                              : Vera.ttf / Advert-Light.otf / Amira-Semibold.otf / ARNORG.TTF / BAARS.TTF / CartoGothicStd-Book.otf / chalkboard.ttf / Clannad_Round_Regular.ttf / danielbk.ttf / DINk.ttf / Light at the end.ttf / MeriendaOne-Regular.ttf / TodaySHOP-Medium.otf

Видео
Идентификатор                            : 1
Формат                                   : AVC
Формат/Информация                        : Advanced Video Codec
Профиль формата                          : High@L5
Настройки формата                        : CABAC / 5 Ref Frames
Параметр CABAC формата                   : Да
Параметр RefFrames формата               : 5 кадров
Идентификатор кодека                     : V_MPEG4/ISO/AVC
Продолжительность                        : 1 ч. 46 м.
Битрейт                                  : 6 526 Кбит/сек
Ширина                                   : 1 920 пикселей
Высота                                   : 1 080 пикселей
Соотношение сторон                       : 16:9
Режим частоты кадров                     : Постоянный
Частота кадров                           : 23,976 (24000/1001) кадра/сек
Цветовое пространство                    : YUV
Субдискретизация насыщенности            : 4:2:0
Битовая глубина                          : 8 бит
Тип развёртки                            : Прогрессивная
Бит/(Пиксели*Кадры)                      : 0.131
Размер потока                            : 4,86 Гбайт (56%)
Библиотека кодирования                   : x264 core 155 r2901 7d0ff22
Настройки программы                      : cabac=1 / ref=5 / deblock=1:1:1 / analyse=0x3:0x113 / me=umh / subme=9 / psy=1 / psy_rd=1.00:0.00 / mixed_ref=1 / me_range=32 / chroma_me=1 / trellis=0 / 8x8dct=1 / cqm=0 / deadzone=21,11 / fast_pskip=0 / chroma_qp_offset=-2 / threads=24 / lookahead_threads=2 / sliced_threads=0 / nr=0 / decimate=1 / interlaced=0 / bluray_compat=0 / stitchable=1 / constrained_intra=0 / bframes=3 / b_pyramid=2 / b_adapt=2 / b_bias=0 / direct=1 / weightb=1 / open_gop=0 / weightp=1 / keyint=240 / keyint_min=23 / scenecut=40 / intra_refresh=0 / rc_lookahead=40 / rc=crf / mbtree=1 / crf=16.0 / qcomp=0.60 / qpmin=0 / qpmax=69 / qpstep=4 / ip_ratio=1.40 / aq=1:1.00
Default                                  : Да
Forced                                   : Нет

Аудио #1
Идентификатор                            : 2
Формат                                   : FLAC
Формат/Информация                        : Free Lossless Audio Codec
Идентификатор кодека                     : A_FLAC
Продолжительность                        : 1 ч. 46 м.
Вид битрейта                             : Переменный
Битрейт                                  : 949 Кбит/сек
Каналы                                   : 2 канала
Channel layout                           : L R
Частота                                  : 48,0 КГц
Частота кадров                           : 41,667 кадра/сек (1152 SPF)
Битовая глубина                          : 16 бит
Метод сжатия                             : Без потерь
Размер потока                            : 723 Мбайт (8%)
Заголовок                                : Flac - 3df_voice
Библиотека кодирования                   : libFLAC 1.3.0 (UTC 2013-05-26)
Язык                                     : Russian
Default                                  : Да
Forced                                   : Нет

Аудио #2
Идентификатор                            : 3
Формат                                   : FLAC
Формат/Информация                        : Free Lossless Audio Codec
Идентификатор кодека                     : A_FLAC
Продолжительность                        : 1 ч. 46 м.
Вид битрейта                             : Переменный
Битрейт                                  : 1 029 Кбит/сек
Каналы                                   : 2 канала
Channel layout                           : L R
Частота                                  : 48,0 КГц
Частота кадров                           : 11,719 кадров/сек (4096 SPF)
Битовая глубина                          : 24 бит
Detected bit depth                       : 20 бит
Метод сжатия                             : Без потерь
Размер потока                            : 784 Мбайт (9%)
Заголовок                                : Flac
Библиотека кодирования                   : libFLAC 1.3.2 (UTC 2017-01-01)
Язык                                     : Japanese
Default                                  : Нет
Forced                                   : Нет

Аудио #3
Идентификатор                            : 4
Формат                                   : DTS XLL
Формат/Информация                        : Digital Theater Systems
Коммерческое название                    : DTS-HD Master Audio
Идентификатор кодека                     : A_DTS
Продолжительность                        : 1 ч. 46 м.
Вид битрейта                             : Переменный
Битрейт                                  : 2 878 Кбит/сек
Каналы                                   : 6 каналов
Channel layout                           : C L R Ls Rs LFE
Частота                                  : 48,0 КГц
Частота кадров                           : 93,750 кадра/сек (512 SPF)
Битовая глубина                          : 24 бит
Метод сжатия                             : Без потерь
Размер потока                            : 2,14 Гбайт (25%)
Заголовок                                : DTS-HD Master Audio
Язык                                     : Japanese
Default                                  : Нет
Forced                                   : Нет

Аудио #4
Идентификатор                            : 5
Формат                                   : DTS
Формат/Информация                        : Digital Theater Systems
Идентификатор кодека                     : A_DTS
Продолжительность                        : 1 ч. 46 м.
Вид битрейта                             : Постоянный
Битрейт                                  : 255 Кбит/сек
Каналы                                   : 2 канала
Channel layout                           : L R
Частота                                  : 48,0 КГц
Частота кадров                           : 93,750 кадра/сек (512 SPF)
Битовая глубина                          : 24 бит
Метод сжатия                             : С потерями
Размер потока                            : 194 Мбайт (2%)
Заголовок                                : DTS
Язык                                     : Japanese
Default                                  : Нет
Forced                                   : Нет

Текст #1
Идентификатор                            : 6
Формат                                   : ASS
Идентификатор кодека                     : S_TEXT/ASS
Идентификатор кодека/Информация          : Advanced Sub Station Alpha
Продолжительность                        : 1 ч. 46 м.
Битрейт                                  : 3 350 бит/сек
Count of elements                        : 12128
Метод сжатия                             : Без потерь
Размер потока                            : 2,55 Мбайт (0%)
Заголовок                                : CAMELIASUBS
Язык                                     : Russian
Default                                  : Нет
Forced                                   : Нет

Текст #2
Идентификатор                            : 7
Формат                                   : ASS
Идентификатор кодека                     : S_TEXT/ASS
Идентификатор кодека/Информация          : Advanced Sub Station Alpha
Продолжительность                        : 1 ч. 45 м.
Битрейт                                  : 1 654 бит/сек
Count of elements                        : 3498
Метод сжатия                             : Без потерь
Размер потока                            : 1,25 Мбайт (0%)
Язык                                     : English
Default                                  : Нет
Forced                                   : Нет

Меню
00:00:00.000                             : :Глава 01
00:01:53.697                             : :Глава 02
00:08:48.695                             : :Глава 03
00:14:09.265                             : :Глава 04
00:18:16.220                             : :Глава 05
00:26:48.190                             : :Глава 06
00:30:50.557                             : :Глава 07
00:34:18.848                             : :Глава 08
00:37:33.543                             : :Глава 09
00:42:29.672                             : :Глава 10
00:48:37.748                             : :Глава 11
00:54:37.983                             : :Глава 12
00:58:58.535                             : :Глава 13
01:02:43.301                             : :Глава 14
01:06:35.992                             : :Глава 15
01:10:27.849                             : :Глава 16
01:15:48.544                             : :Глава 17
01:22:13.762                             : :Глава 18
01:26:40.946                             : :Глава 19
01:28:34.851                             : :Глава 20
01:33:05.288                             : :Глава 21
01:37:10.867                             : :Глава 22
01:40:20.640                             : :Глава 23
01:44:43.277                             : :Глава 24
 
File: Nerawareta Gakuen BDRip 1080p [3df_voice] [8 bit Moozzi2].mkv
Duration: 01:46:31 (6391.38)
Track #1: video
lang: und (1)
codc: V_MPEG4/ISO/AVC -> H264/AVC (22)
reso: 1920x1080 -> 16:9
fram: 23.976 fps
rate: 6526 kbps (6526.4)
dura: 01:46:31 (6391.34)
size: 4.86 GB (5214054249)
Track #2: audio (Flac - 3df_voice)
lang: rus -> Russian (15)
codc: A_FLAC -> Other (15)
chan: 2 -> Stereo
samp: 48000 Hz
rate: 949 kbps (949.25)
dura: 01:46:31 (6391.32)
size: 723.24 MB (758369926)
Track #3: audio (Flac)
lang: jpn -> Japanese (2)
codc: A_FLAC -> Other (15)
chan: 2 -> Stereo
samp: 48000 Hz
rate: 1029 kbps (1029.39)
dura: 01:46:31 (6391.38)
size: 784.30 MB (822399229)
Track #4: audio (DTS-HD Master Audio)
lang: jpn -> Japanese (2)
codc: A_DTS -> DTS (13)
chan: 6 -> 5.1 Surround
samp: 48000 Hz
rate: 2879 kbps (2879.32)
dura: 01:46:31 (6391.31)
size: 2.14 GB (2300328059)
Track #5: audio (DTS)
lang: jpn -> Japanese (2)
codc: A_DTS -> DTS (13)
chan: 2 -> Stereo
samp: 48000 Hz
rate: 255 kbps (255.10)
dura: 01:46:31 (6391.31)
size: 194.36 MB (203802277)
Track #6: subtitles (CAMELIASUBS)
lang: rus -> Russian (15)
type: S_TEXT/ASS -> ASS (5)
size: 2.55 MB (2672387)
Track #7: subtitles
lang: Unknown (1)
type: S_TEXT/ASS -> ASS (5)
size: 1.25 MB (1312709)
Sizes: (check sanity)
disk: 8.67 GB (9307153222)
atts: 720.67 KB (737968)
trac: 4.66 GB (5007971540) [based on track size]
bitr: 8.66 GB (9298965266) [based on bitrate]
tdif: 4.00 GB (4298443714) 46.18%
bdif: 7.10 MB (7449987) 0.08%
info [Профиль]  [ЛС] 
Показать сообщения:    
Ответить на тему

Текущее время: 31-Май 20:28

Часовой пояс: GMT + 4



Вы не можете начинать темы
Вы не можете отвечать на сообщения
Вы не можете редактировать свои сообщения
Вы не можете удалять свои сообщения
Вы не можете голосовать в опросах
Вы не можете прикреплять файлы к сообщениям
Вы не можете скачивать файлы