Ошибка

Манускрипт ниндзя | Ninja Scroll [Movie][1993][приключения, фэнтези, романтика][BDRip][1080p][Дублированный (JAP+SUB)]

Ответить на тему
 
Автор Сообщение

Witcher

Пол: Пол:Муж

Стаж: 11 лет

Сообщений: 6497

Рейтинг

post 08-Май-2020 22:44 4[+]

[Цитировать] 

pic="https://i.ibb.co/sRz55bb/Ninja-Scroll.jpg"
Манускрипт ниндзя
Ninja Scroll | Juubee Ninpuuchou | 獣兵衛忍風帖

  Год: 1993
  Выпуск: 05.06.1993
  Страна:
  Жанр: приключения, фэнтези, романтика
  Тип: полнометражный фильм, 92 мин.
  Озвучка:
  • Профессиональная (дубляж) [ОРТ | Первый канал]

  • Профессиональная (многоголосая) [МС Еntertainment]

  • Любительская (многоголосая) [AniDUB]

  • Авторская (одноголосая) [Сергей Рябов]
  • Авторская (одноголосая) [Юрий Сербин]
  Субтитры:
  • Английские (.srt)
  • Русские - МС Еntertainment (.srt)
  Навигация по главам:
  • Присутствует

  Режиссёр: Кавадзири Ёсиаки
  Основа: оригинальная идея
  Автор оригинала: Кавадзири Ёсиаки
  Студия: Madhouse

  Описание:
  В провинции Ямасиро неожиданно начинается эпидемия чумы — уникальное событие для Японии. Все жители бегут оттуда, а глава одного из соседних самурайских кланов — клана Мотидзукэ, отправляет на разведку в эти места подчиняющиеся ему остатки клана ниндзя Кога. Однако какие-то странные существа, наделенные невероятной силой, мгновенно расправляются с незваными гостями, и спастись удается только девушке-ниндзя Кагэро, потому что ей в этом помог бродячий ниндзя-самурай Дзюбэй, смогший справиться с одним из этих странных существ. Но Дзюбэй и не догадывается, что убил не просто «демона», а одного из «Восьми Демонов Кимона», группы воинов с поразительными, нечеловеческими возможностями, и для оставшейся семерки он теперь — смертельный враг.
  • Прототип главного героя фильма — Ягю Дзюбэй Мицуёси, историческая личность, знаменитый мастер кэндзюцу (искусство владения мечом) и ниндзюцу (искусство ниндзя), создатель секретной службы О-мэцукэ и личный учитель фехтования сёгуна Токугавы Иэмицу.
  • Английский перевод названия «Ninja Scroll» (как и его русский вариант — «Манускрипт ниндзя») ошибочен. Иероглиф «chou» в данном случае значит не «свиток, манускрипт», а «рассказ, история, повесть». Буквальный перевод названия — «Дзюбэй — повесть о ниндзя, который повелевал ветром» (указание на умение Дзюбэя создавать резким взмахом меча узкую струю воздуха, рассекавшую тела его противников).
  • Ягю Дзюбэй — герой множества легенд и целого ряда фильмов и сериалов. Обычно он изображается несколько старше, чем главный герой «Манускрипта ниндзя», и с повязкой на глазу. Однако режиссёра фильма — Ёсиаки Кавадзири — интересовал не столько исторический Дзюбэй, сколько обобщенный образ молодого воина «без прошлого и будущего». Поэтому он намеренно пренебрег и портретным сходством, и практически всеми известными легендами о Дзюбэе.

  Качество: BDRip [Witcher] | Хардсаб: Нет | Формат: MKV
  Видео: x265 HEVC Ma10P | 1460х1080 (4:3) | 23,976 fps | ~ 12000 Kbps
  Аудио - в составе контейнера:
  JP - FLAC | 2 ch | 48 KHz | ~ 1536 Kbps
  RU - AC3 | 1 ch | 48 KHz | ~ 192 kbps - ОРТ | Первый канал
  RU - DTS | 2 ch | 48 KHz | ~ 1509 kbps - МС Еntertainment
  Аудио - внешним файлом:
  RU - AC3 | 6 ch | 48 KHz | ~ 384 kbps - МС Еntertainment
  RU - AC3 | 2 ch | 48 KHz | ~ 192 kbps - AniDUB - Стефан, Jade, Sergei Vasya, Dreamy Sleep, Azazel
  RU - DTS | 2 ch | 48 KHz | ~ 1509 kbps - Сергей Рябов
  RU - DTS | 2 ch | 48 KHz | ~ 1509 kbps - Юрий Сербин

Код:

Формат                                   : Matroska
Версия формата                           : Version 4
Размер файла                             : 9,76 Гбайт
Продолжительность                        : 1 ч. 31 м.
Режим общего битрейта                    : Переменный
Общий поток                              : 15,3 Мбит/сек
Название фильма                          : Ninja Scroll | Манускрипт ниндзя
Дата кодирования                         : UTC 2020-05-08 18:18:43
Программа кодирования                    : mkvmerge v46.0.0 ('No Deeper Escape') 64-bit
Библиотека кодирования                   : libebml v1.3.10 + libmatroska v1.5.2

Видео
Идентификатор                            : 1
Формат                                   : HEVC
Формат/Информация                        : High Efficiency Video Coding
Профиль формата                          : Main 10@L4@Main
Идентификатор кодека                     : V_MPEGH/ISO/HEVC
Продолжительность                        : 1 ч. 31 м.
Битрейт                                  : 12,0 Мбит/сек
Ширина                                   : 1 460 пикселей
Высота                                   : 1 080 пикселей
Соотношение сторон                       : 4:3
Режим частоты кадров                     : Постоянный
Частота кадров                           : 23,976 (24000/1001) кадра/сек
Цветовое пространство                    : YUV
Субдискретизация насыщенности            : 4:2:0
Битовая глубина                          : 10 бит
Бит/(Пиксели*Кадры)                      : 0.318
Размер потока                            : 7,68 Гбайт (79%)
Библиотека кодирования                   : x265 3.0_Au+4-dcbec33bfb0f:[Windows][GCC 8.2.1][64 bit] 10bit
Настройки программы                      : cpuid=1049583 / frame-threads=3 / numa-pools=8 / wpp / no-pmode / no-pme / no-psnr / no-ssim / log-level=2 / input-csp=1 / input-res=1460x1080 / interlace=0 / total-frames=131808 / level-idc=0 / high-tier=1 / uhd-bd=0 / ref=4 / no-allow-non-conformance / no-repeat-headers / annexb / no-aud / no-hrd / info / hash=0 / no-temporal-layers / open-gop / min-keyint=23 / keyint=240 / gop-lookahead=0 / bframes=9 / b-adapt=2 / b-pyramid / bframe-bias=0 / rc-lookahead=40 / lookahead-slices=0 / scenecut=40 / radl=0 / no-splice / no-intra-refresh / ctu=64 / min-cu-size=8 / rect / amp / max-tu-size=32 / tu-inter-depth=2 / tu-intra-depth=2 / limit-tu=4 / rdoq-level=2 / dynamic-rd=0.00 / no-ssim-rd / signhide / no-tskip / nr-intra=0 / nr-inter=0 / no-constrained-intra / strong-intra-smoothing / max-merge=4 / limit-refs=1 / limit-modes / me=3 / subme=5 / merange=48 / temporal-mvp / weightp / weightb / no-analyze-src-pics / deblock=1:-1 / no-sao / no-sao-non-deblock / rd=4 / no-early-skip / no-rskip / no-fast-intra / no-tskip-fast / no-cu-lossless / b-intra / no-splitrd-skip / rdpenalty=0 / psy-rd=2.00 / psy-rdoq=4.00 / no-rd-refine / no-lossless / cbqpoffs=-2 / crqpoffs=-2 / rc=crf / crf=15.0 / qcomp=0.72 / qpstep=4 / stats-write=0 / stats-read=0 / ipratio=1.40 / pbratio=1.30 / aq-mode=3 / aq-strength=0.85 / no-cutree / zone-count=0 / no-strict-cbr / qg-size=32 / no-rc-grain / qpmax=69 / qpmin=0 / no-const-vbv / sar=1 / overscan=0 / videoformat=5 / range=0 / colorprim=1 / transfer=1 / colormatrix=1 / chromaloc=0 / display-window=0 / max-cll=0,0 / min-luma=0 / max-luma=1023 / log2-max-poc-lsb=8 / vui-timing-info / vui-hrd-info / slices=1 / no-opt-qp-pps / no-opt-ref-list-length-pps / no-multi-pass-opt-rps / scenecut-bias=0.05 / no-opt-cu-delta-qp / no-aq-motion / no-hdr / no-hdr-opt / no-dhdr10-opt / no-idr-recovery-sei / analysis-reuse-level=5 / scale-factor=0 / refine-intra=0 / refine-inter=0 / refine-mv=0 / refine-ctu-distortion=0 / no-limit-sao / ctu-info=0 / no-lowpass-dct / refine-analysis-type=0 / copy-pic=1 / max-ausize-factor=1.0 / no-dynamic-refine / no-single-sei / hevc-aq / qp-adaptation-range=2.00
Язык                                     : Japanese
Default                                  : Да
Forced                                   : Да
Цветовой диапазон                        : Limited
Основные цвета                           : BT.709
Характеристики трансфера                 : BT.709
Коэффициенты матрицы                     : BT.709

Аудио #1
Идентификатор                            : 2
Формат                                   : FLAC
Формат/Информация                        : Free Lossless Audio Codec
Идентификатор кодека                     : A_FLAC
Продолжительность                        : 1 ч. 31 м.
Вид битрейта                             : Переменный
Битрейт                                  : 1 540 Кбит/сек
Каналы                                   : 2 канала
Channel layout                           : L R
Частота                                  : 48,0 КГц
Частота кадров                           : 41,667 кадра/сек (1152 SPF)
Битовая глубина                          : 16 бит
Метод сжатия                             : Без потерь
Размер потока                            : 1 009 Мбайт (10%)
Библиотека кодирования                   : libFLAC 1.3.1 (UTC 2014-11-25)
Язык                                     : Japanese
Default                                  : Нет
Forced                                   : Нет

Аудио #2
Идентификатор                            : 3
Формат                                   : AC-3
Формат/Информация                        : Audio Coding 3
Коммерческое название                    : Dolby Digital
Идентификатор кодека                     : A_AC3
Продолжительность                        : 1 ч. 31 м.
Вид битрейта                             : Постоянный
Битрейт                                  : 192 Кбит/сек
Каналы                                   : 1 канал
Channel layout                           : C
Частота                                  : 48,0 КГц
Частота кадров                           : 31,250 кадров/сек (1536 SPF)
Метод сжатия                             : С потерями
Размер потока                            : 126 Мбайт (1%)
Заголовок                                : ОРТ | Первый канал
Язык                                     : Russian
Service kind                             : Complete Main
Default                                  : Нет
Forced                                   : Нет

Аудио #3
Идентификатор                            : 4
Формат                                   : DTS
Формат/Информация                        : Digital Theater Systems
Идентификатор кодека                     : A_DTS
Продолжительность                        : 1 ч. 31 м.
Вид битрейта                             : Постоянный
Битрейт                                  : 1 509 Кбит/сек
Каналы                                   : 2 канала
Channel layout                           : L R
Частота                                  : 48,0 КГц
Частота кадров                           : 93,750 кадра/сек (512 SPF)
Битовая глубина                          : 24 бит
Метод сжатия                             : С потерями
Размер потока                            : 989 Мбайт (10%)
Заголовок                                : МС Еntertainment
Язык                                     : Russian
Default                                  : Да
Forced                                   : Да

Текст #1
Идентификатор                            : 5
Формат                                   : UTF-8
Идентификатор кодека                     : S_TEXT/UTF8
Идентификатор кодека/Информация          : UTF-8 Plain Text
Продолжительность                        : 1 ч. 29 м.
Битрейт                                  : 41 бит/сек
Count of elements                        : 760
Размер потока                            : 27,1 Кбайт (0%)
Язык                                     : English
Default                                  : Нет
Forced                                   : Нет

Текст #2
Идентификатор                            : 6
Формат                                   : UTF-8
Идентификатор кодека                     : S_TEXT/UTF8
Идентификатор кодека/Информация          : UTF-8 Plain Text
Продолжительность                        : 1 ч. 30 м.
Битрейт                                  : 62 бит/сек
Count of elements                        : 845
Размер потока                            : 41,6 Кбайт (0%)
Заголовок                                : МС Еntertainment
Язык                                     : Russian
Default                                  : Нет
Forced                                   : Нет

Меню
00:00:00.000                             : en:A Storm Is Brewing
00:02:54.173                             : en:Shimoda Village Plague
00:06:31.099                             : en:Kagero Joins the Team
00:09:19.934                             : en:Tessai Attacks
00:14:33.706                             : en:Tessai Captures Kagero
00:19:56.486                             : en:"the Way to Hell"
00:22:02.029                             : en:Benisato Attacks
00:25:19.267                             : en:Dakuan Explains
00:28:54.524                             : en:Jubei's Flashback
00:33:35.096                             : en:Benisato Defeated
00:37:32.917                             : en:Kagero's Secret
00:43:11.589                             : en:Wasp Attack
00:45:19.174                             : en:Gemma Reincarnate
00:47:39.898                             : en:Zakuro Attacks
00:52:16.842                             : en:Mujuro Utsutsu
00:55:16.730                             : en:Precious Cargo
00:59:36.948                             : en:Shijima's Trap
01:03:16.125                             : en:The Antidote Revealed
01:06:18.182                             : en:Lord Gemma Arrives
01:11:28.325                             : en:Yurimaru Trapped
01:13:00.542                             : en:Kiss of Life
01:16:47.686                             : en:Zakuro Explodes
01:19:41.693                             : en:Golden Hall
01:27:52.684                             : en:End Credits


info [Профиль]  [ЛС] 

Witcher

Пол: Пол:Муж

Стаж: 11 лет

Сообщений: 6497

Рейтинг

post 08-Май-2020 22:45 (спустя 1 минута) [-]0[+]

[Цитировать] 

anime_9
Классика. За озвучку спасибо ребятам с TeamHD
  • За исходник для дорожки ОРТ | Первый канал спасибо Alexandr8909. За информацию о наличии дубляжа спасибо Danil6300.
  • Дорожка МС Еntertainment получена наложением выделенного голоса на оба канала декодированного LPCM. За выделение голоса МС Entertainment спасибо Slimka.
  • Исходник для дорожки МС Еntertainment AC3 взят с DVD R5 МС Еntertainment из личной коллекции 8bitman. Убрано много точек рассинхрона, которые возникли из-за разной длительности переходов между сценами на DVD и BD. Дорожка имеет полноценные 5.1.
  • За исходник для дорожки AniDUB спасибо qazxdrf.
  • Дорожки Сергея Рябова и Юрия Сербина получены наложением чистого голоса на оба канала декодированного LPCM. За чистый голос Рябова спасибо sergey_n.
Сравнение рипа с оригиналом https://slow.pics/c/k9a6wALY

_________________
Темы не проверяю, для этого есть модераторы. В отпуске
info [Профиль]  [ЛС] 

pazimunda

Пол: Пол:Муж

Стаж: 10 лет

Сообщений: 127

Россия
Рейтинг

post 08-Май-2020 23:31 (спустя 45 минут) [-]2[+]

[Цитировать] 

Помню у меня этот диск с анимехой был,так если я не ошибаюсь там даже Хентайная сцена была
info [Профиль]  [ЛС] 

Witcher

Пол: Пол:Муж

Стаж: 11 лет

Сообщений: 6497

Рейтинг

post 08-Май-2020 23:58 (спустя 26 минут) [-]2[+]

[Цитировать] 

pazimunda писал(а):

Помню у меня этот диск с анимехой был,так если я не ошибаюсь там даже Хентайная сцена была
Близкая к хейнтайной Улыбаюсь. Отличительная черта режисёра.

_________________
Темы не проверяю, для этого есть модераторы. В отпуске
info [Профиль]  [ЛС] 

AvgustoS

Стаж: 6 лет

Сообщений: 1452

Украина
Рейтинг

post 09-Май-2020 00:12 (спустя 14 минут) [-]0[+]

[Цитировать] 

Witcher писал(а):

Близкая к хейнтайной Улыбаюсь. Отличительная черта режисёра.
Когда мне было 7 лет и я увидел сцену с проникновением пальцами - для меня она не казалась "близкой к хентайной". Благо на кассете сразу за этим "мультиком" был записан "Повелитель страниц" kolob_143
Будет обновление в английской дорожкой?
info [Профиль]  [ЛС] 

Макс СтепанOFF

Пол: Пол:Муж

Стаж: 7 лет 3 месяца

Сообщений: 45

Украина
Рейтинг

post 09-Май-2020 00:17 (спустя 5 минут) [-]0[+]

[Цитировать] 

Крутой мульт! bb

_________________
Лед тронулся господа присяжные! Командовать парадом буду я!
info [Профиль]  [ЛС] 

CblPok

Пол: Пол:Муж

Стаж: 9 лет

Сообщений: 1495

Россия
Рейтинг

post 09-Май-2020 01:28 (спустя 1 час 11 минут) [-]1[+]

[Цитировать] 

AvgustoS писал(а):

Когда мне было 7 лет и я увидел сцену с проникновением пальцами - для меня она не казалась "близкой к хентайной". Благо на кассете сразу за этим "мультиком" был записан "Повелитель страниц"
Мне было лет 8-9 когда я посмотрел его, и у меня на кассете (которую у знакомых взял) тоже был записан после него "Повелитель страниц". ai
У кого-то, кто записывал эти кассеты было хорошое чувство юмора))

_________________
info [Профиль]  [ЛС] 

oggleb420

Пол: Пол:Муж

Стаж: 5 лет 7 месяцев

Сообщений: 5

СССР
Рейтинг

post 09-Май-2020 02:06 (спустя 37 минут) [-]0[+]

[Цитировать] 

Жаль мастер более не снимает, я так обрадовался когда пошли слухи о новом охотнике Ди, но похоже этому не суждено сбыться.
info [Профиль]  [ЛС] 

AvgustoS

Стаж: 6 лет

Сообщений: 1452

Украина
Рейтинг

post 09-Май-2020 02:21 (спустя 15 минут) [-]0[+]

[Цитировать] 

CblPok писал(а):

Мне было лет 8-9 когда я посмотрел его, и у меня на кассете (которую у знакомых взял) тоже был записан после него "Повелитель страниц".
Мне родители эту кассету принесли со словами "мы тебе мультики принесли". Этот день я запомнил надолго. Видимо брали у одного поставщика kolob_118
info [Профиль]  [ЛС] 

Sayrox

Пол: Пол:Муж

Стаж: 10 лет

Сообщений: 25

Россия
Рейтинг

post 09-Май-2020 02:27 (спустя 5 минут) [-]0[+]

[Цитировать] 

Вот это респект!! Так давно искал в хорошем качестве с хорошим переводом! Добра!
info [Профиль]  [ЛС] 

Strelok321

Пол: Пол:Муж

Стаж: 10 лет

Сообщений: 177

СССР
Рейтинг

post 09-Май-2020 09:48 (спустя 7 часов) [-]0[+]

[Цитировать] 

Этот шедевр, смотрел в видео салоне, тогда мне было 14 лет Улыбаюсь
Чуть раньше смотрел Корабль-призрак. С этих мультиков началась любовь к аниме Улыбаюсь Потом увидел произведения Миядзяки - "Унесённые призраками" , "Ходячий замок" и т.д. это был культурный шок Улыбаюсь
info [Профиль]  [ЛС] 

NeoCreator

Пол: Пол:Муж

Стаж: 10 лет

Сообщений: 29

Россия
Рейтинг

post 10-Май-2020 16:49 (спустя 1 день 7 часов) [-]0[+]

[Цитировать] 

Ссылка на шикимори для клирнета оканчивается доменной зоной .one , а не .org
info [Профиль]  [ЛС] 
Показать сообщения:    
Ответить на тему

Текущее время: 26-Май 20:26

Часовой пояс: GMT + 4



Вы не можете начинать темы
Вы не можете отвечать на сообщения
Вы не можете редактировать свои сообщения
Вы не можете удалять свои сообщения
Вы не можете голосовать в опросах
Вы не можете прикреплять файлы к сообщениям
Вы не можете скачивать файлы