Ошибка

The Frame (Jamin Winans) [2014 | WEB-DL 1080p | RUS Sub] от R.G. GOGFAN

Ответить на тему
 
Автор Сообщение

Svyatovlad21

Пол: Пол:Муж

Стаж: 6 лет 8 месяцев

Сообщений: 4992

Россия
Рейтинг

post 28-Сен-2019 19:48 2[+]

[Цитировать] 

The Frame


Общая информация:
Дата выхода: 07 октября 2014 года
Компания: Double Edge Films
Продолжительность: 107 минут
Цифровая лицензия GOG.com
Страница на IMDB
Страница на КиноПоиск
Язык: English
Субтитры: English, русский, Deutsch, español, français,
Режиссер:
Jamin Winans
Описание:
  От Джамина Винанса, сценариста и режиссера культового кино Чернила (INK), - новый невероятный фантастически триллер про двух незнакомцев, жизнь которых начинает меняться абсолютно невероятным образом.
  Алекс (Дэвид Карранза) - методичный грабитель грузов, работающий на опасный картель. Сэм (Тиффани Муалем) - преданная работе врач, которая хочет спасти мир, но убегает от своего прошлого. Неожиданно и непонятно как, жизни Алекса и Сэм сталкиваются и сама реальность начинает разрываться прямо у их ног. Отправляясь к корням судьбы, предначертанности и существования, Алекс и Сэм бегут через постоянно меняющуюся вселенную, пока их преследует демонический человек, которых пытается стереть мир.

Информация о файле:
Качество: WEB-DL 1080p
Формат: .mp4
Видео кодек: MPEG-4
Аудио кодек: AAC
Видео: 1 920 х 1 080, 23.976 fps, 4 476 kb/s
Аудио: 48000 Hz, stereo, 261 kb/s

Бонусы:
  • Артбук
  • Саундтрек (mp3)
  • Набор субтитров
  • Трейлер

General
Format : MPEG-4
Codec ID : M4V (M4V /mp42/isom)
File size : 4.12 GiB
Duration : 2 h 7 min
Overall bit rate mode : Variable
Overall bit rate : 4 636 kb/s
Encoded date : UTC 2014-11-18 06:02:54
Tagged date : UTC 2014-11-18 06:03:52
TIM : 00:00:00:00
TSC : 24000
TSZ : 1001

Video
ID : 1
Format : AVC
Format/Info : Advanced Video Codec
Format profile : Baseline@L4
Format settings : 2 Ref Frames
Format settings, CABAC : No
Format settings, Reference frames : 2 frames
Format settings, GOP : M=1, N=72
Codec ID : avc1
Codec ID/Info : Advanced Video Coding
Duration : 2 h 7 min
Source duration : 2 h 7 min
Bit rate mode : Variable
Bit rate : 4 476 kb/s
Maximum bit rate : 5 400 kb/s
Width : 1 920 pixels
Height : 1 080 pixels
Display aspect ratio : 16:9
Frame rate mode : Constant
Frame rate : 23.976 (24000/1001) FPS
Standard : NTSC
Color space : YUV
Chroma subsampling : 4:2:0
Bit depth : 8 bits
Scan type : Progressive
Bits/(Pixel*Frame) : 0.090
Stream size : 3.97 GiB (97%)
Source stream size : 3.97 GiB (97%)
Language : English
Encoded date : UTC 2014-11-18 06:02:54
Tagged date : UTC 2014-11-18 06:02:54
Color range : Limited
Codec configuration box : avcC

Audio
ID : 2
Format : AAC LC
Format/Info : Advanced Audio Codec Low Complexity
Codec ID : mp4a-40-2
Duration : 2 h 7 min
Source duration : 2 h 7 min
Bit rate mode : Variable
Bit rate : 157 kb/s
Maximum bit rate : 261 kb/s
Channel(s) : 2 channels
Channel layout : L R
Sampling rate : 48.0 kHz
Frame rate : 46.875 FPS (1024 SPF)
Compression mode : Lossy
Stream size : 143 MiB (3%)
Source stream size : 143 MiB (3%)
Language : English
Encoded date : UTC 2014-11-18 06:02:54
Tagged date : UTC 2014-11-18 06:02:54
info [Профиль]  [ЛС] 

Svyatovlad21

Пол: Пол:Муж

Стаж: 6 лет 8 месяцев

Сообщений: 4992

Россия
Рейтинг

post 06-Окт-2019 23:40 (спустя 8 дней) [-]0[+]

[Цитировать] 

***
info [Профиль]  [ЛС] 
Показать сообщения:    
Ответить на тему

Текущее время: 18-Окт 11:44

Часовой пояс: GMT + 4



Вы не можете начинать темы
Вы не можете отвечать на сообщения
Вы не можете редактировать свои сообщения
Вы не можете удалять свои сообщения
Вы не можете голосовать в опросах
Вы не можете прикреплять файлы к сообщениям
Вы не можете скачивать файлы