Ошибка

До окончания фрилича осталось:


Клинок, рассекающий демонов / Demon Slayer / Kimetsu no Yaiba [TV][26 из 26][2019][приключения, фэнтези][WEBRip][720p][Профессиональный (JAP+SUB)]

Ответить на тему
 
Автор Сообщение

FalledPerson

Пол: Пол:Муж

Стаж: 9 лет

Сообщений: 75

Россия
Рейтинг

post 12-Май-2019 12:20 3[+]

[Цитировать] 


Клинок, рассекающий демонов
Demon Slayer
Kimetsu no Yaiba

Год выпуска: 2019
Страна: Япония
Жанр: приключения, фэнтези
Продолжительность: ТВ (26 эп.), по 25 мин.
Перевод:
Озвучка: Многоголосый дубляж от Wakanim Сэмпл
Ислам Ганджаев, Владислав Токарев, Анна Мосолова, Иван Породнов, Ирина Евтягина, Александр Русаков, Татьяна Борзова, Полина Ртищева, Александр Скиданов, Сергей Евтягин, Анастасия Портная
Субтитры:
ASS, Русские YakuSub Studio - SeshaRim, Minamikaze, Akutagawa Yuki | Внешним файлом
ASS, Русские SovetRomantica - DaunAutist, Satanika | Внешним файлом
ASS, Crunchyroll - English, Spanish, Portuguese | В составе контейнера
Основа: манга
Режиссёр: Сотодзаки Харуо
Снято по манге: Клинок, рассекающий демонов
Студия: UFO Table
Ссылки: World Art | AniDB | ANN
Описание: С незапамятных времён земля японская полнится слухами о демонах-людоедах, что скрываются в лесной чаще. В страхе перед ними обычные селяне предпочитают не покидать свои жилища после захода солнца. Быть может, именно эти чувства и породили легенду об охотниках на демонов, истребляющих нечисть по ночам. С тех пор, как погиб его отец, Тандзиро в одиночку добывает хлеб для своей семьи — матери, братьев и сестёр. Однако тяжёлые, но счастливые будни подходят к концу, когда юноша находит близких зверски убитыми. Удаётся выжить лишь сестре Тандзиро, Нэдзуко, обратившейся демоном. Но девушка чуть не погибает от руки загадочного мечника — в последний миг тот останавливается, поражённый взаимной верностью человека и демона. Разглядев в Тандзиро потенциал охотника на демонов, странник направляет его к своему наставнику, дабы тот обучил юношу азам нового ремесла...

© wakanim
Качество: WEBRip
Формат: MKV
Релиз/Автор рипа: Erai-raws
Тип видео: Без хардсаба
Видео кодек: x264 8 bits
Видео: 2737 Кбит/сек., 1280×720 (16:9), 23.976 кадр/сек.
Аудио 1: Vorbis, 128 Кбит/сек., 44.1 КГц, Стерео, Язык Русский (внешним файлом)
Аудио 2: AAC, 128 Кбит/сек., 44.1 КГц, Стерео. Язык Японский | Original
General 
Unique ID : 197057667795146003336110411056308231590 (0x943FED232973E7CF312AC1EBA7A71DA6)
Complete name : E:\Anime\Kimetsu no Yaiba [720p]\[Erai-raws] Kimetsu no Yaiba - 01 [720p][Multiple Subtitle].mkv
Format : Matroska
Format version : Version 4 / Version 2
File size : 485 MiB
Duration : 23 min 40 s
Overall bit rate : 2 868 kb/s
Encoded date : UTC 2019-04-06 17:08:37
Writing application : mkvmerge v26.0.0 ('In The Game') 64-bit
Writing library : libebml v1.3.6 + libmatroska v1.4.9

Video
ID : 1
Format : AVC
Format/Info : Advanced Video Codec
Format profile : High@L4
Format settings, CABAC : Yes
Format settings, RefFrames : 6 frames
Format settings, GOP : M=4, N=8
Codec ID : V_MPEG4/ISO/AVC
Duration : 23 min 39 s
Bit rate : 2 737 kb/s
Width : 1 280 pixels
Height : 720 pixels
Display aspect ratio : 16:9
Frame rate mode : Constant
Frame rate : 23.976 (24000/1001) FPS
Color space : YUV
Chroma subsampling : 4:2:0
Bit depth : 8 bits
Scan type : Progressive
Bits/(Pixel*Frame) : 0.124
Stream size : 463 MiB (95%)
Writing library : x264 core 142
Encoding settings : cabac=1 / ref=6 / deblock=1:1:1 / analyse=0x3:0x113 / me=umh / subme=8 / psy=1 / psy_rd=0.40:0.00 / mixed_ref=1 / me_range=16 / chroma_me=1 / trellis=1 / 8x8dct=1 / cqm=0 / deadzone=21,11 / fast_pskip=1 / chroma_qp_offset=-2 / threads=10 / lookahead_threads=1 / sliced_threads=0 / nr=0 / decimate=1 / interlaced=0 / bluray_compat=0 / constrained_intra=0 / bframes=3 / b_pyramid=2 / b_adapt=2 / b_bias=0 / direct=3 / weightb=1 / open_gop=0 / weightp=2 / keyint=9999999 / keyint_min=5000000 / scenecut=0 / intra_refresh=0 / rc_lookahead=50 / rc=crf / mbtree=1 / crf=15.0 / qcomp=0.60 / qpmin=0 / qpmax=69 / qpstep=4 / vbv_maxrate=4000 / vbv_bufsize=6000 / crf_max=0.0 / nal_hrd=none / filler=0 / ip_ratio=1.40 / aq=1:0.60
Default : Yes
Forced : No

Audio
ID : 2
Format : AAC
Format/Info : Advanced Audio Codec
Format profile : LC
Codec ID : A_AAC
Duration : 23 min 40 s
Bit rate : 128 kb/s
Channel(s) : 2 channels
Channel positions : Front: L R
Sampling rate : 44.1 kHz
Frame rate : 43.066 FPS (1024 SPF)
Compression mode : Lossy
Delay relative to video : -83 ms
Stream size : 21.7 MiB (4%)
Default : Yes
Forced : No

Text #1
ID : 3
Format : ASS
Codec ID : S_TEXT/ASS
Codec ID/Info : Advanced Sub Station Alpha
Duration : 20 min 44 s
Bit rate : 131 b/s
Count of elements : 304
Compression mode : Lossless
Stream size : 19.9 KiB (0%)
Title : English(US)
Language : English
Default : Yes
Forced : No

Text #2
ID : 4
Format : ASS
Codec ID : S_TEXT/ASS
Codec ID/Info : Advanced Sub Station Alpha
Duration : 20 min 44 s
Bit rate : 115 b/s
Count of elements : 295
Compression mode : Lossless
Stream size : 17.6 KiB (0%)
Title : Espanol
Language : Spanish
Default : No
Forced : No

Text #3
ID : 5
Format : ASS
Codec ID : S_TEXT/ASS
Codec ID/Info : Advanced Sub Station Alpha
Duration : 20 min 44 s
Bit rate : 130 b/s
Count of elements : 304
Compression mode : Lossless
Stream size : 19.8 KiB (0%)
Title : Portugues(Brasil)
Language : Portuguese
Default : No
Forced : No
 
1. Жестококсть / Cruelty
2. Тренер Саконджи Урокодаки / Trainer Sakonji Urokodaki
3. Сабито и Макомо / Sabito and Makomo
4. Последний отбор / Final Selection
5. Моя собственная сталь / My Own Steel
6. Мечник, сопровождающий демона / Swordsman Accompanying a Demon
7. Мудзан Кибуцуджи / Muzan Kibutsuji
8. Запах чарующей крови / The Smell of Enchanting Blood
9. Демон темари и демон стрелок / Temari Demon and Arrow Demon
10. Вместе навсегда / Together Forever
11. Поместье Цузуми / Tsuzumi Mansion
12. Кабан обнажает клыки, Зеницу спит / The Boar Bares Its Fangs, Zenitsu Sleeps
13. Нечто важнее жизни / Something More Important Than Life
14. Дом с гербом глицинии / The House with the Wisteria Family Crest
15. Гора Натагумо / Mount Natagumo
16. Пропуская другого вперед / Letting Someone Else Go First
17. Ты должен отточить что-то одно / You Must Master a Single Thing
18. Поддельная связь / A Forged Bond
19. Бог огня / Hinokami
20. Притворяясь семьёй / Pretend Family
21. Против правил организации / Against Corps Rules
22. Господин Ояката / Master of the Mansion
23. Собрание столпов / Hashira Meeting
24. Реабилитационная тренировка / Rehabilitation Training
25. Наследница Цуюри Канао / Tsuguko, Kanao Tsuyuri
26. Новая миссия / New Mission

info [Профиль]  [ЛС] 

FalledPerson

Пол: Пол:Муж

Стаж: 9 лет

Сообщений: 75

Россия
Рейтинг

post 19-Май-2019 00:18 (спустя 6 дней) [-]0[+]

[Цитировать] 

Добавлен 7-й эп.
info [Профиль]  [ЛС] 

monteki92

Пол: Пол:Муж

Стаж: 7 лет 5 месяцев

Сообщений: 394

Предупреждений: 1

Рейтинг

post 19-Май-2019 18:03 (спустя 17 часов) [-]3[+]

[Цитировать] 

На удивление, довольно годное аниме. Вроде как и присущи штампы, но они вообще не напрягают. Смотрится с интересом и легко довольно. Графон - есть, кровь - есть, анимации крутые - есть, экшон - есть, сюжет вполне логично понятен и есть конечная цель, запланировано 26 эпиздов а не 14142525 - тоже несомненный плюс, японская аунтентичность, вплоть до масок - есть. Для меня смотрится интереснее, чем то же Дороро

_________________
Если школьницам не продают бухло и сигареты,
Я беру свой паспорт и спешу на помощь этим детям.
Пейте, леди, пока не видят мама и папа,
И где же был Тесак, пока я их лапал?
info [Профиль]  [ЛС] 

FalledPerson

Пол: Пол:Муж

Стаж: 9 лет

Сообщений: 75

Россия
Рейтинг

post 30-Июн-2019 12:57 (спустя 1 месяц 10 дней) [-]0[+]

[Цитировать] 

Добавил 13-й эп.
info [Профиль]  [ЛС] 

FalledPerson

Пол: Пол:Муж

Стаж: 9 лет

Сообщений: 75

Россия
Рейтинг

post 21-Июл-2019 10:02 (спустя 20 дней) [-]0[+]

[Цитировать] 

Добавил 16-й эпизод.
info [Профиль]  [ЛС] 

franck

Пол: Пол:Муж

Стаж: 9 лет

Сообщений: 199

Украина
Рейтинг

post 19-Авг-2019 21:40 (спустя 29 дней) [-]0[+]

[Цитировать] 

Большое спасибо за аниме, в особенности за столь шикарную озвучку, прям бомба anime_19

_________________
info [Профиль]  [ЛС] 
Показать сообщения:    
Ответить на тему

Текущее время: 15-Окт 09:01

Часовой пояс: GMT + 4



Вы не можете начинать темы
Вы не можете отвечать на сообщения
Вы не можете редактировать свои сообщения
Вы не можете удалять свои сообщения
Вы не можете голосовать в опросах
Вы не можете прикреплять файлы к сообщениям
Вы не можете скачивать файлы