Ошибка

Знаменитый детектив Конан / Meitantei Conan [TV] [1-6 из >887+] [Без хардсаба] [JAP+SUB] [1996, детектив, комедия, драма, сёнэн, DVDRip]+[HDTVRip-Remastered]

Ответить на тему
 
Автор Сообщение

ShinkaDan

Стаж: 4 года 3 месяца

Сообщений: 63

Россия
Рейтинг

post 01-Янв-2019 01:29 1[+]

[Цитировать] 



Знаменитый детектив Конан / Meitantei Conan


Страна: Япония
Выходит: c 08.01.1996
Жанр: детектив, комедия, драма, сёнэн
Тип: TV
Продолжительность: 25 мин. в 19:30 [вечерний сеанс] на NTV
Режиссер: Кодама Кэндзи
Автор оригинала: Аояма Госё
Студия:
Озвучка: нет
Русские субтитры: Софтсаб (ShinkaDan)
- Перевод с японского: AnjiJa
- Редакция, тайминг, оформление: Natan


Описание:
Известный всей стране детектив-старшеклассник Кудо́о Шин'ичи раскрыл множество загадочных преступлений и добился определённой популярности. Однажды он отправляется в парк развлечений вместе со своей подругой детства Моо́ри Ран. Естественно на его глазах происходит убийство, и знаменитый детектив, засучив рукава, в великолепном стиле его раскрывает. Но вот незадача, сунув свой любопытный нос в чьи-то тёмные дела, он попадает в непростую ситуацию: парни из загадочной организации дают Кудо́о Шин'ичи ядовитый препарат и наш герой становится маленьким. Что же ему делать, Ран? Конечно же, продолжать раскрывать дела, ведь пусть теперь он и маленький, разумом всё тот же - знаменитый детектив, для которого не существует загадок! © Natan

Дополнительная информация:
Видео используем на данный момент самое лучшее из имеющегося. Учитывая качество ДВД-исходника, есть предположение, что в основе реставрация. В любом случае благодарим автора рипа NAOKI-Raws за труды.
Основные равки:
Качество: DVDRip
Тип релиза: Без хардсаба
Формат видео: MKV
Автор рипа: NAOKI-Raws
Видео: x264 (AVC High@L4.1), 8bits, 832x624 (4:3), ~1 174 Kbps, 23.976 fps
1. Японский: AC3, 48000Hz, ~192 Kbps, 2ch, 16 bits, в составе контейнера.
+
2. Субтитры: Русский внешний софтсаб.
General
Unique ID : 240812933687738893406936701236093799570 (0xB52AE24DB9B37DD59EF0A2E4BCC24C92)
Complete name : L:\...\[ShinkaDan] Знаменитый детектив Конан\[ShinkaDan] Знаменитый детектив Конан\Знаменитый детектив Конан (1 сезон) 1-30\[NAOKI-Raws] Detective Conan - Ep.001 (DVDRip x264 AC3 Chap).mkv
Format : Matroska
Format version : Version 4 / Version 2
File size : 246 MiB
Duration : 24mn 42s
Overall bit rate : 1 394 Kbps
Encoded date : UTC 2015-04-11 02:55:06
Writing application : mkvmerge v6.3.0 ('You can't stop me!') built on Jun 28 2013 20:09:41
Writing library : libebml v1.3.0 + libmatroska v1.4.0

Video
ID : 1
Format : AVC
Format/Info : Advanced Video Codec
Format profile : High@L4.1
Format settings, CABAC : Yes
Format settings, ReFrames : 6 frames
Codec ID : V_MPEG4/ISO/AVC
Duration : 24mn 42s
Bit rate : 1 174 Kbps
Width : 832 pixels
Height : 624 pixels
Display aspect ratio : 4:3
Frame rate mode : Constant
Frame rate : 23.976 fps
Color space : YUV
Chroma subsampling : 4:2:0
Bit depth : 8 bits
Scan type : Progressive
Bits/(Pixel*Frame) : 0.094
Stream size : 208 MiB (84%)
Writing library : x264 core 144 r2525bm 40bb568
Encoding settings : cabac=1 / ref=6 / deblock=1:1:1 / analyse=0x3:0x133 / me=umh / subme=9 / psy=1 / psy_rd=0.40:0.00 / mixed_ref=1 / me_range=24 / chroma_me=1 / trellis=1 / 8x8dct=1 / cqm=0 / deadzone=21,11 / fast_pskip=0 / chroma_qp_offset=-2 / threads=6 / lookahead_threads=1 / sliced_threads=0 / nr=0 / decimate=1 / interlaced=0 / bluray_compat=0 / constrained_intra=0 / bframes=3 / b_pyramid=2 / b_adapt=2 / b_bias=0 / direct=3 / weightb=1 / open_gop=0 / weightp=2 / keyint=250 / keyint_min=23 / scenecut=40 / intra_refresh=0 / rc=cqp / mbtree=0 / qp=20 / ip_ratio=1.40 / pb_ratio=1.30 / aq=0
Default : Yes
Forced : No

Audio
ID : 2
Format : AC-3
Format/Info : Audio Coding 3
Mode extension : CM (complete main)
Format settings, Endianness : Big
Codec ID : A_AC3
Duration : 24mn 42s
Bit rate mode : Constant
Bit rate : 192 Kbps
Channel count : 2 channels
Channel positions : Front: L R
Sampling rate : 48.0 KHz
Bit depth : 16 bits
Compression mode : Lossy
Stream size : 33.9 MiB (14%)
Default : Yes
Forced : No

Menu
00:00:00.000 : en:Chapter 1
00:01:44.801 : en:Chapter 2
00:15:52.868 : en:Chapter 3
00:21:52.135 : en:Chapter 4
00:23:59.869 : en:Chapter 5
1 сезон (1-30 серии)
01. Убийство на американских горках
02. Дело о похищении дочурки президента компании
03. Дело об убийстве в запертой квартире знаменитости
04. Дело о зашифрованной карте мегаполиса
05. Дело о мощном взрыве на "поезде-пуле"
06. Дело об убийстве в День святого Валентина
07. Дело о подарках каждый месяц и письме с угрозой
08. Дело об убийстве владельца музея
09. Дело об убийстве во время ночного фестиваля "Самый лучший под небом"
10. Дело о шантаже профессионального футболиста
11. Дело об убийствах: соната для фортепиано "Лунный свет" (Часовой спешл)
12. Дело о похищении Аюми-чан
...
#01 Детектив Конан [ТВ] - ТВ (>887 эп.), адаптация манги, 1996 | DVDRip
#02 Детектив Конан (фильм 01) - п/ф, дополнение, 1997
#03 Детектив Конан (фильм 02) - п/ф, дополнение, 1998
#04 Детектив Конан (фильм 03) - п/ф, дополнение, 1999
#05 Детектив Конан (фильм 04) - п/ф, дополнение, 2000
#06 Детектив Конан OVA-1 - OVA (1 эп.), дополнение, 2000
#07 Детектив Конан (фильм 05) - п/ф, дополнение, 2001
#08 Детектив Конан (фильм 06) - п/ф, дополнение, 2002
#09 Детектив Конан OVA-2 - OVA (1 эп.), дополнение, 2002
#10 Детектив Конан (фильм 07) - п/ф, дополнение, 2003
#11 Детектив Конан OVA-3 - OVA (1 эп.), дополнение, 2003
#12 Детектив Конан (фильм 08) - п/ф, дополнение, 2004
#13 Детектив Конан OVA-4 - OVA (1 эп.), дополнение, 2004
#14 Детектив Конан (фильм 09) - п/ф, дополнение, 2005
#15 Детектив Конан OVA-5 - OVA (1 эп.), дополнение, 2005
#16 Meitantei Conan: Conan vs Kid - Shark & Jewel - к/ф, дополнение, 2005
#17 Детектив Конан OVA-6 - OVA (1 эп.), дополнение, 2006
#18 Детектив Конан (фильм 10) - п/ф, дополнение, 2006
#19 Meitantei Conan: Conan vs Kid - Shikkoku no Sniper - к/ф, дополнение, 2006
#20 Детектив Конан OVA-7 - OVA (1 эп.), дополнение, 2007
#21 Детектив Конан (фильм 11) - п/ф, дополнение, 2007
#22 Meitantei Conan Magic File - OVA (1 эп.), нарезка ТВ-сериала, 2007
#23 Детектив Конан OVA-8 - OVA (1 эп.), дополнение, 2008
#24 Детектив Конан (фильм 12) - п/ф, дополнение, 2008
#25 Meitantei Conan Magic File 2 - OVA (1 эп.), дополнение, 2008
#26 Детектив Конан (фильм 13) - п/ф, дополнение, 2009
#27 Meitantei Conan Magic File 3 - OVA (1 эп.), дополнение, 2009
#28 Детектив Конан OVA-9 - OVA (1 эп.), дополнение, 2009
#29 Детектив Конан (фильм 14) - п/ф, дополнение, 2010
#30 Meitantei Conan Magic File 4 - OVA (1 эп.), дополнение, 2010
#31 Детектив Конан OVA-10 - OVA (1 эп.), дополнение, 2010
#32 Детектив Конан (фильм 15) - п/ф, дополнение, 2011
#33 Detective Conan Magic File 2011 - OVA (1 эп.), дополнение, 2011
#34 Детектив Конан OVA-11 - OVA (1 эп.), дополнение, 2011
#35 Meitantei Conan vs. Wooo - Web (2 эп.), дополнение, 2011
#36 Детектив Конан (фильм 16) - п/ф, дополнение, 2012
#37 Meitantei Conan Bonus File: Fantasista no Hana - OVA (1 эп.), дополнение, 2012
#38 Детектив Конан OVA-12 - OVA (1 эп.), дополнение, 2012
#39 Детектив Конан (фильм 17) - п/ф, дополнение, 2013
#40 Знаменитый детектив Конан: Загадка снайпера (Фильм 18) (Meitantei Conan: Ijigen no Sniper) - п/ф, дополнение, 2014
1080p | 720p
#41 Знаменитый детектив Конан: Дело об исчезновении Эдогавы Конана / Edogawa Conan Shissou Jiken: Shijou Saiaku no Futsukakan - ТВ-спэшл, дополнение, 2014 1080p | 720p
#42 Знаменитый детектив Конан: Подсолнухи инферно (Фильм 19) (Meitantei Conan: Gouka no Himawari) - п/ф, дополнение, 2015 1080p | 720p
#43 Знаменитый детектив Конан: Кромешный ужас (Фильм 20) (Meitantei Conan: Junkoku no Nightmare) - п/ф, дополнение, 2016 1080p | 720p
#44 Знаменитый детектив Конан: Багровое любовное письмо (Фильм 21) (Meitantei Conan: Kara Kurenai no Love Letter) - п/ф, дополнение, 2017 1080p | 720p
#45 Знаменитый детектив Конан (Эпизод первый): Знаменитый детектив, который стал маленьким (Meitantei Conan: Episode One - Chiisaku Natta Meitantei) - ТВ-спэшл (1 эп.), ремейк первого эпизода ТВ-сериала, 2016 1080p | 720p
#46 Детектив Конан (фильм 22) - п/ф, дополнение, 2018
#47 Детектив Конан (фильм 23) - п/ф, дополнение, 2019
В переводе участвовало и участвует множество переводчиков, потому буду по мере выхода новых серий, добавлять их под спойлер. Основной переводчик с японского AnjiJa. Редакция, тайминг и оформление: Natan

Помощь в переводе оказывали:
Помощь с кандзи и перевод с японского: AnTen, Yucca, Origa, Tess
Над переводом серий с английского работали: Tami, Weissehexe, Usonsha, Mary, Raduga, Jemma, Archisus, Ume, Digemini, Yúcca, Melifisto, Alice_M...
Помощь с китайским: Raduga

Remastered-равки (Качества HDTVRip) на отдельные серии:

Качество: HDTVRip
Тип релиза: Без хардсаба
Формат видео: MP4
Авторы рипа: [모에-Raws]
Видео: x264 (AVC High@L4.1), 8bits, 1280x720 (4:3), ~4 203 Kbps, 23.976 fps
1. Японский: AAC, 48000Hz, ~167 Kbps, 2ch, в составе контейнера.
K:\...\[ShinkaDan] Знаменитый детектив Конан [Сериал]\Знаменитый детектив Конан (Remastered)\[모에-Raws] Detective Conan #005 Remastered (YTV 1280x720 x264 AAC).mp4
Формат : MPEG-4
Профиль формата : Base Media
Идентификатор кодека : isom (isom)
Размер файла : 772 Мбайт
Продолжительность : 24 м. 39 с.
Режим общего битрейта : Переменный
Общий поток : 4374 Кбит/сек
Дата кодирования : UTC 2016-12-03 12:02:50
Дата пометки : UTC 2016-12-03 12:02:50

Видео
Идентификатор : 1
Формат : AVC
Формат/Информация : Advanced Video Codec
Профиль формата : High@L4.1
Настройки формата : CABAC / 6 Ref Frames
Параметр CABAC формата : Да
Параметр RefFrames формата : 6 кадров
Идентификатор кодека : avc1
Идентификатор кодека/Информация : Advanced Video Coding
Продолжительность : 24 м. 39 с.
Битрейт : 4203 Кбит/сек
Максимальный битрейт : 10,6 Мбит/сек
Ширина : 1280 пикселей
Высота : 720 пикселей
Соотношение сторон : 16:9
Режим частоты кадров : Постоянный
Частота кадров : 23,976 (24000/1001) кадра/сек
Цветовое пространство : YUV
Субдискретизация насыщенности : 4:2:0
Битовая глубина : 8 бит
Тип развёртки : Прогрессивная
Бит/(Пиксели*Кадры) : 0.190
Размер потока : 741 Мбайт (96%)
Библиотека кодирования : x264 core 140 r2377+40 929f149 tMod [8-bit@all X86_64]
Настройки программы : cabac=1 / ref=6 / deblock=1:1:-1 / analyse=0x3:0x113 / me=umh / subme=9 / psy=1 / fade_compensate=0.00 / psy_rd=1.00:0.00 / mixed_ref=1 / me_range=32 / chroma_me=1 / trellis=2 / 8x8dct=1 / cqm=0 / deadzone=21,11 / fast_pskip=1 / chroma_qp_offset=-2 / threads=16 / lookahead_threads=2 / sliced_threads=0 / nr=0 / decimate=1 / interlaced=0 / bluray_compat=0 / constrained_intra=0 / fgo=0 / bframes=9 / b_pyramid=2 / b_adapt=2 / b_bias=0 / direct=3 / weightb=1 / open_gop=0 / weightp=2 / keyint=240 / keyint_min=24 / scenecut=40 / intra_refresh=0 / rc=crf / mbtree=0 / crf=19.0000 / qcomp=0.70 / qpmin=0:0:0 / qpmax=69:69:69 / qpstep=4 / ip_ratio=1.40 / pb_ratio=1.30 / aq=1:0.85 / aq-sensitivity=10.00 / aq-factor=1.00:1.00:1.00 / aq2=0 / aq3=0
Дата кодирования : UTC 2016-12-03 12:00:27
Дата пометки : UTC 2016-12-03 12:02:51
Codec configuration box : avcC

Аудио
Идентификатор : 2
Формат : AAC LC
Формат/Информация : Advanced Audio Codec Low Complexity
Идентификатор кодека : mp4a-40-2
Продолжительность : 24 м. 39 с.
Вид битрейта : Переменный
Битрейт : 167 Кбит/сек
Максимальный битрейт : 200 Кбит/сек
Каналы : 2 канала
Channel layout : L R
Частота : 48,0 КГц
Частота кадров : 46,875 кадров/сек (1024 SPF)
Метод сжатия : С потерями
Размер потока : 29,5 Мбайт (4%)
Дата кодирования : UTC 2016-12-03 12:01:44
Дата пометки : UTC 2016-12-03 12:02:51

Меню
00:00:00.000 : Start
00:00:19.061 : OP
00:01:59.077 : Sponsor
00:02:13.925 : A-part
00:12:27.830 : B-part
00:21:33.626 : Present & ED & Next Story
00:23:08.679 : C-part
00:23:59.688 : Sponsor
00:24:14.662 : Next Conan's Hint
00:24:19.667 : Ending Card
00:24:24.713 : Detective Conan 2-hour Special CM
00:24:39.687 : End
05. Дело о мощном взрыве на "поезде-пуле"
08. Дело об убийстве владельца музея
09. Дело об убийстве во время ночного фестиваля "Самый лучший под небом"
12. Дело о похищении Аюми-чан
...
info [Профиль]  [ЛС] 

Wahorezko

Пол: Пол:Муж

Стаж: 9 лет 6 месяцев

Сообщений: 760

Предупреждений: 1

Россия
Рейтинг

post 11-Янв-2019 11:44 (спустя 10 дней) [-]-9[+]

[Цитировать] 

какая мерзкая морда у этого мелкого, прям требует порки вне очереди)
info [Профиль]  [ЛС] 

ShinkaDan

Стаж: 4 года 3 месяца

Сообщений: 63

Россия
Рейтинг

post 12-Янв-2019 16:51 (спустя 1 день 5 часов) [-]0[+]

[Цитировать] 

Смотрите, как бы за порку малолетних в тюрьму не сесть. Будет как раз дело kolob_108

_________________
info [Профиль]  [ЛС] 

SEVER

Стаж: 7 лет 8 месяцев

Сообщений: 1335

Рейтинг

post 14-Янв-2019 19:28 (спустя 2 дня 2 часа) [-]0[+]

[Цитировать] 

Вроде веселая анимешка, посмеян, когда он во второй серии на собаке поскакал anime_22

_________________
Inter core i5 4670k, rx570 8gb, 8 gb ram
info [Профиль]  [ЛС] 

ShinkaDan

Стаж: 4 года 3 месяца

Сообщений: 63

Россия
Рейтинг

post 27-Янв-2019 16:25 (спустя 12 дней) [-]1[+]

[Цитировать] 

Раздача обновлена
Добавлена 3 серия

_________________
info [Профиль]  [ЛС] 

Witcher

Пол: Пол:Муж

Стаж: 9 лет

Сообщений: 6367

Рейтинг

post 27-Янв-2019 20:15 (спустя 3 часа) [-]1[+]

[Цитировать] 

Тему закрепил. Спасибо за релиз)

_________________
Темы не проверяю, для этого есть модераторы.
info [Профиль]  [ЛС] 

ShinkaDan

Стаж: 4 года 3 месяца

Сообщений: 63

Россия
Рейтинг

post 09-Фев-2019 18:03 (спустя 12 дней) [-]1[+]

[Цитировать] 

Раздача обновлена
Добавлена 4 серия


Witcher, пожалуйста.
Будем медленно, но Step by Step пополнять раздачу новыми сериями))

_________________
info [Профиль]  [ЛС] 

ShinkaDan

Стаж: 4 года 3 месяца

Сообщений: 63

Россия
Рейтинг

post 23-Фев-2019 15:42 (спустя 13 дней) [-]1[+]

[Цитировать] 

Раздача обновлена
Добавлена 5 серия в HDTV-ремастеринге


P.S.: 5 серия в DVD-качестве выложим одновременно с 6 серией 8 марта. Приятного просмотра!

_________________
info [Профиль]  [ЛС] 

shimerasi

Пол: Пол:Муж

Стаж: 4 месяца 2 дня

Сообщений: 47

СССР
Рейтинг

post 23-Фев-2019 18:12 (спустя 2 часа 30 минут) [-]0[+]

[Цитировать] 

Большое спасибо. Надеюсь, что до конца сделаете!
info [Профиль]  [ЛС] 

ShinkaDan

Стаж: 4 года 3 месяца

Сообщений: 63

Россия
Рейтинг

post 09-Мар-2019 16:56 (спустя 13 дней) [-]0[+]

[Цитировать] 

Раздача обновлена
Добавлена 5-6 серия в DVD-качестве


P.S.: shimerasi, спасибо. Любая дружеская поддержка нам в помощь)

_________________
info [Профиль]  [ЛС] 
Показать сообщения:    
Ответить на тему

Текущее время: 20-Мар 05:57

Часовой пояс: GMT + 4



Вы не можете начинать темы
Вы не можете отвечать на сообщения
Вы не можете редактировать свои сообщения
Вы не можете удалять свои сообщения
Вы не можете голосовать в опросах
Вы не можете прикреплять файлы к сообщениям
Вы не можете скачивать файлы