Ошибка

Насекомые / Крохи / Minuscule (Томас Забо / Thomas Szabo, Хелен Жиро / Helene Giraud) [2006, комедия, мультфильм, DVDRip-AVC]

Ответить на тему
 
Автор Сообщение

Skazhutin

Пол: Пол:Муж

Стаж: 6 лет 11 месяцев

Сообщений: 53

СССР
Рейтинг

post 02-Янв-2010 11:04 0[+]

[Цитировать] 

Насекомые / Крохи / Minuscule

pic="http://s39.radikal.ru/i085/1001/6c/abdf18619794.jpg"


Год выпуска: 2006
Страна: Франция
Жанр: комедия, мультфильм
Продолжительность: 07:19:27
Перевод: Не требуется
Cубтитры: нет

Режиссер: Хелен Жиро, Томас Забо
Сценарий: Хелен Жиро, Томас Забо
Продюсер: Жан-Жак Бенаму, Филипп Делару
Описание: Если Вы всё ещё не слышали об этом произведении - Вы многое потеряли. Это коротенькие истории о трудной, противоречивой жизни насекомых. Жизни, так похожей на нашу.
Рейтинг:
kinopoisk.ru: 8.355 (634)
imdb.com: 8.50 (316)
Качество: DVDRip (4xDVD9)
Формат: Matroska
Видеокодек: AVC
Аудиокодек: AC3
Видео: 716x572 (4/3); ~2400 Kbps; 25 fps
Аудио: French; AC3; 2ch; 48Hz; CBR; 192 Kbps
General
Complete name : D:\video\tRuAVC\Minuscule\74. la horde sauvage.mkv
Format : Matroska
File size : 108 MiB
Duration : 5mn 35s
Overall bit rate : 2 707 Kbps
Encoded date : UTC 2009-12-29 17:41:20
Writing application : mkvmerge v3.0.0 ('Hang up your Hang-Ups') built on Dec 12 2009 15:20:35
Writing library : libebml v0.7.9 + libmatroska v0.8.1
Cover : Yes

Video
ID : 1
Format : AVC
Format/Info : Advanced Video Codec
Format profile : High@L4.0
Format settings, CABAC : Yes
Format settings, ReFrames : 15 frames
Muxing mode : Container profile=Unknown@4.0
Codec ID : V_MPEG4/ISO/AVC
Duration : 5mn 35s
Bit rate : 2 461 Kbps
Nominal bit rate : 2 500 Kbps
Width : 716 pixels
Height : 572 pixels
Display aspect ratio : 4:3
Frame rate : 25.000 fps
Resolution : 24 bits
Colorimetry : 4:2:0
Scan type : Progressive
Bits/(Pixel*Frame) : 0.240
Stream size : 98.5 MiB (91%)
Writing library : x264 core 80 r1376 3feaec2
Encoding settings : cabac=1 / ref=15 / deblock=1:-2:-1 / analyse=0x3:0x113 / me=umh / subme=10 / psy=1 / psy_rd=1.0:0.0 / mixed_ref=1 / me_range=24 / chroma_me=1 / trellis=2 / 8x8dct=1 / cqm=0 / deadzone=21,11 / fast_pskip=1 / chroma_qp_offset=-2 / threads=6 / sliced_threads=0 / nr=0 / decimate=0 / mbaff=0 / constrained_intra=0 / bframes=7 / b_pyramid=2 / b_adapt=2 / b_bias=0 / direct=3 / wpredb=1 / wpredp=2 / keyint=250 / keyint_min=25 / scenecut=45 / rc_lookahead=60 / rc=2pass / mbtree=1 / bitrate=2500 / ratetol=1.0 / qcomp=0.65 / qpmin=10 / qpmax=51 / qpstep=4 / cplxblur=20.0 / qblur=0.5 / ip_ratio=1.40 / aq=1:1.00
Language : French
Matrix coefficients : BT.470-6 System B, BT.470-6 System G, BT.601-6 625, BT.1358 625, BT.1700 625 PAL, BT.1700 625 SECAM, IEC 61966-2-4 601

Audio
ID : 2
Format : AC-3
Format/Info : Audio Coding 3
Codec ID : A_AC3
Duration : 5mn 35s
Bit rate mode : Constant
Bit rate : 192 Kbps
Channel(s) : 2 channels
Channel positions : L R
Sampling rate : 48.0 KHz
Stream size : 7.68 MiB (7%)
Language : French


Релиз от группы
info [Профиль]  [ЛС] 

VlaStep

Пол: Пол:Муж

Стаж: 7 лет 3 месяца

Сообщений: 5

Предупреждений: 1

Россия
Рейтинг

post 02-Янв-2010 16:47 (спустя 5 часов) [-]0[+]

[Цитировать] 

Ну что ж, посмотрим. Отзывы вроде хорошие (на других трекерах).
ПыСы: Буду первый!
ПыПыСы: Прикольные мульты!!! Кто не смотрел - советую взглянуть.
info [Профиль]  [ЛС] 

Kamrad65

Пол: Пол:Муж

Стаж: 7 лет 3 месяца

Сообщений: 285

Предупреждений: 1

Россия
Рейтинг

post 13-Янв-2010 17:15 (спустя 11 дней) [-]0[+]

[Цитировать] 

По 2х2 видел - очень веселые Улыбаюсь

_________________
MS Windows XP Professional SP3, Intel Core2 Duo CPU E6550 @ 2.33 GHz, 2,0GB RAM, NVIDIA GeForce 8600 GTS.
PSP Slim :: FirmWare - 5.50 GEN-D2
info [Профиль]  [ЛС] 

stalkerwolf

Пол: Пол:Муж

Стаж: 7 лет 2 месяца

Сообщений: 136

СССР
Рейтинг

post 13-Янв-2010 18:22 (спустя 1 час 6 минут) [-]0[+]

[Цитировать] 

солглашуся и смотреть желательно в компание)))
info [Профиль]  [ЛС] 

Kamrad65

Пол: Пол:Муж

Стаж: 7 лет 3 месяца

Сообщений: 285

Предупреждений: 1

Россия
Рейтинг

post 13-Янв-2010 19:06 (спустя 44 минуты) [-]0[+]

[Цитировать] 

stalkerwolf
Смотреть вообще почти всегда желательно в компании Улыбаюсь.

_________________
MS Windows XP Professional SP3, Intel Core2 Duo CPU E6550 @ 2.33 GHz, 2,0GB RAM, NVIDIA GeForce 8600 GTS.
PSP Slim :: FirmWare - 5.50 GEN-D2
info [Профиль]  [ЛС] 

Shelest737

Стаж: 7 лет 8 месяцев

Сообщений: 36

Рейтинг

post 13-Янв-2010 22:57 (спустя 3 часа) [-]0[+]

[Цитировать] 

спасибо, качну Улыбаюсь
info [Профиль]  [ЛС] 

adod

Пол: Пол:Муж

Стаж: 7 лет 1 месяц

Сообщений: 46

СССР
Рейтинг

post 18-Апр-2010 10:06 (спустя 3 месяца 4 дня) [-]0[+]

[Цитировать] 

сиды поддержите !
info [Профиль]  [ЛС] 

Ильгиз16

Пол: Пол:Муж

Стаж: 6 лет 6 месяцев

Сообщений: 109

Предупреждений: 1

Россия
Рейтинг

post 02-Авг-2011 14:23 (спустя 1 год 3 месяца) [-]0[+]

[Цитировать] 

Поддержу раздачу
info [Профиль]  [ЛС] 
Показать сообщения:    
Ответить на тему

Текущее время: 04-Дек 01:50

Часовой пояс: GMT + 4



Вы не можете начинать темы
Вы не можете отвечать на сообщения
Вы не можете редактировать свои сообщения
Вы не можете удалять свои сообщения
Вы не можете голосовать в опросах
Вы не можете прикреплять файлы к сообщениям
Вы не можете скачивать файлы