Ошибка

Последний беспредел / Autoreiji saishusho (Такеши Китано) [2017, драма, криминал, BDRip 1080p] MVO | iTunes

Ответить на тему
 
Автор Сообщение

DENZEL519

Пол: Пол:Муж

Стаж: 7 лет 8 месяцев

Сообщений: 2634

Лаос
Рейтинг

post 18-Окт-2018 00:21 2[+]

[Цитировать] 

Последний беспредел / Autoreiji saishusho
«All out of control»

Год выпуска: 2017
Страна: Япония
Жанр: драма, криминал
Продолжительность: 01:44:45
Перевод: Профессиональный многоголосый [iTunes]
Субтитры: Русские, английские
Режиссер: Такеши Китано
Сценарий: Такеши Китано
Продюсер: Масаюки Мори
Оператор: Кацуми Янагисима
Композитор: Кэйити Судзуки
Монтаж: Такеши Китано, Ёсинори Ота
В ролях: Такеши Китано (Otomo), Тосиюки Нисида , Тацуо Надака , Кэн Мицуиси , Хакурю , Икудзи Накамура , Сансэй Сиоми , Ютака Мацусигэ , Кандзи Цуда (Choi), Рен Осуги (Nomura), Таидзо Харада , Хиро Хонда (Chang's Business Assistant)



Описание: После уничтожения синдиката Санно семьей Ханабиси ветеран Отомо осел на корейском острове Чеджу под защитой мистера Чана. Присматривает за отелями и борделями, ходит на рыбалку. Однажды якудза семьи Ханабиси плохо обходится с его работницами и оскорбительно себя ведёт. А вместо компенсации ущерба убивает помощника Отомо. Конфликтом решает воспользоваться заместитель главы синдиката Ханабиси, чтобы захватить власть и истребить конкурентов.


Качество: BDRip 1080p
Формат: MKV
Видео кодек: AVC
Аудио кодек: AC3
Видео: 1920x804 (2.40:1), 23.976 fps, AVC, 9 570 Kbps
Аудио: Аудио #1: AC3, 384 Kbps, 48.0 KHz, 6 ch [Rus]
Аудио #2: AC3, 640 Kbps, 48.0 KHz, 6 ch [Jap]


Код:

General
Unique ID                                : 187282226720058526914220319953555990123 (0x8CE53EAE6F6104F48B76B173226AA66B)
Complete name                            : PoslednijBespredelBDRip1080p.mkv
Format                                   : Matroska
Format version                           : Version 4 / Version 2
File size                                : 7.75 GiB
Duration                                 : 1h 44mn
Overall bit rate                         : 10.6 Mbps
Encoded date                             : UTC 2018-10-17 09:21:21
Writing application                      : mkvmerge v9.5.0 ('Quiet Fire') 64bit
Writing library                          : libebml v1.3.4 + libmatroska v1.4.5
DURATION                                 : 01:40:29.530000000
NUMBER_OF_FRAMES                         : 1242
NUMBER_OF_BYTES                          : 61903
_STATISTICS_WRITING_APP                  : mkvmerge v9.5.0 ('Quiet Fire') 64bit
_STATISTICS_WRITING_DATE_UTC             : 2018-10-17 09:21:21
_STATISTICS_TAGS                         : BPS DURATION NUMBER_OF_FRAMES NUMBER_OF_BYTES

Video
ID                                       : 1
Format                                   : AVC
Format/Info                              : Advanced Video Codec
Format profile                           : High@L4.1
Format settings, CABAC                   : Yes
Format settings, ReFrames                : 5 frames
Codec ID                                 : V_MPEG4/ISO/AVC
Duration                                 : 1h 44mn
Bit rate                                 : 9 570 Kbps
Width                                    : 1 920 pixels
Height                                   : 804 pixels
Display aspect ratio                     : 2.40:1
Frame rate mode                          : Constant
Frame rate                               : 23.976 fps
Color space                              : YUV
Chroma subsampling                       : 4:2:0
Bit depth                                : 8 bits
Scan type                                : Progressive
Bits/(Pixel*Frame)                       : 0.259
Stream size                              : 6.84 GiB (88%)
Writing library                          : x264 core 155 r2901M 7d0ff22
Encoding settings                        : cabac=1 / ref=5 / deblock=1:-3:-3 / analyse=0x3:0x113 / me=umh / subme=11 / psy=1 / psy_rd=1.00:0.00 / mixed_ref=1 / me_range=48 / chroma_me=1 / trellis=2 / 8x8dct=1 / cqm=0 / deadzone=21,11 / fast_pskip=0 / chroma_qp_offset=-2 / threads=9 / lookahead_threads=2 / sliced_threads=0 / nr=0 / decimate=0 / interlaced=0 / bluray_compat=0 / constrained_intra=0 / bframes=12 / b_pyramid=2 / b_adapt=2 / b_bias=0 / direct=3 / weightb=1 / open_gop=0 / weightp=2 / keyint=240 / keyint_min=24 / scenecut=40 / intra_refresh=0 / rc_lookahead=120 / rc=2pass / mbtree=0 / bitrate=9570 / ratetol=1.0 / qcomp=0.70 / qpmin=0 / qpmax=69 / qpstep=4 / cplxblur=20.0 / qblur=0.5 / vbv_maxrate=50000 / vbv_bufsize=62500 / nal_hrd=none / filler=0 / ip_ratio=1.40 / pb_ratio=1.30 / aq=3:0.80
Language                                 : English
Default                                  : Yes
Forced                                   : No
DURATION                                 : 01:44:45.780000000
NUMBER_OF_FRAMES                         : 150708
NUMBER_OF_BYTES                          : 7512356999
_STATISTICS_WRITING_APP                  : mkvmerge v9.5.0 ('Quiet Fire') 64bit
_STATISTICS_WRITING_DATE_UTC             : 2018-10-17 09:21:21
_STATISTICS_TAGS                         : BPS DURATION NUMBER_OF_FRAMES NUMBER_OF_BYTES

Audio #1
ID                                       : 2
Format                                   : AC-3
Format/Info                              : Audio Coding 3
Mode extension                           : CM (complete main)
Format settings, Endianness              : Big
Codec ID                                 : A_AC3
Duration                                 : 1h 44mn
Bit rate mode                            : Constant
Bit rate                                 : 384 Kbps
Channel(s)                               : 6 channels
Channel positions                        : Front: L C R, Side: L R, LFE
Sampling rate                            : 48.0 KHz
Bit depth                                : 16 bits
Compression mode                         : Lossy
Stream size                              : 288 MiB (4%)
Language                                 : Russian
Default                                  : Yes
Forced                                   : No

Audio #2
ID                                       : 3
Format                                   : AC-3
Format/Info                              : Audio Coding 3
Mode extension                           : CM (complete main)
Format settings, Endianness              : Big
Codec ID                                 : A_AC3
Duration                                 : 1h 44mn
Bit rate mode                            : Constant
Bit rate                                 : 640 Kbps
Channel(s)                               : 6 channels
Channel positions                        : Front: L C R, Side: L R, LFE
Sampling rate                            : 48.0 KHz
Bit depth                                : 16 bits
Compression mode                         : Lossy
Stream size                              : 480 MiB (6%)
Language                                 : Japanese
Default                                  : No
Forced                                   : No

Text #1
ID                                       : 4
Format                                   : UTF-8
Codec ID                                 : S_TEXT/UTF8
Codec ID/Info                            : UTF-8 Plain Text
Language                                 : Russian
Default                                  : No
Forced                                   : No

Text #2
ID                                       : 5
Format                                   : UTF-8
Codec ID                                 : S_TEXT/UTF8
Codec ID/Info                            : UTF-8 Plain Text
Language                                 : English
Default                                  : No
Forced                                   : No

Menu
00:00:00.000                             : :Chapter 01
00:09:15.513                             : :Chapter 02
00:15:54.828                             : :Chapter 03
00:23:08.136                             : :Chapter 04
00:28:13.775                             : :Chapter 05
00:37:24.825                             : :Chapter 06
00:49:30.217                             : :Chapter 07
01:02:35.501                             : :Chapter 08
01:11:54.101                             : :Chapter 09
01:21:39.436                             : :Chapter 10
01:35:38.899                             : :Chapter 11
01:40:12.256                             : :Chapter 12

Сборы в мире: $11 974 433 сборы
Сборы в России: $8 763
Зрители: Россия 2 тыс.
Премьера (мир): 9 сентября 2017
Премьера (РФ): 23 августа 2018



© Оформление by DENZEL519 for http://tapochek.net

info [Профиль]  [ЛС] 

Умный Веник

Пол: Пол:Муж

Стаж: 9 лет 7 месяцев

Сообщений: 308

Украина
Рейтинг

post 18-Окт-2018 17:50 (спустя 17 часов) [-]1[+]

[Цитировать] 

Ещё и сам Бит Такеси в главной роли! Спасибо, как-то пропустил этот фильм Маэстро.

_________________
Я устал от бессмысленной свободы...
info [Профиль]  [ЛС] 

badhazar

Пол: Пол:Муж

Стаж: 9 лет 5 месяцев

Сообщений: 149

Россия
Рейтинг

post 18-Окт-2018 21:55 (спустя 4 часа) [-]1[+]

[Цитировать] 

Хорошее завершение трилогии.
info [Профиль]  [ЛС] 

mega33

Стаж: 7 лет 5 месяцев

Сообщений: 142

Рейтинг

post 19-Окт-2018 16:29 (спустя 18 часов) [-]0[+]

[Цитировать] 

badhazar
А первые две части как назывались?
info [Профиль]  [ЛС] 

Frostmorn

Пол: Пол:Муж

Стаж: 9 лет 2 месяца

Сообщений: 574

Чехия
Рейтинг

post 19-Окт-2018 16:51 (спустя 22 минуты) [-]4[+]

[Цитировать] 

mega33, достаточно оригинально и непредсказуемо Смеюсь Беспредел - 2010г и Полный беспредел - 2012г.
info [Профиль]  [ЛС] 

Eniken

Пол: Пол:Муж

Стаж: 7 лет 6 месяцев

Сообщений: 32

Россия
Рейтинг

post 29-Окт-2018 23:55 (спустя 10 дней) [-]-1[+]

[Цитировать] 

Унылое кино про старпёрякудзу.
info [Профиль]  [ЛС] 

SuperSirota

Стаж: 4 года 9 месяцев

Сообщений: 213

Россия
Рейтинг

post 30-Окт-2018 09:30 (спустя 9 часов) [-]-1[+]

[Цитировать] 

далеко не для всех.Я не оценил.
info [Профиль]  [ЛС] 
Показать сообщения:    
Ответить на тему

Текущее время: 24-Мар 14:09

Часовой пояс: GMT + 4



Вы не можете начинать темы
Вы не можете отвечать на сообщения
Вы не можете редактировать свои сообщения
Вы не можете удалять свои сообщения
Вы не можете голосовать в опросах
Вы не можете прикреплять файлы к сообщениям
Вы не можете скачивать файлы