Ошибка

Токийский гуль (ТВ-4) / Tokyo Ghoul:Re 2nd Season [TV] [1-10 из 12] [2018] [приключения, мистика, ужасы, сэйнэн] [WebRip] [1080p] [Профессиональный Zone Vision, JAP+SUB]

Ответить на тему
 
Автор Сообщение

Peter Rodgers

Пол: Пол:Муж

Стаж: 4 года

Сообщений: 10

Россия
Рейтинг

post 11-Окт-2018 11:11 0[+]

[Цитировать] 

Токийский гуль (ТВ-4) / Tokyo Ghoul:Re 2nd Season [TV]

Год выпуска: 2018
Жанр: приключения, мистика, ужасы, сэйнэн
Страна: Япония
Тип: TV
Продолжительность: 12 серий ~ 24 мин
Режиссер: Одахиро Ватанабэ
Студия: Studio Pierrot
Озвучка: Многоголосая закадровая (студия Zone Vision) (лицензия)

ОписаниеДолгое время в Токио продолжается война с весьма специфическим видом преступности. Гули давно уже стали настоящей проблемой, ведь это монстры в обличье человека, любой прохожий может оказаться зверем, который не прочь поживиться твоими внутренностями. О какой нормальной жизни в обществе может идти речь? По народной мудрости клин клином вышибает, поэтому для борьбы с чудовищами был создан отряд Куинксов, которым вживили способности гулей, что делает их идеальными противниками, способными противостоять недюжинным силам гулей.

Следователь Сасаки Хайсэ - главный в этом отряде, он неустанно борется с гулями. Но есть у него секрет. Сасаки не помнит своего прошлого, кем он был раньше, и чем занимался. У него есть лишь настоящее, в котором живут его друзья и коллеги. А прошлая его личность - это прекрасно известный нам Канеки. Несмотря на страх Сасаки перед своим прошлым, в конечном счёте он вспоминает всё, что с ним было, его предыдущая личность пробуждается и подавляет Сасаки. Поэтому в новом сезоне Токийского гуля нас ждёт долгожданная встреча со старым добрым знакомым.

Качество: WebRip
Формат: MKV
Видео: H.264, 3520 kb/s, 1920x1080, 8 bits, 23.976 fps
Аудио 1: Русский, AAC, 192 kb/s, 48.0 kHz, 2 channels
Аудио 2: Японский, AAC, 192 kb/s, 48.0 kHz, 2 channels
Субтитры: Русские, ASS, перевод SovetRomantica
Семпл

Обновление от 13.12.2018
Добавлена 10 серия.
 
General
Unique ID : 207214221199690765267655832366659227471 (0x9BE401E1C39AC7C6AB55F51372594F4F)
Complete name : D:\Anime\Tokyo.Ghoul.S04.H.264.2018.WEBRip\Tokyo.Ghoul.S04E01.H.264.2018.WEBRip.mkv
Format : Matroska
Format version : Version 4 / Version 2
File size : 674 MiB
Duration : 24 min 10 s
Overall bit rate : 3 901 kb/s
Encoded date : UTC 2018-10-11 12:36:52
Writing application : mkvmerge v13.0.0 ('The Juggler') 64bit
Writing library : libebml v1.3.4 + libmatroska v1.4.5

Video
ID : 1
Format : AVC
Format/Info : Advanced Video Codec
Format profile : High@L4
Format settings, CABAC : Yes
Format settings, ReFrames : 4 frames
Codec ID : V_MPEG4/ISO/AVC
Duration : 24 min 10 s
Bit rate : 3 520 kb/s
Width : 1 920 pixels
Height : 1 080 pixels
Display aspect ratio : 16:9
Frame rate mode : Constant
Frame rate : 23.976 (24000/1001) FPS
Color space : YUV
Chroma subsampling : 4:2:0
Bit depth : 8 bits
Scan type : Progressive
Bits/(Pixel*Frame) : 0.071
Stream size : 608 MiB (90%)
Writing library : x264 core 142
Encoding settings : cabac=1 / ref=4 / deblock=1:1:1 / analyse=0x3:0x113 / me=umh / subme=8 / psy=1 / psy_rd=0.40:0.00 / mixed_ref=1 / me_range=16 / chroma_me=1 / trellis=1 / 8x8dct=1 / cqm=0 / deadzone=21,11 / fast_pskip=1 / chroma_qp_offset=-2 / threads=12 / lookahead_threads=2 / sliced_threads=0 / nr=0 / decimate=1 / interlaced=0 / bluray_compat=0 / constrained_intra=0 / bframes=3 / b_pyramid=2 / b_adapt=2 / b_bias=0 / direct=3 / weightb=1 / open_gop=0 / weightp=2 / keyint=48 / keyint_min=25 / scenecut=0 / intra_refresh=0 / rc_lookahead=48 / rc=crf / mbtree=1 / crf=15.0 / qcomp=0.60 / qpmin=0 / qpmax=69 / qpstep=4 / vbv_maxrate=8000 / vbv_bufsize=12000 / crf_max=0.0 / nal_hrd=none / filler=0 / ip_ratio=1.40 / aq=1:0.60
Language : Japanese
Default : Yes
Forced : No

Audio #1
ID : 2
Format : AAC
Format/Info : Advanced Audio Codec
Format profile : LC
Codec ID : A_AAC
Duration : 24 min 10 s
Bit rate : 192 kb/s
Channel(s) : 2 channels
Channel positions : Front: L R
Sampling rate : 48.0 kHz
Frame rate : 46.875 FPS (1024 spf)
Compression mode : Lossy
Stream size : 32.7 MiB (5%)
Title : Zone Vision
Language : Russian
Default : Yes
Forced : No

Audio #2
ID : 3
Format : AAC
Format/Info : Advanced Audio Codec
Format profile : LC
Codec ID : A_AAC
Duration : 24 min 10 s
Bit rate : 192 kb/s
Channel(s) : 2 channels
Channel positions : Front: L R
Sampling rate : 48.0 kHz
Frame rate : 46.875 FPS (1024 spf)
Compression mode : Lossy
Stream size : 32.7 MiB (5%)
Title : Original
Language : Japanese
Default : No
Forced : No

Text
ID : 4
Format : ASS
Codec ID : S_TEXT/ASS
Codec ID/Info : Advanced Sub Station Alpha
Duration : 24 min 0 s
Bit rate : 118 b/s
Count of elements : 232
Compression mode : Lossless
Stream size : 20.9 KiB (0%)
Title : SovetRomantica
Language : Russian
Default : No
Forced : No
01. И снова
02. Белая тьма
03. Перекрёстная игра
04. Сломленный
05. Встреча и блуждание
06. Бриллиант
07. Узы
08. Пробуждённый
09. Воспоминание
10.
info [Профиль]  [ЛС] 

post 18-Окт-2018 17:03 (спустя 7 дней) [-]0[+]

Топик был перенесен из форума Анонсы в форум HD Rips

TATOSHCA
 

Riljis

Пол: Пол:Муж

Стаж: 6 лет 1 месяц

Сообщений: 152

Россия
Рейтинг

post 18-Окт-2018 17:58 (спустя 7 дней) [-]0[+]

[Цитировать] 

даладно?

_________________
Homo homini lupus EST
info [Профиль]  [ЛС] 

Biomehanoid

Пол: Пол:Муж

Стаж: 8 лет 5 месяцев

Сообщений: 5

Россия
Рейтинг

post 18-Окт-2018 18:00 (спустя 2 минуты) [-]0[+]

[Цитировать] 

Полного источника не было: Никогда
info [Профиль]  [ЛС] 

Riljis

Пол: Пол:Муж

Стаж: 6 лет 1 месяц

Сообщений: 152

Россия
Рейтинг

post 18-Окт-2018 18:10 (спустя 10 минут) [-]0[+]

[Цитировать] 

Biomehanoid
ага, согласен. ушел от компа мож вкалывает на работе.

_________________
Homo homini lupus EST
info [Профиль]  [ЛС] 

post 25-Окт-2018 17:38 (спустя 6 дней) [-]0[+]

Топик был перенесен из форума HD Rips в форум Анонсы

TATOSHCA
 

post 26-Окт-2018 18:02 (спустя 7 дней) [-]0[+]

Топик был перенесен из форума Анонсы в форум HD Rips

TATOSHCA
 

mRu_mRsO_o

Пол: Пол:Муж

Стаж: 4 года 6 месяцев

Сообщений: 220

Уганда
Рейтинг

post 02-Ноя-2018 10:27 (спустя 14 дней) [-]0[+]

[Цитировать] 

нет пока от зон вижен 4?
info [Профиль]  [ЛС] 

Peter Rodgers

Пол: Пол:Муж

Стаж: 4 года

Сообщений: 10

Россия
Рейтинг

post 02-Ноя-2018 11:58 (спустя 1 час 30 минут) [-]0[+]

[Цитировать] 

mRu_mRsO_o писал(а):

нет пока от зон вижен 4?
Я ещё вчера писал TATOSHCA перенести раздачу в анонсы, чтобы я мог обновить торрент. Но он прочитав сообщение куда-то пропал.
info [Профиль]  [ЛС] 

post 22-Ноя-2018 20:35 (спустя 20 дней) [-]0[+]

Топик был перенесен из форума HD Rips в форум Анонсы

TATOSHCA
 

kennyyss

Пол: Пол:Муж

Стаж: 8 лет 9 месяцев

Сообщений: 78

Предупреждений: 1

Россия
Рейтинг

post 29-Ноя-2018 23:31 (спустя 27 дней) [-]0[+]

[Цитировать] 

Канеки то качок, то дрыщ, странно рисуют.
info [Профиль]  [ЛС] 
Показать сообщения:    
Ответить на тему

Текущее время: 16-Дек 06:32

Часовой пояс: GMT + 4



Вы не можете начинать темы
Вы не можете отвечать на сообщения
Вы не можете редактировать свои сообщения
Вы не можете удалять свои сообщения
Вы не можете голосовать в опросах
Вы не можете прикреплять файлы к сообщениям
Вы не можете скачивать файлы