Ошибка
Загрузка...

Колдовство / Wizardry [OVA] [1 из 1] [Хардсаб] [RUS(int), SUB(еng)] [1991, приключения, фэнтези, DVDRip]

Ответить на тему
 
Автор Сообщение

ShinkaDan

Стаж: 3 года 9 месяцев

Сообщений: 34

Россия
Рейтинг

post 08-Сен-2018 19:34 1[+]

[Цитировать] 



Колдовство
Wizardry


Страна: Япония
Выходит: 21.02.1991
Жанр: приключения, фэнтези
Тип: OVA (1 эп.), 50 мин.
Режиссёр: Синохара Тосия
Возрастное ограничение: 12+
Студия:
Озвучка многоголосая: Azazel & Victor N & Molodoy & Lazaretta
Субтитры: Английский хардсаб

Описание:
Команда приключенцев отправляется в катакомбы, дабы собрать побольше сокровищ, но попадает в засаду монстров, из которой их благополучно спасает мудрец Джоэза и его ученик Алберт. Син, Алекс и Ястреб ещё не подозревают, к чему приведёт их новое знакомство и что ждёт их впереди…

Качество: DVDRip
Тип релиза: Хардсаб
Формат видео: MP4
Видео: MPEG-4 Visual (Advanced Simple@L5), 8bits, 704x528 (4:3), ~1796 Kbps, 23.976 fps
Русский : AAC, 48000Hz, ~320 Kbps, 2ch
General
Complete name : L:\...\[ShinkaDan] Wizardry [OVA]\[Anidub_&_ShinkaDan]_Wizardy_OVA_[DVDRip_704x528_AAC]_[Azazel_&_Victor_N_&_Molodoy_&_Lazaretta].mp4
Format : MPEG-4
Format profile : Base Media
Codec ID : isom
File size : 768 MiB
Duration : 50mn 43s
Overall bit rate mode : Variable
Overall bit rate : 2 116 Kbps
Encoded date : UTC 2018-08-24 18:21:19
Tagged date : UTC 2018-08-24 18:21:19
Copyright : ShinkaDan

Video
ID : 201
Format : MPEG-4 Visual
Format profile : Advanced Simple@L5
Format settings, BVOP : Yes
Format settings, QPel : Yes
Format settings, GMC : No warppoints
Format settings, Matrix : Default (H.263)
Codec ID : 20
Duration : 50mn 42s
Bit rate mode : Variable
Bit rate : 1 793 Kbps
Maximum bit rate : 7 981 Kbps
Width : 704 pixels
Height : 528 pixels
Display aspect ratio : 4:3
Frame rate mode : Constant
Frame rate : 23.976 fps
Color space : YUV
Chroma subsampling : 4:2:0
Bit depth : 8 bits
Scan type : Progressive
Compression mode : Lossy
Bits/(Pixel*Frame) : 0.201
Stream size : 650 MiB (85%)
Title : DVDrip
Writing library : XviD 1.1.0 Beta2 (UTC 2005-04-04)
Language : Japanese
Encoded date : UTC 2018-08-24 18:20:19
Tagged date : UTC 2018-08-24 18:21:21

Audio
ID : 1
Format : AAC
Format/Info : Advanced Audio Codec
Format profile : LC
Codec ID : 40
Duration : 50mn 43s
Bit rate mode : Variable
Bit rate : 320 Kbps
Maximum bit rate : 328 Kbps
Channel count : 2 channels
Channel positions : Front: L R
Sampling rate : 48.0 KHz
Compression mode : Lossy
Delay relative to video : 42ms
Stream size : 116 MiB (15%)
Title : Azazel, Victor N, Molodoy, Lazaretta
Language : Russian
Encoded date : UTC 2018-08-24 18:13:14
Tagged date : UTC 2018-08-24 18:21:21
info [Профиль]  [ЛС] 

Daviance

Стаж: 4 года 4 месяца

Сообщений: 20

Рейтинг

post 08-Сен-2018 22:26 (спустя 2 часа 51 минута) [-]0[+]

[Цитировать] 

ммм, старенькое, надо заценить! спасибки
info [Профиль]  [ЛС] 

klokk

Стаж: 8 лет 7 месяцев

Сообщений: 147

Рейтинг

post 09-Сен-2018 00:00 (спустя 1 час 34 минуты) [-]0[+]

[Цитировать] 

это не по серии игр мультик?
info [Профиль]  [ЛС] 

ShinkaDan

Стаж: 3 года 9 месяцев

Сообщений: 34

Россия
Рейтинг

post 09-Сен-2018 13:19 (спустя 13 часов) [-]0[+]

[Цитировать] 

Daviance
Всегда пожалуйста kolob_111

klokk
Да, это по серии видеоигр.

_________________
info [Профиль]  [ЛС] 

broneko

Пол: Пол:Муж

Стаж: 5 лет 9 месяцев

Сообщений: 37

Россия
Рейтинг

post 09-Сен-2018 15:37 (спустя 2 часа 18 минут) [-]0[+]

[Цитировать] 

вот жеж, будто в детство окунулся, старая добрая ручная рисовка
info [Профиль]  [ЛС] 

Assassin1988

Пол: Пол:Муж

Стаж: 8 лет 6 месяцев

Сообщений: 65

СССР
Рейтинг

post 10-Сен-2018 07:54 (спустя 16 часов) [-]0[+]

[Цитировать] 

Мультик по серии игр Wizardry, а точнее по её японскому ответвлению.

_________________
"Люди не хотят жить вечно, люди просто не хотят умирать" (с) Станислав Лем

"За концерты под фонограмму нужно платить ксерокопиями денег." Ронни Джеймс Дио
info [Профиль]  [ЛС] 

Person-molecule

Стаж: 9 лет 5 месяцев

Сообщений: 216

О.Святой Елены
Рейтинг

post 10-Сен-2018 10:01 (спустя 2 часа 7 минут) [-]0[+]

[Цитировать] 

Красные буквы на черном фоне это стильно и почетно.

_________________
Короли Латиносы!
info [Профиль]  [ЛС] 

Night-m.n

Пол: Пол:Муж

Стаж: 9 лет 3 месяца

Сообщений: 132

СССР
Рейтинг

post 17-Сен-2018 13:05 (спустя 7 дней) [-]0[+]

[Цитировать] 

Person-molecule писал(а):

Красные буквы на черном фоне это стильно и почетно.
это не чёрный Улыбаюсь

_________________
.
info [Профиль]  [ЛС] 
Показать сообщения:    
Ответить на тему

Текущее время: 25-Сен 20:01

Часовой пояс: GMT + 4



Вы не можете начинать темы
Вы не можете отвечать на сообщения
Вы не можете редактировать свои сообщения
Вы не можете удалять свои сообщения
Вы не можете голосовать в опросах
Вы не можете прикреплять файлы к сообщениям
Вы не можете скачивать файлы