Ошибка

До окончания фрилича осталось:


Театр Тьмы (шестой сезон) / Yami Shibai 6 / Yamishibai 6: Japanese Ghost Stories [TV] [1-13 из 13] [Без хардсаба] [JAP, SUB] [2018, ужасы, мистика, повседневность, WEBRip] [1080p]

Ответить на тему
 
Автор Сообщение

BarkwingDuck

Пол: Пол:Муж

Стаж: 1 год 9 месяцев

Сообщений: 2

Россия
Рейтинг

post 02-Сен-2018 18:24 0[+]

[Цитировать] 

Театр Тьмы (шестой сезон) / Yami Shibai 6 / Yamishibai 6: Japanese Ghost Stories

Страна: Япония
Год выпуска: 2018
Жанр: ужасы, мистика, повседневность
Тип: TV
Продолжительность: 13 эпизодов по 4 мин 34 с.
Режиссер: Кумамото Хирому
Студия: ILCA

Описание: Шестой сезон аниме, в основу которого лёг японский фольклор, а именно — страшные истории, слухи и городские легенды. Более того, происходящее технически имитирует «камисибаи» — традиционную технику рассказа историй с бумажными фигурками.

Доп. информация: Релиз группы: Тёплое Ламповое Аниме
Перевод: BarkwingDuck
Редактура: Пёся Угнетатель

Качество: WEBRip
Тип релиза: Без хардсаба
Формат видео: MKV
Видео: AVC/H.264, 1920x1080, 23,976 fps, ~7874 Kbps, 8 бит
Аудио: AAC, 2ch, 44,1 kHz, 128 Kbps Язык Японский
Субтитры: язык субтитров русский ; Перевод: BarkwingDuck, Пёся Угнетатель (ТЛА)
[pre]Общее 
Уникальный идентификатор : 247350566805601966712857141365819279248 (0xBA15FC80985C6DBECBE0574186D38790)
Полное имя : E:\Кино\[ТЛА] Yami Shibai - Japanese Ghost Stories 6\[ТЛА] Yami Shibai - Japanese Ghost Stories 6 - 01 [1080p].mkv
Формат : Matroska
Версия формата : Version 4
Размер файла : 262 Мбайт
Продолжительность : 4 м. 34 с.
Общий поток : 8008 Кбит/сек
Дата кодирования : UTC 2018-09-03 13:53:02
Программа кодирования : mkvmerge v26.0.0 ('In The Game') 64-bit
Библиотека кодирования : libebml v1.3.6 + libmatroska v1.4.9
Attachments : OpenSans-Semibold.ttf

Видео
Идентификатор : 1
Формат : AVC
Формат/Информация : Advanced Video Codec
Профиль формата : High@L4
Настройки формата : CABAC / 4 Ref Frames
Параметр CABAC формата : Да
Параметр RefFrames формата : 4 кадра
Идентификатор кодека : V_MPEG4/ISO/AVC
Продолжительность : 4 м. 34 с.
Битрейт : 7874 Кбит/сек
Ширина : 1920 пикселей
Высота : 1080 пикселей
Соотношение сторон : 16:9
Режим частоты кадров : Постоянный
Частота кадров : 23,976 (24000/1001) кадра/сек
Цветовое пространство : YUV
Субдискретизация насыщенности : 4:2:0
Битовая глубина : 8 бит
Тип развёртки : Прогрессивная
Бит/(Пиксели*Кадры) : 0.158
Размер потока : 257 Мбайт (98%)
Библиотека кодирования : x264 core 142
Настройки программы : cabac=1 / ref=4 / deblock=1:1:1 / analyse=0x3:0x113 / me=umh / subme=8 / psy=1 / psy_rd=0.40:0.00 / mixed_ref=1 / me_range=16 / chroma_me=1 / trellis=1 / 8x8dct=1 / cqm=0 / deadzone=21,11 / fast_pskip=1 / chroma_qp_offset=-2 / threads=12 / lookahead_threads=2 / sliced_threads=0 / nr=0 / decimate=1 / interlaced=0 / bluray_compat=0 / constrained_intra=0 / bframes=3 / b_pyramid=2 / b_adapt=2 / b_bias=0 / direct=3 / weightb=1 / open_gop=0 / weightp=2 / keyint=48 / keyint_min=24 / scenecut=40 / intra_refresh=0 / rc_lookahead=48 / rc=crf / mbtree=1 / crf=15.0 / qcomp=0.60 / qpmin=0 / qpmax=69 / qpstep=4 / vbv_maxrate=8000 / vbv_bufsize=12000 / crf_max=0.0 / nal_hrd=none / filler=0 / ip_ratio=1.40 / aq=1:0.60
Default : Да
Forced : Нет

Аудио
Идентификатор : 2
Формат : AAC LC
Формат/Информация : Advanced Audio Codec Low Complexity
Идентификатор кодека : A_AAC-2
Продолжительность : 4 м. 34 с.
Битрейт : 128 Кбит/сек
Каналы : 2 канала
Channel layout : L R
Частота : 44,1 КГц
Частота кадров : 43,066 кадра/сек (1024 SPF)
Метод сжатия : С потерями
Задержка видео : -83 мс.
Размер потока : 4,18 Мбайт (2%)
Язык : Japanese
Default : Да
Forced : Нет

Общее
Уникальный идентификатор : 169247588024408696447927516298683394924 (0x7F53E657ED30DB46C5BE977EB504AB6C)
Полное имя : E:\Кино\[ТЛА] Yami Shibai - Japanese Ghost Stories 6\[ТЛА] Yami Shibai - Japanese Ghost Stories 6 - 02 [1080p].mkv
Формат : Matroska
Версия формата : Version 4
Размер файла : 261 Мбайт
Продолжительность : 4 м. 34 с.
Общий поток : 7987 Кбит/сек
Дата кодирования : UTC 2018-09-03 14:22:53
Программа кодирования : mkvmerge v26.0.0 ('In The Game') 64-bit
Библиотека кодирования : libebml v1.3.6 + libmatroska v1.4.9
Attachments : OpenSans-Semibold.ttf

Видео
Идентификатор : 1
Формат : AVC
Формат/Информация : Advanced Video Codec
Профиль формата : High@L4
Настройки формата : CABAC / 4 Ref Frames
Параметр CABAC формата : Да
Параметр RefFrames формата : 4 кадра
Идентификатор кодека : V_MPEG4/ISO/AVC
Продолжительность : 4 м. 33 с.
Битрейт : 7852 Кбит/сек
Ширина : 1920 пикселей
Высота : 1080 пикселей
Соотношение сторон : 16:9
Режим частоты кадров : Постоянный
Частота кадров : 23,976 (24000/1001) кадра/сек
Цветовое пространство : YUV
Субдискретизация насыщенности : 4:2:0
Битовая глубина : 8 бит
Тип развёртки : Прогрессивная
Бит/(Пиксели*Кадры) : 0.158
Размер потока : 256 Мбайт (98%)
Библиотека кодирования : x264 core 142
Настройки программы : cabac=1 / ref=4 / deblock=1:1:1 / analyse=0x3:0x113 / me=umh / subme=8 / psy=1 / psy_rd=0.40:0.00 / mixed_ref=1 / me_range=16 / chroma_me=1 / trellis=1 / 8x8dct=1 / cqm=0 / deadzone=21,11 / fast_pskip=1 / chroma_qp_offset=-2 / threads=12 / lookahead_threads=2 / sliced_threads=0 / nr=0 / decimate=1 / interlaced=0 / bluray_compat=0 / constrained_intra=0 / bframes=3 / b_pyramid=2 / b_adapt=2 / b_bias=0 / direct=3 / weightb=1 / open_gop=0 / weightp=2 / keyint=48 / keyint_min=24 / scenecut=40 / intra_refresh=0 / rc_lookahead=48 / rc=crf / mbtree=1 / crf=15.0 / qcomp=0.60 / qpmin=0 / qpmax=69 / qpstep=4 / vbv_maxrate=8000 / vbv_bufsize=12000 / crf_max=0.0 / nal_hrd=none / filler=0 / ip_ratio=1.40 / aq=1:0.60
Default : Да
Forced : Нет

Аудио
Идентификатор : 2
Формат : AAC LC
Формат/Информация : Advanced Audio Codec Low Complexity
Идентификатор кодека : A_AAC-2
Продолжительность : 4 м. 34 с.
Битрейт : 128 Кбит/сек
Каналы : 2 канала
Channel layout : L R
Частота : 44,1 КГц
Частота кадров : 43,066 кадра/сек (1024 SPF)
Метод сжатия : С потерями
Задержка видео : -83 мс.
Размер потока : 4,18 Мбайт (2%)
Язык : Japanese
Default : Да
Forced : Нет

Общее
Уникальный идентификатор : 168278346420036969685627599033849182089 (0x7E993B0AF9E0C5B5642B51FB58297789)
Полное имя : E:\Кино\[ТЛА] Yami Shibai - Japanese Ghost Stories 6\[ТЛА] Yami Shibai - Japanese Ghost Stories 6 - 03 [1080p].mkv
Формат : Matroska
Версия формата : Version 4
Размер файла : 262 Мбайт
Продолжительность : 4 м. 34 с.
Общий поток : 8034 Кбит/сек
Дата кодирования : UTC 2018-09-03 14:22:44
Программа кодирования : mkvmerge v26.0.0 ('In The Game') 64-bit
Библиотека кодирования : libebml v1.3.6 + libmatroska v1.4.9
Attachments : OpenSans-Semibold.ttf

Видео
Идентификатор : 1
Формат : AVC
Формат/Информация : Advanced Video Codec
Профиль формата : High@L4
Настройки формата : CABAC / 4 Ref Frames
Параметр CABAC формата : Да
Параметр RefFrames формата : 4 кадра
Идентификатор кодека : V_MPEG4/ISO/AVC
Продолжительность : 4 м. 33 с.
Битрейт : 7900 Кбит/сек
Ширина : 1920 пикселей
Высота : 1080 пикселей
Соотношение сторон : 16:9
Режим частоты кадров : Постоянный
Частота кадров : 23,976 (24000/1001) кадра/сек
Цветовое пространство : YUV
Субдискретизация насыщенности : 4:2:0
Битовая глубина : 8 бит
Тип развёртки : Прогрессивная
Бит/(Пиксели*Кадры) : 0.159
Размер потока : 258 Мбайт (98%)
Библиотека кодирования : x264 core 142
Настройки программы : cabac=1 / ref=4 / deblock=1:1:1 / analyse=0x3:0x113 / me=umh / subme=8 / psy=1 / psy_rd=0.40:0.00 / mixed_ref=1 / me_range=16 / chroma_me=1 / trellis=1 / 8x8dct=1 / cqm=0 / deadzone=21,11 / fast_pskip=1 / chroma_qp_offset=-2 / threads=12 / lookahead_threads=2 / sliced_threads=0 / nr=0 / decimate=1 / interlaced=0 / bluray_compat=0 / constrained_intra=0 / bframes=3 / b_pyramid=2 / b_adapt=2 / b_bias=0 / direct=3 / weightb=1 / open_gop=0 / weightp=2 / keyint=48 / keyint_min=24 / scenecut=40 / intra_refresh=0 / rc_lookahead=48 / rc=crf / mbtree=1 / crf=15.0 / qcomp=0.60 / qpmin=0 / qpmax=69 / qpstep=4 / vbv_maxrate=8000 / vbv_bufsize=12000 / crf_max=0.0 / nal_hrd=none / filler=0 / ip_ratio=1.40 / aq=1:0.60
Default : Да
Forced : Нет

Аудио
Идентификатор : 2
Формат : AAC LC
Формат/Информация : Advanced Audio Codec Low Complexity
Идентификатор кодека : A_AAC-2
Продолжительность : 4 м. 34 с.
Битрейт : 128 Кбит/сек
Каналы : 2 канала
Channel layout : L R
Частота : 44,1 КГц
Частота кадров : 43,066 кадра/сек (1024 SPF)
Метод сжатия : С потерями
Задержка видео : -83 мс.
Размер потока : 4,18 Мбайт (2%)
Язык : Japanese
Default : Да
Forced : Нет

Общее
Уникальный идентификатор : 29823379667544005714517053425186974667 (0x166FC62480288FBE58D56AB158332BCB)
Полное имя : E:\Кино\[ТЛА] Yami Shibai - Japanese Ghost Stories 6\[ТЛА] Yami Shibai - Japanese Ghost Stories 6 - 04 [1080p].mkv
Формат : Matroska
Версия формата : Version 4
Размер файла : 263 Мбайт
Продолжительность : 4 м. 34 с.
Общий поток : 8045 Кбит/сек
Дата кодирования : UTC 2018-09-03 14:23:20
Программа кодирования : mkvmerge v26.0.0 ('In The Game') 64-bit
Библиотека кодирования : libebml v1.3.6 + libmatroska v1.4.9
Attachments : OpenSans-Semibold.ttf

Видео
Идентификатор : 1
Формат : AVC
Формат/Информация : Advanced Video Codec
Профиль формата : High@L4
Настройки формата : CABAC / 4 Ref Frames
Параметр CABAC формата : Да
Параметр RefFrames формата : 4 кадра
Идентификатор кодека : V_MPEG4/ISO/AVC
Продолжительность : 4 м. 33 с.
Битрейт : 7910 Кбит/сек
Ширина : 1920 пикселей
Высота : 1080 пикселей
Соотношение сторон : 16:9
Режим частоты кадров : Постоянный
Частота кадров : 23,976 (24000/1001) кадра/сек
Цветовое пространство : YUV
Субдискретизация насыщенности : 4:2:0
Битовая глубина : 8 бит
Тип развёртки : Прогрессивная
Бит/(Пиксели*Кадры) : 0.159
Размер потока : 258 Мбайт (98%)
Библиотека кодирования : x264 core 142
Настройки программы : cabac=1 / ref=4 / deblock=1:1:1 / analyse=0x3:0x113 / me=umh / subme=8 / psy=1 / psy_rd=0.40:0.00 / mixed_ref=1 / me_range=16 / chroma_me=1 / trellis=1 / 8x8dct=1 / cqm=0 / deadzone=21,11 / fast_pskip=1 / chroma_qp_offset=-2 / threads=12 / lookahead_threads=2 / sliced_threads=0 / nr=0 / decimate=1 / interlaced=0 / bluray_compat=0 / constrained_intra=0 / bframes=3 / b_pyramid=2 / b_adapt=2 / b_bias=0 / direct=3 / weightb=1 / open_gop=0 / weightp=2 / keyint=48 / keyint_min=24 / scenecut=40 / intra_refresh=0 / rc_lookahead=48 / rc=crf / mbtree=1 / crf=15.0 / qcomp=0.60 / qpmin=0 / qpmax=69 / qpstep=4 / vbv_maxrate=8000 / vbv_bufsize=12000 / crf_max=0.0 / nal_hrd=none / filler=0 / ip_ratio=1.40 / aq=1:0.60
Default : Да
Forced : Нет

Аудио
Идентификатор : 2
Формат : AAC LC
Формат/Информация : Advanced Audio Codec Low Complexity
Идентификатор кодека : A_AAC-2
Продолжительность : 4 м. 34 с.
Битрейт : 128 Кбит/сек
Каналы : 2 канала
Channel layout : L R
Частота : 44,1 КГц
Частота кадров : 43,066 кадра/сек (1024 SPF)
Метод сжатия : С потерями
Задержка видео : -83 мс.
Размер потока : 4,18 Мбайт (2%)
Язык : Japanese
Default : Да
Forced : Нет

Общее
Уникальный идентификатор : 57390514620434883874819427941403652533 (0x2B2D02D50880D15BFDEC1EB4B5ACF1B5)
Полное имя : E:\Кино\[ТЛА] Yami Shibai - Japanese Ghost Stories 6\[ТЛА] Yami Shibai - Japanese Ghost Stories 6 - 05 [1080p].mkv
Формат : Matroska
Версия формата : Version 4
Размер файла : 262 Мбайт
Продолжительность : 4 м. 34 с.
Общий поток : 8022 Кбит/сек
Дата кодирования : UTC 2018-09-03 14:23:04
Программа кодирования : mkvmerge v26.0.0 ('In The Game') 64-bit
Библиотека кодирования : libebml v1.3.6 + libmatroska v1.4.9
Attachments : OpenSans-Semibold.ttf

Видео
Идентификатор : 1
Формат : AVC
Формат/Информация : Advanced Video Codec
Профиль формата : High@L4
Настройки формата : CABAC / 4 Ref Frames
Параметр CABAC формата : Да
Параметр RefFrames формата : 4 кадра
Идентификатор кодека : V_MPEG4/ISO/AVC
Продолжительность : 4 м. 33 с.
Битрейт : 7887 Кбит/сек
Ширина : 1920 пикселей
Высота : 1080 пикселей
Соотношение сторон : 16:9
Режим частоты кадров : Постоянный
Частота кадров : 23,976 (24000/1001) кадра/сек
Цветовое пространство : YUV
Субдискретизация насыщенности : 4:2:0
Битовая глубина : 8 бит
Тип развёртки : Прогрессивная
Бит/(Пиксели*Кадры) : 0.159
Размер потока : 258 Мбайт (98%)
Библиотека кодирования : x264 core 142
Настройки программы : cabac=1 / ref=4 / deblock=1:1:1 / analyse=0x3:0x113 / me=umh / subme=8 / psy=1 / psy_rd=0.40:0.00 / mixed_ref=1 / me_range=16 / chroma_me=1 / trellis=1 / 8x8dct=1 / cqm=0 / deadzone=21,11 / fast_pskip=1 / chroma_qp_offset=-2 / threads=12 / lookahead_threads=2 / sliced_threads=0 / nr=0 / decimate=1 / interlaced=0 / bluray_compat=0 / constrained_intra=0 / bframes=3 / b_pyramid=2 / b_adapt=2 / b_bias=0 / direct=3 / weightb=1 / open_gop=0 / weightp=2 / keyint=48 / keyint_min=24 / scenecut=40 / intra_refresh=0 / rc_lookahead=48 / rc=crf / mbtree=1 / crf=15.0 / qcomp=0.60 / qpmin=0 / qpmax=69 / qpstep=4 / vbv_maxrate=8000 / vbv_bufsize=12000 / crf_max=0.0 / nal_hrd=none / filler=0 / ip_ratio=1.40 / aq=1:0.60
Default : Да
Forced : Нет

Аудио
Идентификатор : 2
Формат : AAC LC
Формат/Информация : Advanced Audio Codec Low Complexity
Идентификатор кодека : A_AAC-2
Продолжительность : 4 м. 34 с.
Битрейт : 128 Кбит/сек
Каналы : 2 канала
Channel layout : L R
Частота : 44,1 КГц
Частота кадров : 43,066 кадра/сек (1024 SPF)
Метод сжатия : С потерями
Задержка видео : -83 мс.
Размер потока : 4,18 Мбайт (2%)
Язык : Japanese
Default : Да
Forced : Нет

Общее
Уникальный идентификатор : 9844234757939982133947148237796089336 (0x767EE3F13E499BCFB9B8705DB2D1DF8)
Полное имя : E:\Кино\[ТЛА] Yami Shibai - Japanese Ghost Stories 6\[ТЛА] Yami Shibai - Japanese Ghost Stories 6 - 06 [1080p].mkv
Формат : Matroska
Версия формата : Version 4
Размер файла : 262 Мбайт
Продолжительность : 4 м. 34 с.
Общий поток : 8029 Кбит/сек
Дата кодирования : UTC 2018-09-03 14:23:34
Программа кодирования : mkvmerge v26.0.0 ('In The Game') 64-bit
Библиотека кодирования : libebml v1.3.6 + libmatroska v1.4.9
Attachments : OpenSans-Semibold.ttf

Видео
Идентификатор : 1
Формат : AVC
Формат/Информация : Advanced Video Codec
Профиль формата : High@L4
Настройки формата : CABAC / 4 Ref Frames
Параметр CABAC формата : Да
Параметр RefFrames формата : 4 кадра
Идентификатор кодека : V_MPEG4/ISO/AVC
Продолжительность : 4 м. 33 с.
Битрейт : 7894 Кбит/сек
Ширина : 1920 пикселей
Высота : 1080 пикселей
Соотношение сторон : 16:9
Режим частоты кадров : Постоянный
Частота кадров : 23,976 (24000/1001) кадра/сек
Цветовое пространство : YUV
Субдискретизация насыщенности : 4:2:0
Битовая глубина : 8 бит
Тип развёртки : Прогрессивная
Бит/(Пиксели*Кадры) : 0.159
Размер потока : 258 Мбайт (98%)
Библиотека кодирования : x264 core 142
Настройки программы : cabac=1 / ref=4 / deblock=1:1:1 / analyse=0x3:0x113 / me=umh / subme=8 / psy=1 / psy_rd=0.40:0.00 / mixed_ref=1 / me_range=16 / chroma_me=1 / trellis=1 / 8x8dct=1 / cqm=0 / deadzone=21,11 / fast_pskip=1 / chroma_qp_offset=-2 / threads=12 / lookahead_threads=2 / sliced_threads=0 / nr=0 / decimate=1 / interlaced=0 / bluray_compat=0 / constrained_intra=0 / bframes=3 / b_pyramid=2 / b_adapt=2 / b_bias=0 / direct=3 / weightb=1 / open_gop=0 / weightp=2 / keyint=48 / keyint_min=24 / scenecut=40 / intra_refresh=0 / rc_lookahead=48 / rc=crf / mbtree=1 / crf=15.0 / qcomp=0.60 / qpmin=0 / qpmax=69 / qpstep=4 / vbv_maxrate=8000 / vbv_bufsize=12000 / crf_max=0.0 / nal_hrd=none / filler=0 / ip_ratio=1.40 / aq=1:0.60
Default : Да
Forced : Нет

Аудио
Идентификатор : 2
Формат : AAC LC
Формат/Информация : Advanced Audio Codec Low Complexity
Идентификатор кодека : A_AAC-2
Продолжительность : 4 м. 34 с.
Битрейт : 128 Кбит/сек
Каналы : 2 канала
Channel layout : L R
Частота : 44,1 КГц
Частота кадров : 43,066 кадра/сек (1024 SPF)
Метод сжатия : С потерями
Задержка видео : -83 мс.
Размер потока : 4,18 Мбайт (2%)
Язык : Japanese
Default : Да
Forced : Нет

Общее
Уникальный идентификатор : 107611975645303550595780581614256682631 (0x50F5500852A3AFC42AEEB3EFDC247687)
Полное имя : E:\Кино\[ТЛА] Yami Shibai - Japanese Ghost Stories 6\[ТЛА] Yami Shibai - Japanese Ghost Stories 6 - 07 [1080p].mkv
Формат : Matroska
Версия формата : Version 4
Размер файла : 262 Мбайт
Продолжительность : 4 м. 34 с.
Общий поток : 8025 Кбит/сек
Дата кодирования : UTC 2018-09-03 14:23:49
Программа кодирования : mkvmerge v26.0.0 ('In The Game') 64-bit
Библиотека кодирования : libebml v1.3.6 + libmatroska v1.4.9
Attachments : OpenSans-Semibold.ttf

Видео
Идентификатор : 1
Формат : AVC
Формат/Информация : Advanced Video Codec
Профиль формата : High@L4
Настройки формата : CABAC / 4 Ref Frames
Параметр CABAC формата : Да
Параметр RefFrames формата : 4 кадра
Идентификатор кодека : V_MPEG4/ISO/AVC
Продолжительность : 4 м. 33 с.
Битрейт : 7890 Кбит/сек
Ширина : 1920 пикселей
Высота : 1080 пикселей
Соотношение сторон : 16:9
Режим частоты кадров : Постоянный
Частота кадров : 23,976 (24000/1001) кадра/сек
Цветовое пространство : YUV
Субдискретизация насыщенности : 4:2:0
Битовая глубина : 8 бит
Тип развёртки : Прогрессивная
Бит/(Пиксели*Кадры) : 0.159
Размер потока : 258 Мбайт (98%)
Библиотека кодирования : x264 core 142
Настройки программы : cabac=1 / ref=4 / deblock=1:1:1 / analyse=0x3:0x113 / me=umh / subme=8 / psy=1 / psy_rd=0.40:0.00 / mixed_ref=1 / me_range=16 / chroma_me=1 / trellis=1 / 8x8dct=1 / cqm=0 / deadzone=21,11 / fast_pskip=1 / chroma_qp_offset=-2 / threads=12 / lookahead_threads=2 / sliced_threads=0 / nr=0 / decimate=1 / interlaced=0 / bluray_compat=0 / constrained_intra=0 / bframes=3 / b_pyramid=2 / b_adapt=2 / b_bias=0 / direct=3 / weightb=1 / open_gop=0 / weightp=2 / keyint=48 / keyint_min=24 / scenecut=40 / intra_refresh=0 / rc_lookahead=48 / rc=crf / mbtree=1 / crf=15.0 / qcomp=0.60 / qpmin=0 / qpmax=69 / qpstep=4 / vbv_maxrate=8000 / vbv_bufsize=12000 / crf_max=0.0 / nal_hrd=none / filler=0 / ip_ratio=1.40 / aq=1:0.60
Default : Да
Forced : Нет

Аудио
Идентификатор : 2
Формат : AAC LC
Формат/Информация : Advanced Audio Codec Low Complexity
Идентификатор кодека : A_AAC-2
Продолжительность : 4 м. 34 с.
Битрейт : 128 Кбит/сек
Каналы : 2 канала
Channel layout : L R
Частота : 44,1 КГц
Частота кадров : 43,066 кадра/сек (1024 SPF)
Метод сжатия : С потерями
Задержка видео : -83 мс.
Размер потока : 4,18 Мбайт (2%)
Язык : Japanese
Default : Да
Forced : Нет

Общее
Уникальный идентификатор : 58303373178504124076953051656433801564 (0x2BDCD23BE376CE358C18638FA985995C)
Полное имя : E:\Кино\[ТЛА] Yami Shibai - Japanese Ghost Stories 6\[ТЛА] Yami Shibai - Japanese Ghost Stories 6 - 08 [1080p].mkv
Формат : Matroska
Версия формата : Version 4
Размер файла : 262 Мбайт
Продолжительность : 4 м. 34 с.
Общий поток : 8016 Кбит/сек
Дата кодирования : UTC 2018-09-03 14:23:59
Программа кодирования : mkvmerge v26.0.0 ('In The Game') 64-bit
Библиотека кодирования : libebml v1.3.6 + libmatroska v1.4.9
Attachments : OpenSans-Semibold.ttf

Видео
Идентификатор : 1
Формат : AVC
Формат/Информация : Advanced Video Codec
Профиль формата : High@L4
Настройки формата : CABAC / 4 Ref Frames
Параметр CABAC формата : Да
Параметр RefFrames формата : 4 кадра
Идентификатор кодека : V_MPEG4/ISO/AVC
Продолжительность : 4 м. 33 с.
Битрейт : 7881 Кбит/сек
Ширина : 1920 пикселей
Высота : 1080 пикселей
Соотношение сторон : 16:9
Режим частоты кадров : Постоянный
Частота кадров : 23,976 (24000/1001) кадра/сек
Цветовое пространство : YUV
Субдискретизация насыщенности : 4:2:0
Битовая глубина : 8 бит
Тип развёртки : Прогрессивная
Бит/(Пиксели*Кадры) : 0.159
Размер потока : 257 Мбайт (98%)
Библиотека кодирования : x264 core 142
Настройки программы : cabac=1 / ref=4 / deblock=1:1:1 / analyse=0x3:0x113 / me=umh / subme=8 / psy=1 / psy_rd=0.40:0.00 / mixed_ref=1 / me_range=16 / chroma_me=1 / trellis=1 / 8x8dct=1 / cqm=0 / deadzone=21,11 / fast_pskip=1 / chroma_qp_offset=-2 / threads=12 / lookahead_threads=2 / sliced_threads=0 / nr=0 / decimate=1 / interlaced=0 / bluray_compat=0 / constrained_intra=0 / bframes=3 / b_pyramid=2 / b_adapt=2 / b_bias=0 / direct=3 / weightb=1 / open_gop=0 / weightp=2 / keyint=48 / keyint_min=24 / scenecut=40 / intra_refresh=0 / rc_lookahead=48 / rc=crf / mbtree=1 / crf=15.0 / qcomp=0.60 / qpmin=0 / qpmax=69 / qpstep=4 / vbv_maxrate=8000 / vbv_bufsize=12000 / crf_max=0.0 / nal_hrd=none / filler=0 / ip_ratio=1.40 / aq=1:0.60
Default : Да
Forced : Нет

Аудио
Идентификатор : 2
Формат : AAC LC
Формат/Информация : Advanced Audio Codec Low Complexity
Идентификатор кодека : A_AAC-2
Продолжительность : 4 м. 34 с.
Битрейт : 128 Кбит/сек
Каналы : 2 канала
Channel layout : L R
Частота : 44,1 КГц
Частота кадров : 43,066 кадра/сек (1024 SPF)
Метод сжатия : С потерями
Задержка видео : -83 мс.
Размер потока : 4,18 Мбайт (2%)
Язык : Japanese
Default : Да
Forced : Нет

Общее
Уникальный идентификатор : 149451399171058458415467932769243129905 (0x706F4AE096073027F59D5D29B0DC6831)
Полное имя : E:\Кино\[ТЛА] Yami Shibai - Japanese Ghost Stories 6\[ТЛА] Yami Shibai - Japanese Ghost Stories 6 - 09 [1080p].mkv
Формат : Matroska
Версия формата : Version 4
Размер файла : 263 Мбайт
Продолжительность : 4 м. 34 с.
Общий поток : 8042 Кбит/сек
Дата кодирования : UTC 2018-09-03 14:24:11
Программа кодирования : mkvmerge v26.0.0 ('In The Game') 64-bit
Библиотека кодирования : libebml v1.3.6 + libmatroska v1.4.9
Attachments : OpenSans-Semibold.ttf

Видео
Идентификатор : 1
Формат : AVC
Формат/Информация : Advanced Video Codec
Профиль формата : High@L4
Настройки формата : CABAC / 4 Ref Frames
Параметр CABAC формата : Да
Параметр RefFrames формата : 4 кадра
Идентификатор кодека : V_MPEG4/ISO/AVC
Продолжительность : 4 м. 33 с.
Битрейт : 7907 Кбит/сек
Ширина : 1920 пикселей
Высота : 1080 пикселей
Соотношение сторон : 16:9
Режим частоты кадров : Постоянный
Частота кадров : 23,976 (24000/1001) кадра/сек
Цветовое пространство : YUV
Субдискретизация насыщенности : 4:2:0
Битовая глубина : 8 бит
Тип развёртки : Прогрессивная
Бит/(Пиксели*Кадры) : 0.159
Размер потока : 258 Мбайт (98%)
Библиотека кодирования : x264 core 142
Настройки программы : cabac=1 / ref=4 / deblock=1:1:1 / analyse=0x3:0x113 / me=umh / subme=8 / psy=1 / psy_rd=0.40:0.00 / mixed_ref=1 / me_range=16 / chroma_me=1 / trellis=1 / 8x8dct=1 / cqm=0 / deadzone=21,11 / fast_pskip=1 / chroma_qp_offset=-2 / threads=12 / lookahead_threads=2 / sliced_threads=0 / nr=0 / decimate=1 / interlaced=0 / bluray_compat=0 / constrained_intra=0 / bframes=3 / b_pyramid=2 / b_adapt=2 / b_bias=0 / direct=3 / weightb=1 / open_gop=0 / weightp=2 / keyint=48 / keyint_min=24 / scenecut=40 / intra_refresh=0 / rc_lookahead=48 / rc=crf / mbtree=1 / crf=15.0 / qcomp=0.60 / qpmin=0 / qpmax=69 / qpstep=4 / vbv_maxrate=8000 / vbv_bufsize=12000 / crf_max=0.0 / nal_hrd=none / filler=0 / ip_ratio=1.40 / aq=1:0.60
Default : Да
Forced : Нет

Аудио
Идентификатор : 2
Формат : AAC LC
Формат/Информация : Advanced Audio Codec Low Complexity
Идентификатор кодека : A_AAC-2
Продолжительность : 4 м. 34 с.
Битрейт : 128 Кбит/сек
Каналы : 2 канала
Channel layout : L R
Частота : 44,1 КГц
Частота кадров : 43,066 кадра/сек (1024 SPF)
Метод сжатия : С потерями
Задержка видео : -83 мс.
Размер потока : 4,18 Мбайт (2%)
Язык : Japanese
Default : Да
Forced : Нет

Общее
Полное имя : E:\Кино\[ТЛА] Yami Shibai - Japanese Ghost Stories 6\Субтитры\[ТЛА] Yami Shibai - Japanese Ghost Stories 6 - 01 [1080p].ass
Размер файла : 9,41 Кбайт

Общее
Полное имя : E:\Кино\[ТЛА] Yami Shibai - Japanese Ghost Stories 6\Субтитры\[ТЛА] Yami Shibai - Japanese Ghost Stories 6 - 02 [1080p].ass
Размер файла : 10,2 Кбайт

Общее
Полное имя : E:\Кино\[ТЛА] Yami Shibai - Japanese Ghost Stories 6\Субтитры\[ТЛА] Yami Shibai - Japanese Ghost Stories 6 - 03 [1080p].ass
Размер файла : 8,29 Кбайт

Общее
Полное имя : E:\Кино\[ТЛА] Yami Shibai - Japanese Ghost Stories 6\Субтитры\[ТЛА] Yami Shibai - Japanese Ghost Stories 6 - 04 [1080p].ass
Размер файла : 10,5 Кбайт

Общее
Полное имя : E:\Кино\[ТЛА] Yami Shibai - Japanese Ghost Stories 6\Субтитры\[ТЛА] Yami Shibai - Japanese Ghost Stories 6 - 05 [1080p].ass
Размер файла : 6,12 Кбайт

Общее
Полное имя : E:\Кино\[ТЛА] Yami Shibai - Japanese Ghost Stories 6\Субтитры\[ТЛА] Yami Shibai - Japanese Ghost Stories 6 - 06 [1080p].ass
Размер файла : 12,0 Кбайт

Общее
Полное имя : E:\Кино\[ТЛА] Yami Shibai - Japanese Ghost Stories 6\Субтитры\[ТЛА] Yami Shibai - Japanese Ghost Stories 6 - 07 [1080p].ass
Размер файла : 9,02 Кбайт

Общее
Полное имя : E:\Кино\[ТЛА] Yami Shibai - Japanese Ghost Stories 6\Субтитры\[ТЛА] Yami Shibai - Japanese Ghost Stories 6 - 08 [1080p].ass
Размер файла : 9,71 Кбайт

Общее
Полное имя : E:\Кино\[ТЛА] Yami Shibai - Japanese Ghost Stories 6\Субтитры\[ТЛА] Yami Shibai - Japanese Ghost Stories 6 - 09 [1080p].ass
Размер файла : 9,58 Кбайт

Общее
Полное имя : E:\Кино\[ТЛА] Yami Shibai - Japanese Ghost Stories 6\Шрифты\TrajanPro3-Bold.otf
Размер файла : 202 Кбайт

Общее
Полное имя : E:\Кино\[ТЛА] Yami Shibai - Japanese Ghost Stories 6\Шрифты\TrajanPro3-Regular.otf
Размер файла : 177 Кбайт

Общее
Полное имя : E:\Кино\[ТЛА] Yami Shibai - Japanese Ghost Stories 6\Шрифты\Vodevile.ttf
Размер файла : 101 Кбайт
Эпизод 1: Громовой Посетитель
Эпизод 2: Пещера Томонаши
Эпизод 3: Штормовое Предупреждение
Эпизод 4: Подношения Болоту
Эпизод 5: Дождь
Эпизод 6: Сакура
Эпизод 7: Лягушачья Икра
Эпизод 8: Морские Судьбы
Эпизод 9: Грязные Игры
Эпизод 10: Дерево Невинности
Эпизод 11: Застывшие Воспоминания
Эпизод 12: Падение Водопада
Эпизод 13: Эхо
info [Профиль]  [ЛС] 

marko

Стаж: 8 лет 1 месяц

Сообщений: 809

Рейтинг

post 05-Сен-2018 13:32 (спустя 2 дня 19 часов) [-]2[+]

[Цитировать] 

погуглил скриншоты . и понял что такое я смогу посмотреть только самым светлым днем и хотя бы вместе с одним другом . и это я не слышал и не видел в движении .

_________________
info [Профиль]  [ЛС] 

DJBaton

Пол: Пол:Муж

Стаж: 8 лет 1 месяц

Сообщений: 642

СССР
Рейтинг

post 11-Сен-2018 19:47 (спустя 6 дней) [-]3[+]

[Цитировать] 

я один вижу Чебурашку на постере?
info [Профиль]  [ЛС] 

Mazay5508

Пол: Пол:Муж

Стаж: 8 лет 8 месяцев

Сообщений: 18

Россия
Рейтинг

post 18-Сен-2018 12:45 (спустя 6 дней) [-]1[+]

[Цитировать] 

Нет, не один. Я тоже вижу)))
info [Профиль]  [ЛС] 

Курца

Пол: Пол:Муж

Стаж: 5 лет 8 месяцев

Сообщений: 91

Таиланд
Рейтинг

post 24-Сен-2018 13:39 (спустя 6 дней) [-]0[+]

[Цитировать] 

интересно найти первый сезон.
info [Профиль]  [ЛС] 

vitkosh

Пол: Пол:Муж

Стаж: 7 лет 4 месяца

Сообщений: 708

Россия
Рейтинг

post 24-Сен-2018 14:47 (спустя 1 час 8 минут) [-]0[+]

[Цитировать] 

Курца писал(а):

интересно найти первый сезон.
А зачем искать? Загуглил - посмотрел весь первый сезон онлайн. Не цепануло никаким местом - никакой анимации, статичные картинки с иллюзией движения. Сюжета НОЛЬ! Страшность НОЛЬ!! Интересность НОЛЬ!!! Жаль потраченного времени.
info [Профиль]  [ЛС] 

Witcher

Пол: Пол:Муж

Стаж: 9 лет 7 месяцев

Сообщений: 6332

Рейтинг

post 03-Окт-2018 10:40 (спустя 8 дней) [-]0[+]

[Цитировать] 

Название темы оформлено не верно. Почитайте правила.

_________________
Темы не проверяю, для этого есть модераторы.
info [Профиль]  [ЛС] 
Показать сообщения:    
Ответить на тему

Текущее время: 15-Ноя 05:02

Часовой пояс: GMT + 4



Вы не можете начинать темы
Вы не можете отвечать на сообщения
Вы не можете редактировать свои сообщения
Вы не можете удалять свои сообщения
Вы не можете голосовать в опросах
Вы не можете прикреплять файлы к сообщениям
Вы не можете скачивать файлы