Ошибка

Удивительный мир Эль-Хазард OVA-1 | El Hazard - The Magnificent World | Shinpi no Sekai El Hazard [OVA][1-7 из 7][1995 г., приключения, комедия, романтика, фэнтези][BDRip][1080p][Любительский (JAP+SUB)] от 3df_voice

Ответить на тему
 
Автор Сообщение

ReBootRus

Пол: Пол:Муж

Стаж: 4 месяца 25 дней

Сообщений: 59

Южная Георгия и Южные Сандвичевы острова
Рейтинг

post 07-Июл-2018 16:47 2[+]

[Цитировать] 

Удивительный мир Эль-Хазард OVA-1
El Hazard - The Magnificent World | Shinpi no Sekai El Hazard

Раздача обновлена 18.05.2019
Заменил видеоряд на релиз от Moozzi2 8-bit, также оригинальная японская дорога теперь в лучшем качестве.

Год выпуска: c 26.05.1995 по 25.01.1996
Страна: Япония
Жанр: приключения, комедия, романтика, фэнтези
Тип: OVA
Продолжительность: 7 эп. по 29 мин.
Озвучка: Многоголосая, студия
На русский роли озвучивали: Александр Аносов, Дарья Колетвинова, Алексей Усиков, Мария Яковлева, Глеб Янышев, Ольга Кужельная, Антон Малафеев, Мария Лебедева, Евгений Бородаенко, Юлия Шереметьева и Павел Тимонин.
Сведение и мастеринг: Глеб Лотков.
Перевод: русские субтитры Terramorpher & Andy Panda (.ssa)
Режиссер: Хаяси Хироки
Автор оригинала: Хаяси Хироки
Студия:
Описание:
В прошлом, в параллельном мире «Эль Хазард» обитала высокоразвитая цивилизация, войны которой затрагивали даже соседние миры. В итоге эта цивилизация уничтожила сама себя. Однако, после неё сохранилось множество артефактов и в частности, орбитальное орудие «Око Бога». Коренное население Эль Хазарда — люди и разумные жуки, багромы, с ужасом вспоминают древние войны и страшатся артефактов оставленных древними. Тем не менее, империя людей, Роштария, держит под своим контролем Око Бога, как залог мира. Помимо коренного населения в Эль Хазарде обитает народ тени, чьей основной способностью является создание иллюзий. Предки народа тени случайно попали в Эль Хазард из другого мира, во время одной из древних войн. Они возненавидели мир в котором были для всех чужаками и теперь пытаются стравить между собой людей и багромов, в надежде что люди используют Око Бога и уничтожат сами себя.
В это же время, в другом мире, под школой главного героя, Макото Мидзухары обнаруживают древние руины. В них Макото встречает таинственную девушку Ифуриту, которая утверждает что ждала его десять тысяч лет и теперь должна отправить в Эль Хазард. Вместе с ним в другой мир переносятся несколько его одноклассников и учитель. Каждый из них при перемещении получает какую-то суперспособность. Попав в Эль Хазард и услышав описание Ока Бога, Макото понимает что древние оружие может быть использовано и для путешествий между мирами, а значит и может помочь Макото вернуться в свой мир. Что бы вернуться домой, ему и его товарищам приходится присоединиться к Роштарии.
Информационные ссылки: || || ||
Релиз/Энкод: Moozzi2
Качество: BDRip
Тип видео: без хардсаба
Формат: mkv
Видео: H.264/AVC, 8-bit, 1440x1080 (4:3), 23,976 кадр/с, 8000 Кбит/с
Аудио RUS 3df_voice: AAC, 48 kHz, ~ 300 Kбит/с, 2 ch
Аудио JAP: FLAC, 48 kHz, ~ 625 Kбит/с, 2 ch
Аудио JAP: DTS-HD MA, 48 kHz, ~ 2199 Кбит/с, 6 ch
01. First Night: Battle Field of Confusion | Ночь первая: Ночь Большой Путаницы
02. Second Night: The World of Beautiful Girls | Ночь вторая: Прекрасные девы Эль-Хазарда
03. Third Night: The World of Hot Springs | Ночь третья: Горячая баня Эль-Хазарда
04. Fourth Night: The World of the Demon God | Ночь четвертая: Легенда Эль-Хазарда
05. Fifth Night: The World of Thunder | Ночь пятая: Гроза Эль-Хазарда
06. Sixth Night: The World of Gleaming Light | Ночь шестая: Cумерки Эль-Хазарда
07. Seventh Night: The World of Endless Adventures | Ночь седьмая: Бесконечный Эль-Хазард
Продакшн: студия звукозаписи 3df_voice (г. Тула), 2018г.
Всем интересующимся о новых и прошлых релизах студии, а также условиях её работы ссылка на страницу
Желающим материально отблагодарить участников за проделанную работу, просьба проследовать по ссылке

Код:

Общее
Уникальный идентификатор                 : 301060189982421211993269711213455627750 (0xE27E155FEDBE1072140F0C632BBA55E6)
Формат                                   : Matroska
Версия формата                           : Version 4
Размер файла                             : 3,54 Гбайт
Продолжительность                        : 45 м. 33 с.
Режим общего битрейта                    : Переменный
Общий поток                              : 11,1 Мбит/сек
Дата кодирования                         : UTC 2019-05-18 11:11:05
Программа кодирования                    : mkvmerge v33.0.0 ('A Little Bit of Madness') 64-bit
Библиотека кодирования                   : libebml v1.3.7 + libmatroska v1.5.0

Видео
Идентификатор                            : 1
Формат                                   : AVC
Формат/Информация                        : Advanced Video Codec
Профиль формата                          : High@L4
Настройки формата                        : CABAC / 4 Ref Frames
Параметр CABAC формата                   : Да
Параметр RefFrames формата               : 4 кадра
Идентификатор кодека                     : V_MPEG4/ISO/AVC
Продолжительность                        : 45 м. 33 с.
Битрейт                                  : 8000 Кбит/сек
Ширина                                   : 1440 пикселей
Высота                                   : 1080 пикселей
Соотношение сторон                       : 4:3
Режим частоты кадров                     : Постоянный
Частота кадров                           : 23,976 (24000/1001) кадра/сек
Цветовое пространство                    : YUV
Субдискретизация насыщенности            : 4:2:0
Битовая глубина                          : 8 бит
Тип развёртки                            : Прогрессивная
Бит/(Пиксели*Кадры)                      : 0.215
Размер потока                            : 2,55 Гбайт (72%)
Заголовок                                : Moozzi2
Библиотека кодирования                   : x264 core 148 r2638 7599210
Настройки программы                      : cabac=1 / ref=4 / deblock=1:-1:-1 / analyse=0x3:0x133 / me=umh / subme=9 / psy=1 / psy_rd=0.70:0.00 / mixed_ref=1 / me_range=24 / chroma_me=1 / trellis=0 / 8x8dct=1 / cqm=0 / deadzone=21,11 / fast_pskip=0 / chroma_qp_offset=-2 / threads=12 / lookahead_threads=1 / sliced_threads=0 / nr=0 / decimate=1 / interlaced=0 / bluray_compat=0 / constrained_intra=0 / bframes=3 / b_pyramid=2 / b_adapt=2 / b_bias=0 / direct=1 / weightb=1 / open_gop=0 / weightp=2 / keyint=240 / keyint_min=23 / scenecut=40 / intra_refresh=0 / rc_lookahead=40 / rc=2pass / mbtree=1 / bitrate=8000 / ratetol=1.0 / qcomp=0.60 / qpmin=0 / qpmax=69 / qpstep=4 / cplxblur=20.0 / qblur=0.5 / ip_ratio=1.40 / aq=1:1.00
Default                                  : Да
Forced                                   : Нет

Аудио #1
Идентификатор                            : 2
Формат                                   : AAC LC
Формат/Информация                        : Advanced Audio Codec Low Complexity
Идентификатор кодека                     : A_AAC-2
Продолжительность                        : 45 м. 33 с.
Битрейт                                  : 311 Кбит/сек
Каналы                                   : 2 канала
Channel layout                           : L R
Частота                                  : 48,0 КГц
Частота кадров                           : 46,875 кадров/сек (1024 SPF)
Метод сжатия                             : С потерями
Размер потока                            : 101 Мбайт (3%)
Заголовок                                : 3df_voice
Язык                                     : Russian
Default                                  : Да
Forced                                   : Нет

Аудио #2
Идентификатор                            : 3
Формат                                   : FLAC
Формат/Информация                        : Free Lossless Audio Codec
Идентификатор кодека                     : A_FLAC
Продолжительность                        : 45 м. 33 с.
Вид битрейта                             : Переменный
Битрейт                                  : 625 Кбит/сек
Каналы                                   : 2 канала
Channel layout                           : L R
Частота                                  : 48,0 КГц
Частота кадров                           : 11,719 кадров/сек (4096 SPF)
Битовая глубина                          : 16 бит
Метод сжатия                             : Без потерь
Размер потока                            : 204 Мбайт (6%)
Библиотека кодирования                   : libFLAC 1.3.1 (UTC 2014-11-25)
Язык                                     : Japanese
Default                                  : Нет
Forced                                   : Нет

Аудио #3
Идентификатор                            : 4
Формат                                   : DTS XLL
Формат/Информация                        : Digital Theater Systems
Коммерческое название                    : DTS-HD Master Audio
Идентификатор кодека                     : A_DTS
Продолжительность                        : 45 м. 33 с.
Вид битрейта                             : Переменный
Битрейт                                  : 2199 Кбит/сек
Каналы                                   : 6 каналов
Channel layout                           : C L R Ls Rs LFE
Частота                                  : 48,0 КГц
Частота кадров                           : 93,750 кадра/сек (512 SPF)
Битовая глубина                          : 16 бит
Метод сжатия                             : Без потерь
Размер потока                            : 716 Мбайт (20%)
Язык                                     : Japanese
Default                                  : Нет
Forced                                   : Нет

Текст
Идентификатор                            : 5
Формат                                   : SSA
Идентификатор кодека                     : S_TEXT/SSA
Идентификатор кодека/Информация          : Sub Station Alpha
Продолжительность                        : 45 м. 25 с.
Битрейт                                  : 174 бит/сек
ElementCount                             : 629
Метод сжатия                             : Без потерь
Размер потока                            : 57,9 Кбайт (0%)
Заголовок                                : Terramorpher & Andy Panda
Язык                                     : Russian
Default                                  : Да
Forced                                   : Нет
info [Профиль]  [ЛС] 

3df

Пол: Пол:Муж

Стаж: 3 года 2 месяца

Сообщений: 208

СССР
Рейтинг

post 07-Июл-2018 16:48 (спустя 1 минута) [-]2[+]

[Цитировать] 

Очередной проект нашей студии! Сразу две первых серии.

_________________
Группа ВК: https://vk.com/3df_voice
Наша страница на Патреон: https://www.patreon.com/3df_voice
info [Профиль]  [ЛС] 

3df

Пол: Пол:Муж

Стаж: 3 года 2 месяца

Сообщений: 208

СССР
Рейтинг

post 19-Июл-2018 23:50 (спустя 12 дней) [-]2[+]

[Цитировать] 

Добавил 3-й эпизод.

_________________
Группа ВК: https://vk.com/3df_voice
Наша страница на Патреон: https://www.patreon.com/3df_voice
info [Профиль]  [ЛС] 

3df

Пол: Пол:Муж

Стаж: 3 года 2 месяца

Сообщений: 208

СССР
Рейтинг

post 21-Ноя-2018 22:13 (спустя 4 месяца 1 день) [-]2[+]

[Цитировать] 

Добавил 4й эпизод.

_________________
Группа ВК: https://vk.com/3df_voice
Наша страница на Патреон: https://www.patreon.com/3df_voice
info [Профиль]  [ЛС] 

3df

Пол: Пол:Муж

Стаж: 3 года 2 месяца

Сообщений: 208

СССР
Рейтинг

post 27-Апр-2019 10:15 (спустя 5 месяцев 5 дней) [-]5[+]

[Цитировать] 

Итак, работа над озвучкой данной OVA закончена! Приятного просмотра и спасибо всем, кто ждал, надеялся и верил...
ЗЫ: как обычно, интернет у нас тут ужасный, так что терпите..

_________________
Группа ВК: https://vk.com/3df_voice
Наша страница на Патреон: https://www.patreon.com/3df_voice
info [Профиль]  [ЛС] 

faer1166

Пол: Пол:Муж

Стаж: 4 года 8 месяцев

Сообщений: 7

СССР
Рейтинг

post 27-Апр-2019 21:13 (спустя 10 часов) [-]0[+]

[Цитировать] 

Спасибо вам огромное 3df!
info [Профиль]  [ЛС] 

ReBootRus

Пол: Пол:Муж

Стаж: 4 месяца 25 дней

Сообщений: 59

Южная Георгия и Южные Сандвичевы острова
Рейтинг

post 18-Май-2019 20:30 (спустя 20 дней) [-]0[+]

[Цитировать] 

Раздача обновлена 18.05.2019
Заменил видеоряд на релиз от Moozzi2 8-bit, также оригинальная японская дорога теперь в лучшем качестве.
info [Профиль]  [ЛС] 
Показать сообщения:    
Ответить на тему

Текущее время: 17-Июл 17:31

Часовой пояс: GMT + 4



Вы не можете начинать темы
Вы не можете отвечать на сообщения
Вы не можете редактировать свои сообщения
Вы не можете удалять свои сообщения
Вы не можете голосовать в опросах
Вы не можете прикреплять файлы к сообщениям
Вы не можете скачивать файлы