Ошибка

Любимый во Франксе / Darling in the FranXX (TV) [01-24 из 24] [2018] [меха, драма, научная фантастика] [HDTV720p] [Любительская] MVO AniDub

Ответить на тему
 
Автор Сообщение

Chel90RUS

Пол: Пол:Муж

Стаж: 7 лет 5 месяцев

Сообщений: 569

Россия
Рейтинг

post 20-Май-2018 10:02 0[+]

[Цитировать] 

pic="https://static2.anidub.com/tracker/poster/bff9600020.jpg"
Любимый во Франксе
Darling in the FranXX / ダーリン・イン・ザ・フランキス

Год выпуска: 2018
Жанр: Меха, драма, научная фантастика
Страна: Япония
Тип: HDTV (С 1 по 12 серию - 720р, с 13 - 1080р)
Продолжительность: 24 серий ~ 25 мин
Дата выпуска: c 13.01.2018
Режиссер: Нисигори Ацуси
Автор оригинала / Сценарист: Нисигори Ацуси
Студия: Trigger
Озвучено: Oni, Jade, Ket, Sergei Vasya, Oriko
Перевод: Coronzona
Тайминг и работа со звуком: CaliBri
Видео: MPEG4 Video (H264) 1280x720 23.976fps 1768kbps [V: h264 high L4.0, yuv420p, 1280x720, 1768 kb/s]
Аудио: AAC 48000Hz stereo 128kbps [A: English [eng] (aac lc, 48000 Hz, stereo, 128 kb/s)]


General
Complete name : \[AniDub]_Darling_in_the_FranXX_[01]_[720p_x264_Aac]_[MVO].mp4
Format : MPEG-4
Format profile : Base Media
Codec ID : isom (isom)
File size : 326 MiB
Duration : 24 min 1 s
Overall bit rate mode : Variable
Overall bit rate : 1 900 kb/s
Encoded date : UTC 2018-01-15 22:44:17
Tagged date : UTC 2018-01-15 22:44:17
Writing application : Yamb 2.1.0.0
Video
ID : 1
Format : AVC
Format/Info : Advanced Video Codec
Format profile : High@L4
Format settings, CABAC : Yes
Format settings, RefFrames : 6 frames
Codec ID : avc1
Codec ID/Info : Advanced Video Coding
Duration : 24 min 0 s
Bit rate : 1 776 kb/s
Maximum bit rate : 8 223 kb/s
Width : 1 280 pixels
Height : 720 pixels
Display aspect ratio : 16:9
Frame rate mode : Constant
Frame rate : 23.976 (24000/1001) FPS
Original frame rate : 23.976 (23976/1000) FPS
Color space : YUV
Chroma subsampling : 4:2:0
Bit depth : 8 bits
Scan type : Progressive
Bits/(Pixel*Frame) : 0.080
Stream size : 304 MiB (93%)
Writing library : x264 core 120 r2120 0c7dab9
Encoding settings : cabac=1 / ref=6 / deblock=1:1:1 / analyse=0x3:0x113 / me=umh / subme=8 / psy=1 / psy_rd=0.40:0.00 / mixed_ref=1 / me_range=16 / chroma_me=1 / trellis=1 / 8x8dct=1 / cqm=0 / deadzone=21,11 / fast_pskip=1 / chroma_qp_offset=-2 / threads=4 / sliced_threads=0 / nr=0 / decimate=1 / interlaced=0 / bluray_compat=0 / constrained_intra=0 / bframes=3 / b_pyramid=2 / b_adapt=2 / b_bias=0 / direct=3 / weightb=1 / open_gop=0 / weightp=2 / keyint=250 / keyint_min=23 / scenecut=40 / intra_refresh=0 / rc_lookahead=50 / rc=2pass / mbtree=1 / bitrate=1776 / ratetol=1.0 / qcomp=0.60 / qpmin=0 / qpmax=69 / qpstep=4 / cplxblur=20.0 / qblur=0.5 / vbv_maxrate=3552 / vbv_bufsize=8880 / nal_hrd=none / ip_ratio=1.40 / aq=1:0.60
Encoded date : UTC 2018-01-15 21:26:25
Tagged date : UTC 2018-01-15 22:44:22

Audio
ID : 2
Format : AAC
Format/Info : Advanced Audio Codec
Format profile : LC
Codec ID : 40
Duration : 24 min 1 s
Bit rate mode : Variable
Bit rate : 128 kb/s
Maximum bit rate : 138 kb/s
Channel(s) : 2 channels
Channel positions : Front: L R
Sampling rate : 48.0 kHz
Frame rate : 46.875 FPS (1024 SPF)
Compression mode : Lossy
Stream size : 22.0 MiB (7%)
Language : English
Encoded date : UTC 2018-01-15 22:44:22
Tagged date : UTC 2018-01-15 22:44:22


Описание:Далекое будущее. Земля в руинах, и на остатки человечества наводят ужас таинственные гигантские формы жизни, известные как кёрю — «ревущие драконы». Чтобы противостоять им, люди создали передвижное фортификационное сооружение, названное Плантацией, где растут и обучаются юные пилоты роботов Франкс.
Единственная цель, ради которой живут эти дети, — уничтожение кёрю после прохождения специальной подготовки. Но чтобы управлять роботом — необходимо двое: мужчина и женщина, «тычинка» и «пестик». И если один не справляется, статуса пилота лишаются оба, что и для того и для другого значит ни много ни мало утратить смысл существования.
Хиро считали одаренным. До тех пор, пока он не провалился на экзамене вместе со своей напарницей. Птица, которая никогда не взлетит, — так чувствовал себя мальчик с того времени и даже не догадывался, что скоро встретит человека с похожей судьбой...
«Убийца напарников», рогатая девчонка, в жилах которой течет кровь кёрю. «Станешь ли ты моим милым?» — спросила она не то шутки ради, не то — всерьез. И для Хиро вдруг снова нашлось место в мире...
Добавлена 24 серия 21/07/2018
info [Профиль]  [ЛС] 

Chel90RUS

Пол: Пол:Муж

Стаж: 7 лет 5 месяцев

Сообщений: 569

Россия
Рейтинг

post 23-Май-2018 00:13 (спустя 2 дня 14 часов) [-]0[+]

[Цитировать] 

Добавлена 17 серия 22/05/2018

_________________
info [Профиль]  [ЛС] 

Chel90RUS

Пол: Пол:Муж

Стаж: 7 лет 5 месяцев

Сообщений: 569

Россия
Рейтинг

post 11-Июн-2018 12:20 (спустя 19 дней) [-]0[+]

[Цитировать] 

Добавлена 19 серия 11/06/2018

_________________
info [Профиль]  [ЛС] 

Chel90RUS

Пол: Пол:Муж

Стаж: 7 лет 5 месяцев

Сообщений: 569

Россия
Рейтинг

post 24-Июн-2018 00:54 (спустя 12 дней) [-]0[+]

[Цитировать] 

Добавлена 21 серия 23/06/2018

_________________
info [Профиль]  [ЛС] 

Chel90RUS

Пол: Пол:Муж

Стаж: 7 лет 5 месяцев

Сообщений: 569

Россия
Рейтинг

post 27-Июн-2018 22:37 (спустя 3 дня) [-]0[+]

[Цитировать] 

Добавлена 22 серия 27/06/2018

_________________
info [Профиль]  [ЛС] 

GeparD

Пол: Пол:Муж

Стаж: 8 лет 11 месяцев

Сообщений: 144

Россия
Рейтинг

post 11-Июл-2018 03:02 (спустя 13 дней) [-]0[+]

[Цитировать] 

Хорошее аниме!
info [Профиль]  [ЛС] 

diabolic2010

Стаж: 9 лет 8 месяцев

Сообщений: 482

Россия
Рейтинг

post 18-Июл-2018 20:33 (спустя 7 дней) [-]0[+]

[Цитировать] 

как то затянули с выходом последних двух серий(

_________________
info [Профиль]  [ЛС] 

Chel90RUS

Пол: Пол:Муж

Стаж: 7 лет 5 месяцев

Сообщений: 569

Россия
Рейтинг

post 21-Июл-2018 11:51 (спустя 2 дня 15 часов) [-]0[+]

[Цитировать] 

Добавлена 24 серия 21/07/2018

_________________
info [Профиль]  [ЛС] 
Показать сообщения:    
Ответить на тему

Текущее время: 10-Дек 20:39

Часовой пояс: GMT + 4



Вы не можете начинать темы
Вы не можете отвечать на сообщения
Вы не можете редактировать свои сообщения
Вы не можете удалять свои сообщения
Вы не можете голосовать в опросах
Вы не можете прикреплять файлы к сообщениям
Вы не можете скачивать файлы