Ошибка

Последняя фантазия XV: Братство / Brotherhood: Final Fantasy XV [ONA] [5 из 5] [2016] [Приключения, фэнтези, фантастика] [BDRip 720p] [Любительский + sub]

Ответить на тему
 
Автор Сообщение

Pray

Пол: Пол:Муж

Стаж: 7 лет 2 месяца

Сообщений: 1312

Украина
Рейтинг

post 12-Мар-2018 18:55 2[+]

[Цитировать] 


Последняя фантазия XV: Братство / Brotherhood: Final Fantasy XV

Год выпуска: 2016
Страна: Япония
Жанр: Приключения, фэнтези, фантастика
Тип: ONA
Продолжительность: 5 эп. ~11-17 мин.
Перевод: Любительский (многоголосый) [NIKITOS, Yupi, Snowly, Egoist (01-04 эп.); Dancel, NoName (05 эп.); Тань-УХ-а, Лизавета (SHIZA Project)]
Язык субтитров: Русские (ASS, внешние, официальные (с Blu-ray))

Режиссер: Масуй Сойти
Студия: A-1 Pictures Inc.

Описание: Сериал расскажет несколько историй из путешествия Ноктиса и трёх его верных товарищей, которые дополнят сюжет игры.
Королевство Люцис — последнее государство, владеющее магическим Кристаллом. Воинствующая империя Нифльхейм хочет во что бы то ни стало захватить реликвию. Война между ними не стихала, сколько помнят жители этих стран.
Под давлением превосходящих сил империи, королю Регису больше ничего не остаётся, кроме как согласиться на ультиматум — он должен отдать все свои земли за пределами Инсомнии во владение Нифльхейма, а его сын, Ноктис, должен жениться на леди Лунафрее, бывшей принцессе ныне захваченной земли Тенебра.

Доп. информация: Присутствуют доп. сцены в начале 2-5 сериях и в конце 5. Переведены субтитрами.
Качество: BDRip (720p)
Тип релиза: Без хардсаба
Формат видео: MKV
Видео: AVC (10 bit), 1280x720, 4439 kbps, 23.976 fps
Аудио 1: AAC, 256 kbps, 48.0 kHz, 2 ch - Японский
Аудио 2: AAC, 192 kbps, 48.0 kHz, 2 ch - Русский (внешними файлами) NIKITOS, Yupi, Snowly, Egoist (01-04 эп.); Dancel, NoName (05 эп.); Тань-УХ-а, Лизавета (SHIZA Project)

Код:

General
Unique ID                   : 180524169681479774148045907790887613286 (0x87CFB0BE8C19257E9009EF0204D77366)
Complete name               : Brotherhood - Final Fantasy XV [BD] [720p]\[gt35] Brotherhood - Final Fantasy XV [01] [BDRip, 720p, AAC].mkv
Format                      : Matroska
Format version              : Version 4 / Version 2
File size                   : 361 MiB
Duration                    : 10mn 45s
Overall bit rate            : 4 697 Kbps
Encoded date                : UTC 2016-10-04 15:29:45
Writing application         : mkvmerge v9.4.2 ('So High') 64bit
Writing library             : libebml v1.3.4 + libmatroska v1.4.5

Video
ID                          : 1
Format                      : AVC
Format/Info                 : Advanced Video Codec
Format profile              : High 10@L5.1
Format settings, CABAC      : Yes
Format settings, ReFrames   : 11 frames
Codec ID                    : V_MPEG4/ISO/AVC
Duration                    : 10mn 45s
Bit rate                    : 4 439 Kbps
Width                       : 1 280 pixels
Height                      : 720 pixels
Display aspect ratio        : 16:9
Frame rate mode             : Constant
Frame rate                  : 23.976 (24000/1001) fps
Color space                 : YUV
Chroma subsampling          : 4:2:0
Bit depth                   : 10 bits
Scan type                   : Progressive
Bits/(Pixel*Frame)          : 0.201
Stream size                 : 341 MiB (95%)
Writing library             : x264 core 148 r2638 7599210
Encoding settings           : cabac=1 / ref=11 / deblock=1:-1:-1 / analyse=0x3:0x133 / me=umh / subme=9 / psy=1 / psy_rd=0.90:0.00 / mixed_ref=1 / me_range=24 / chroma_me=1 / trellis=2 / 8x8dct=1 / cqm=0 / deadzone=21,11 / fast_pskip=0 / chroma_qp_offset=-2 / threads=6 / lookahead_threads=1 / sliced_threads=0 / nr=0 / decimate=1 / interlaced=0 / bluray_compat=0 / constrained_intra=0 / bframes=8 / b_pyramid=2 / b_adapt=2 / b_bias=0 / direct=3 / weightb=1 / open_gop=0 / weightp=2 / keyint=240 / keyint_min=23 / scenecut=40 / intra_refresh=0 / rc_lookahead=40 / rc=crf / mbtree=1 / crf=14.7 / qcomp=0.72 / qpmin=0 / qpmax=61 / qpstep=4 / vbv_maxrate=300000 / vbv_bufsize=300000 / crf_max=0.0 / nal_hrd=none / filler=0 / ip_ratio=1.40 / aq=1:1.20
Language                    : Japanese
Default                     : Yes
Forced                      : No

Audio
ID                          : 2
Format                      : AAC
Format/Info                 : Advanced Audio Codec
Format profile              : LC
Codec ID                    : A_AAC
Duration                    : 10mn 44s
Bit rate                    : 256 Kbps
Channel(s)                  : 2 channels
Channel positions           : Front: L R
Sampling rate               : 48.0 KHz
Frame rate                  : 46.875 fps (1024 spf)
Compression mode            : Lossy
Delay relative to video     : 9ms
Stream size                 : 19.7 MiB (5%)
Language                    : Japanese
Default                     : Yes
Forced                      : No
info [Профиль]  [ЛС] 

Deathknot

Пол: Пол:Муж

Стаж: 8 лет 6 месяцев

Сообщений: 41

Россия
Рейтинг

post 13-Мар-2018 21:47 (спустя 1 день 2 часа) [-]0[+]

[Цитировать] 

Не знал что к 15 части помимо фильма есть ещё и аниме. О_о
Спасибо большое!

P.S. А можно ли отдельную раздачу с вшитыми аудиодорожками? А то на телевизоре внешние не подхватывает...

_________________
QuadCore Intel Core i5-7600K, 4100 MHz / Kingston HyperX KHX2400C12D4 8Gb x 2/ PALIT GeForce GTX 1060 6GB DDR5 (192bit)
info [Профиль]  [ЛС] 

_Qwest_

Пол: Пол:Муж

Стаж: 4 года 8 месяцев

Сообщений: 518

СССР
Рейтинг

post 17-Мар-2018 01:24 (спустя 3 дня) [-]0[+]

[Цитировать] 

В 5-й серии RUS Sound на японском, так должно быть?

_________________
-----------------------------------------------------------------------
CPU i5-8600K, ASRock Z370 Killer SLI, G Skill Aegis 16GB, Seasonic FOCUS Modular (80+Gold) 650 Watt, CRYORIG R1 ULTIMATE, RAVEN SilverStone RV02-E,MSI GAMING GTX970, Creative Sound Blaster Z, Corsair Neutron GTX SSD 120 + 2TB HDD, Monitor AOC AG272FG4.
-----------------------------------------------------------------------
info [Профиль]  [ЛС] 
Показать сообщения:    
Ответить на тему

Текущее время: 18-Сен 18:37

Часовой пояс: GMT + 4



Вы не можете начинать темы
Вы не можете отвечать на сообщения
Вы не можете редактировать свои сообщения
Вы не можете удалять свои сообщения
Вы не можете голосовать в опросах
Вы не можете прикреплять файлы к сообщениям
Вы не можете скачивать файлы