Ошибка
Загрузка...

Стальной алхимик / Hagane no renkinjutsushi / Fullmetal Alchemist (Фумихико Сори / Fumihiko Sori) [2017, боевик, фэнтези, приключения, WEB-DLRip-AVC] MVO (AlexFilm) + Sub (rus)

Ответить на тему
 
Автор Сообщение

sokol_ok

Стаж: 4 года 11 месяцев

Сообщений: 212

Белоруссия
Рейтинг

post 26-Фев-2018 19:40 0[+]

[Цитировать] 

Стальной алхимик
Hagane no renkinjutsushi / Fullmetal Alchemist



Страна: Япония
Жанр: боевик, фэнтези, приключения
Год выпуска: 2017
Продолжительность: 02:14:26

Перевод: Профессиональный (многоголосый, закадровый) [AlexFilm]
Субтитры: русские (форсированные, полные)
Оригинальная аудиодорожка: нет

Режиссер: Фумихико Сори / Fumihiko Sori

В ролях: Рёсукэ Ямада, Цубаса Хонда, Дин Фудзиока, Рюта Сато, Мисако Рэнбуцу, Ё Оидзуми, Кэндзиро Исимару, Ясуко Мацуюки, Синдзи Утияма, Каната Хонго, Нацуна Ватанабэ, Фумиё Кохината

Описание:
В стране Аместрис алхимия широко распространена как точная наука. Два брата Эдвард и Альфонс Элрики ещё детьми пытались при помощи алхимии воскресить мёртвую маму, но поплатились за это. Старший лишился руки и ноги, младший - всего тела, хотя и был в самый последний момент чудом спасен - брат привязывает его душу к стальным рыцарским доспехам. Теперь два брата - первый со стальными протезами, второй - просто говорящий доспех - ищут философский камень, чтобы вернуть тело Альфонса.



Автор рипа: stalkerok

Сэмпл

Качество видео: WEB-DLRip-AVC [FullMetal.Alchemist.2017.1080p.NF.WEB-DL.DD5.1.x264-alfaHD]
Формат видео: MKV
Видео кодек: AVC
Аудио кодек: AAC
Видео: AVC, 710 Кбит/сек, 800x340 (2.35:1), 23,976 кадр/сек
Аудио: AAC, 64 Кбит/сек, 48 КГц, 2.0 - русский
---[Information] [26.02.2018 16:18:09] x264 [info]: frame I:1446 Avg QP:14.92 size: 37970
---[Information] [26.02.2018 16:18:09] x264 [info]: frame P:44063 Avg QP:19.88 size: 8289
---[Information] [26.02.2018 16:18:09] x264 [info]: frame B:147892 Avg QP:20.31 size: 1998

Общее
Уникальный идентификатор : 181535078991113744690941933005147466746 (0x8892626BE073BB878D75F89BB38FEBFA)
Полное имя : V:\!Rips\FullMetal Alchemist (2017)\AlexFilm\FullMetal.Alchemist.2017.WEB-DLRip-AVC.AlexFilm.rus.stalkerok.new-team.mkv
Формат : Matroska
Версия формата : Version 4 / Version 2
Размер файла : 746 Мбайт
Продолжительность : 2 ч. 14 м.
Общий поток : 776 Кбит/сек
Название фильма : FullMetal Alchemist (2017) (Rip by stalkerok)
Дата кодирования : UTC 2018-02-26 15:26:57
Программа кодирования : mkvmerge v8.6.1 ('Flying') 64bit
Библиотека кодирования : libebml v1.3.3 + libmatroska v1.4.4

Видео
Идентификатор : 3
Формат : AVC
Формат/Информация : Advanced Video Codec
Профиль формата : High@L4.1
Параметр CABAC формата : Да
Параметр ReFrames формата : 12 кадров
Идентификатор кодека : V_MPEG4/ISO/AVC
Продолжительность : 2 ч. 14 м.
Битрейт : 710 Кбит/сек
Ширина : 800 пикселей
Высота : 340 пикселей
Соотношение сторон : 2,35:1
Режим частоты кадров : Постоянный
Частота кадров : 23,976 (24000/1001) кадра/сек
Цветовое пространство : YUV
Субдискретизация насыщенности : 4:2:0
Битовая глубина : 8 бит
Тип развёртки : Прогрессивная
Бит/(Пиксели*Кадры) : 0.109
Размер потока : 682 Мбайт (92%)
Заголовок : FullMetal Alchemist (2017) (Rip by stalkerok)
Библиотека кодирования : x264 core 152 r2851kMod ba24899
Настройки программы : cabac=1 / ref=12 / deblock=1:-3:-2 / analyse=0x3:0x133 / me=umh / subme=11 / psy=1 / fade_compensate=0.00 / psy_rd=1.00:0.00 / mixed_ref=1 / me_range=32 / chroma_me=1 / trellis=2 / 8x8dct=1 / cqm=0 / deadzone=21,11 / fast_pskip=0 / chroma_qp_offset=-2 / threads=11 / lookahead_threads=2 / sliced_threads=0 / nr=0 / decimate=0 / interlaced=0 / bluray_compat=0 / constrained_intra=0 / bframes=16 / b_pyramid=2 / b_adapt=2 / b_bias=0 / direct=3 / weightb=1 / open_gop=0 / weightp=2 / keyint=240 / keyint_min=23 / scenecut=40 / intra_refresh=0 / rc_lookahead=60 / rc=2pass / mbtree=0 / bitrate=710 / ratetol=1.0 / qcomp=0.65 / qpmin=0 / qpmax=69 / qpstep=4 / cplxblur=20.0 / qblur=0.5 / vbv_maxrate=50000 / vbv_bufsize=62500 / nal_hrd=none / filler=0 / ip_ratio=1.40 / pb_ratio=1.30 / aq=3:0.96 / zones=185786,191702,q=30/192375,193400,q=36
Default : Да
Forced : Нет

Аудио
Идентификатор : 4
Формат : AAC
Формат/Информация : Advanced Audio Codec
Профиль формата : HE-AAC / LC
Идентификатор кодека : A_AAC
Продолжительность : 2 ч. 14 м.
Битрейт : 64,0 Кбит/сек
Каналы : 2 канала
Расположение каналов : Front: L R
Частота : 48,0 КГц / 24,0 КГц
Частота кадров : 23,438 кадра/сек (1024 spf)
Метод сжатия : С потерями
Задержка видео : 31 мс.
Размер потока : 61,5 Мбайт (8%)
Язык : Russian
Default : Да
Forced : Нет

Текст #1
Идентификатор : 1
Формат : UTF-8
Идентификатор кодека : S_TEXT/UTF8
Идентификатор кодека/Информация : UTF-8 Plain Text
Продолжительность : 1 ч. 18 м.
Битрейт : 0 бит/сек
Count of elements : 9
Размер потока : 154 байт (0%)
Заголовок : Forced
Язык : Russian
Default : Да
Forced : Нет

Текст #2
Идентификатор : 2
Формат : UTF-8
Идентификатор кодека : S_TEXT/UTF8
Идентификатор кодека/Информация : UTF-8 Plain Text
Продолжительность : 2 ч. 6 м.
Битрейт : 49 бит/сек
Count of elements : 1211
Размер потока : 45,6 Кбайт (0%)
Язык : Russian
Default : Нет
Forced : Нет
info [Профиль]  [ЛС] 

vitkosh

Пол: Пол:Муж

Стаж: 7 лет 2 месяца

Сообщений: 680

Предупреждений: 1

Россия
Рейтинг

post 26-Фев-2018 22:49 (спустя 3 часа) [-]1[+]

[Цитировать] 

Снимать кинцо по своим же анимашкам - это японцам не дано!
info [Профиль]  [ЛС] 

Bizzare Koshak

Пол: Пол:Муж

Стаж: 7 лет 10 месяцев

Сообщений: 659

Россия
Рейтинг

post 26-Фев-2018 23:29 (спустя 40 минут) [-]0[+]

[Цитировать] 

vitkosh писал(а):

Снимать кинцо по своим же анимашкам - это японцам не дано!
Да такие "шедевры" косых разве что с индийскими боевиками можно сравнить.

_________________
info [Профиль]  [ЛС] 

Shakaaho

Пол: Пол:Муж

Стаж: 4 года 3 месяца

Сообщений: 1555

Россия
Рейтинг

post 27-Фев-2018 01:45 (спустя 2 часа 16 минут) [-]0[+]

[Цитировать] 

Гляну как фанат, а там видно будет.

_________________
Экономьте электричество, выключайте Caps Loock!
info [Профиль]  [ЛС] 
Показать сообщения:    
Ответить на тему

Текущее время: 22-Сен 23:53

Часовой пояс: GMT + 4



Вы не можете начинать темы
Вы не можете отвечать на сообщения
Вы не можете редактировать свои сообщения
Вы не можете удалять свои сообщения
Вы не можете голосовать в опросах
Вы не можете прикреплять файлы к сообщениям
Вы не можете скачивать файлы