Ошибка
Загрузка...

Стальной алхимик / Hagane no renkinjutsushi / Fullmetal Alchemist (Фумихико Сори / Fumihiko Sori) [2017, боевик, фэнтези, приключения, WEB-DLRip-AVC] MVO (AlexFilm) + Original (jap) + Subs

Ответить на тему
 
Автор Сообщение

sokol_ok

Стаж: 4 года 11 месяцев

Сообщений: 212

Белоруссия
Рейтинг

post 26-Фев-2018 15:12 0[+]

[Цитировать] 

Стальной алхимик
Hagane no renkinjutsushi / Fullmetal Alchemist



Страна: Япония
Жанр: боевик, фэнтези, приключения
Год выпуска: 2017
Продолжительность: 02:14:26

Перевод: Профессиональный (многоголосый, закадровый) [AlexFilm]
Субтитры: русские (форсированные, полные), английские, + много других языков (см. MediaInfo)
Оригинальная аудиодорожка: японский

Режиссер: Фумихико Сори / Fumihiko Sori

В ролях: Рёсукэ Ямада, Цубаса Хонда, Дин Фудзиока, Рюта Сато, Мисако Рэнбуцу, Ё Оидзуми, Кэндзиро Исимару, Ясуко Мацуюки, Синдзи Утияма, Каната Хонго, Нацуна Ватанабэ, Фумиё Кохината

Описание:
В стране Аместрис алхимия широко распространена как точная наука. Два брата Эдвард и Альфонс Элрики ещё детьми пытались при помощи алхимии воскресить мёртвую маму, но поплатились за это. Старший лишился руки и ноги, младший - всего тела, хотя и был в самый последний момент чудом спасен - брат привязывает его душу к стальным рыцарским доспехам. Теперь два брата - первый со стальными протезами, второй - просто говорящий доспех - ищут философский камень, чтобы вернуть тело Альфонса.



Автор рипа: stalkerok

Сэмпл

Качество видео: WEB-DLRip-AVC [FullMetal.Alchemist.2017.1080p.NF.WEB-DL.DD5.1.x264-alfaHD]
Формат видео: MKV
Видео кодек: AVC
Аудио кодек: AC3
Видео: AVC, 1563 Кбит/сек, 1152x490 (2.35:1), 23,976 кадр/сек
Аудио #1: AC3, 384 Кбит/сек, 48 КГц, 5.1 - русский
Аудио #2: AC3, 384 Кбит/сек, 48 КГц, 5.1 - японский
---[Information] [26.02.2018 1:34:46] x264 [info]: frame I:1436 Avg QP:15.56 size: 63201
---[Information] [26.02.2018 1:34:46] x264 [info]: frame P:41173 Avg QP:17.64 size: 18755
---[Information] [26.02.2018 1:34:46] x264 [info]: frame B:150792 Avg QP:20.06 size: 4728

Общее
Уникальный идентификатор : 216947536155135387924924812237489051467 (0xA336935C1BE30234A0FA8E889B48174B)
Полное имя : V:\!Rips\FullMetal Alchemist (2017)\AlexFilm\FullMetal.Alchemist.2017.WEB-DLRip-AVC.AlexFilm..rus.jap.stalkerok.new-team.mkv
Формат : Matroska
Версия формата : Version 4 / Version 2
Размер файла : 2,19 Гбайт
Продолжительность : 2 ч. 14 м.
Общий поток : 2335 Кбит/сек
Название фильма : FullMetal Alchemist (2017) (Rip by stalkerok)
Дата кодирования : UTC 2018-02-26 09:55:56
Программа кодирования : mkvmerge v8.6.1 ('Flying') 64bit
Библиотека кодирования : libebml v1.3.3 + libmatroska v1.4.4

Видео
Идентификатор : 1
Формат : AVC
Формат/Информация : Advanced Video Codec
Профиль формата : High@L4.1
Параметр CABAC формата : Да
Параметр ReFrames формата : 12 кадров
Идентификатор кодека : V_MPEG4/ISO/AVC
Продолжительность : 2 ч. 14 м.
Битрейт : 1563 Кбит/сек
Ширина : 1152 пикселя
Высота : 490 пикселей
Соотношение сторон : 2,35:1
Режим частоты кадров : Постоянный
Частота кадров : 23,976 (24000/1001) кадра/сек
Цветовое пространство : YUV
Субдискретизация насыщенности : 4:2:0
Битовая глубина : 8 бит
Тип развёртки : Прогрессивная
Бит/(Пиксели*Кадры) : 0.115
Размер потока : 1,47 Гбайт (67%)
Заголовок : FullMetal Alchemist (2017) (Rip by stalkerok)
Библиотека кодирования : x264 core 152 r2851kMod ba24899
Настройки программы : cabac=1 / ref=12 / deblock=1:-3:-2 / analyse=0x3:0x133 / me=umh / subme=11 / psy=1 / fade_compensate=0.00 / psy_rd=1.00:0.00 / mixed_ref=1 / me_range=32 / chroma_me=1 / trellis=2 / 8x8dct=1 / cqm=0 / deadzone=21,11 / fast_pskip=0 / chroma_qp_offset=-2 / threads=12 / lookahead_threads=3 / sliced_threads=0 / nr=0 / decimate=1 / interlaced=0 / bluray_compat=0 / constrained_intra=0 / bframes=14 / b_pyramid=2 / b_adapt=2 / b_bias=0 / direct=3 / weightb=1 / open_gop=0 / weightp=2 / keyint=240 / keyint_min=23 / scenecut=40 / intra_refresh=0 / rc_lookahead=60 / rc=crf / mbtree=0 / crf=18.9000 / qcomp=0.65 / qpmin=0 / qpmax=69 / qpstep=4 / vbv_maxrate=50000 / vbv_bufsize=62500 / crf_max=0.0 / nal_hrd=none / filler=0 / ip_ratio=1.40 / pb_ratio=1.30 / aq=3:0.80 / zones=185786,191702,q=27/192375,193400,q=32
Default : Да
Forced : Нет

Аудио #1
Идентификатор : 2
Формат : AC-3
Формат/Информация : Audio Coding 3
Расширение режима : CM (complete main)
Параметр Endianness формата : Big
Идентификатор кодека : A_AC3
Продолжительность : 2 ч. 14 м.
Вид битрейта : Постоянный
Битрейт : 384 Кбит/сек
Каналы : 6 каналов
Расположение каналов : Front: L C R, Side: L R, LFE
Частота : 48,0 КГц
Частота кадров : 31,250 кадров/сек (1536 spf)
Метод сжатия : С потерями
Размер потока : 369 Мбайт (16%)
Заголовок : AlexFilm
Язык : Russian
Default : Да
Forced : Нет

Аудио #2
Идентификатор : 3
Формат : AC-3
Формат/Информация : Audio Coding 3
Расширение режима : CM (complete main)
Параметр Endianness формата : Big
Идентификатор кодека : A_AC3
Продолжительность : 2 ч. 14 м.
Вид битрейта : Постоянный
Битрейт : 384 Кбит/сек
Каналы : 6 каналов
Расположение каналов : Front: L C R, Side: L R, LFE
Частота : 48,0 КГц
Частота кадров : 31,250 кадров/сек (1536 spf)
Метод сжатия : С потерями
Размер потока : 369 Мбайт (16%)
Язык : Japanese
Default : Нет
Forced : Нет

Текст #1
Идентификатор : 4
Формат : UTF-8
Идентификатор кодека : S_TEXT/UTF8
Идентификатор кодека/Информация : UTF-8 Plain Text
Продолжительность : 1 ч. 18 м.
Битрейт : 0 бит/сек
Count of elements : 9
Размер потока : 154 байт (0%)
Заголовок : Forced
Язык : Russian
Default : Да
Forced : Нет

Текст #2
Идентификатор : 5
Формат : UTF-8
Идентификатор кодека : S_TEXT/UTF8
Идентификатор кодека/Информация : UTF-8 Plain Text
Продолжительность : 2 ч. 6 м.
Битрейт : 49 бит/сек
Count of elements : 1211
Размер потока : 45,6 Кбайт (0%)
Язык : Russian
Default : Нет
Forced : Нет

Текст #3
Идентификатор : 6
Формат : UTF-8
Идентификатор кодека : S_TEXT/UTF8
Идентификатор кодека/Информация : UTF-8 Plain Text
Продолжительность : 2 ч. 6 м.
Битрейт : 27 бит/сек
Count of elements : 1206
Размер потока : 25,8 Кбайт (0%)
Язык : English
Default : Нет
Forced : Нет

Текст #4
Идентификатор : 7
Формат : UTF-8
Идентификатор кодека : S_TEXT/UTF8
Идентификатор кодека/Информация : UTF-8 Plain Text
Продолжительность : 2 ч. 7 м.
Битрейт : 48 бит/сек
Count of elements : 1217
Размер потока : 45,8 Кбайт (0%)
Язык : Arabic
Default : Нет
Forced : Нет

Текст #5
Идентификатор : 8
Формат : UTF-8
Идентификатор кодека : S_TEXT/UTF8
Идентификатор кодека/Информация : UTF-8 Plain Text
Продолжительность : 2 ч. 6 м.
Битрейт : 28 бит/сек
Count of elements : 1060
Размер потока : 26,6 Кбайт (0%)
Язык : Danish
Default : Нет
Forced : Нет

Текст #6
Идентификатор : 9
Формат : UTF-8
Идентификатор кодека : S_TEXT/UTF8
Идентификатор кодека/Информация : UTF-8 Plain Text
Продолжительность : 2 ч. 6 м.
Битрейт : 31 бит/сек
Count of elements : 1179
Размер потока : 29,5 Кбайт (0%)
Язык : German
Default : Нет
Forced : Нет

Текст #7
Идентификатор : 10
Формат : UTF-8
Идентификатор кодека : S_TEXT/UTF8
Идентификатор кодека/Информация : UTF-8 Plain Text
Продолжительность : 2 ч. 7 м.
Битрейт : 52 бит/сек
Count of elements : 1205
Размер потока : 49,1 Кбайт (0%)
Язык : Greek
Default : Нет
Forced : Нет

Текст #8
Идентификатор : 11
Формат : UTF-8
Идентификатор кодека : S_TEXT/UTF8
Идентификатор кодека/Информация : UTF-8 Plain Text
Продолжительность : 2 ч. 6 м.
Битрейт : 30 бит/сек
Count of elements : 1217
Размер потока : 28,4 Кбайт (0%)
Язык : Spanish
Default : Нет
Forced : Нет

Текст #9
Идентификатор : 12
Формат : UTF-8
Идентификатор кодека : S_TEXT/UTF8
Идентификатор кодека/Информация : UTF-8 Plain Text
Продолжительность : 2 ч. 6 м.
Битрейт : 31 бит/сек
Count of elements : 1210
Размер потока : 29,5 Кбайт (0%)
Заголовок : European
Язык : Spanish
Default : Нет
Forced : Нет

Текст #10
Идентификатор : 13
Формат : UTF-8
Идентификатор кодека : S_TEXT/UTF8
Идентификатор кодека/Информация : UTF-8 Plain Text
Продолжительность : 2 ч. 7 м.
Битрейт : 30 бит/сек
Count of elements : 942
Размер потока : 28,8 Кбайт (0%)
Язык : Finnish
Default : Нет
Forced : Нет

Текст #11
Идентификатор : 14
Формат : UTF-8
Идентификатор кодека : S_TEXT/UTF8
Идентификатор кодека/Информация : UTF-8 Plain Text
Продолжительность : 2 ч. 7 м.
Битрейт : 34 бит/сек
Count of elements : 1198
Размер потока : 31,9 Кбайт (0%)
Язык : French
Default : Нет
Forced : Нет

Текст #12
Идентификатор : 15
Формат : UTF-8
Идентификатор кодека : S_TEXT/UTF8
Идентификатор кодека/Информация : UTF-8 Plain Text
Продолжительность : 2 ч. 7 м.
Битрейт : 45 бит/сек
Count of elements : 1217
Размер потока : 42,8 Кбайт (0%)
Язык : Hebrew
Default : Нет
Forced : Нет

Текст #13
Идентификатор : 16
Формат : UTF-8
Идентификатор кодека : S_TEXT/UTF8
Идентификатор кодека/Информация : UTF-8 Plain Text
Продолжительность : 2 ч. 7 м.
Битрейт : 30 бит/сек
Count of elements : 1203
Размер потока : 28,3 Кбайт (0%)
Язык : Italian
Default : Нет
Forced : Нет

Текст #14
Идентификатор : 17
Формат : UTF-8
Идентификатор кодека : S_TEXT/UTF8
Идентификатор кодека/Информация : UTF-8 Plain Text
Продолжительность : 2 ч. 7 м.
Битрейт : 35 бит/сек
Count of elements : 1217
Размер потока : 33,0 Кбайт (0%)
Язык : Korean
Default : Нет
Forced : Нет

Текст #15
Идентификатор : 18
Формат : UTF-8
Идентификатор кодека : S_TEXT/UTF8
Идентификатор кодека/Информация : UTF-8 Plain Text
Продолжительность : 2 ч. 6 м.
Битрейт : 28 бит/сек
Count of elements : 1162
Размер потока : 26,9 Кбайт (0%)
Язык : Norwegian Bokmal
Default : Нет
Forced : Нет

Текст #16
Идентификатор : 19
Формат : UTF-8
Идентификатор кодека : S_TEXT/UTF8
Идентификатор кодека/Информация : UTF-8 Plain Text
Продолжительность : 2 ч. 7 м.
Битрейт : 30 бит/сек
Count of elements : 1174
Размер потока : 28,8 Кбайт (0%)
Язык : Dutch
Default : Нет
Forced : Нет

Текст #17
Идентификатор : 20
Формат : UTF-8
Идентификатор кодека : S_TEXT/UTF8
Идентификатор кодека/Информация : UTF-8 Plain Text
Продолжительность : 2 ч. 7 м.
Битрейт : 29 бит/сек
Count of elements : 1142
Размер потока : 27,8 Кбайт (0%)
Язык : Polish
Default : Нет
Forced : Нет

Текст #18
Идентификатор : 21
Формат : UTF-8
Идентификатор кодека : S_TEXT/UTF8
Идентификатор кодека/Информация : UTF-8 Plain Text
Продолжительность : 2 ч. 7 м.
Битрейт : 30 бит/сек
Count of elements : 1211
Размер потока : 28,2 Кбайт (0%)
Язык : Portuguese
Default : Нет
Forced : Нет

Текст #19
Идентификатор : 22
Формат : UTF-8
Идентификатор кодека : S_TEXT/UTF8
Идентификатор кодека/Информация : UTF-8 Plain Text
Продолжительность : 2 ч. 7 м.
Битрейт : 31 бит/сек
Count of elements : 1203
Размер потока : 29,2 Кбайт (0%)
Заголовок : Brazilian
Язык : Portuguese
Default : Нет
Forced : Нет

Текст #20
Идентификатор : 23
Формат : UTF-8
Идентификатор кодека : S_TEXT/UTF8
Идентификатор кодека/Информация : UTF-8 Plain Text
Продолжительность : 1 ч. 10 м.
Битрейт : 0 бит/сек
Count of elements : 6
Размер потока : 82,0 байт (0%)
Заголовок : Forced
Язык : Portuguese
Default : Нет
Forced : Нет

Текст #21
Идентификатор : 24
Формат : UTF-8
Идентификатор кодека : S_TEXT/UTF8
Идентификатор кодека/Информация : UTF-8 Plain Text
Продолжительность : 2 ч. 6 м.
Битрейт : 31 бит/сек
Count of elements : 1191
Размер потока : 29,0 Кбайт (0%)
Язык : Romanian
Default : Нет
Forced : Нет

Текст #22
Идентификатор : 25
Формат : UTF-8
Идентификатор кодека : S_TEXT/UTF8
Идентификатор кодека/Информация : UTF-8 Plain Text
Продолжительность : 2 ч. 7 м.
Битрейт : 30 бит/сек
Count of elements : 1170
Размер потока : 28,2 Кбайт (0%)
Язык : Swedish
Default : Нет
Forced : Нет

Текст #23
Идентификатор : 26
Формат : UTF-8
Идентификатор кодека : S_TEXT/UTF8
Идентификатор кодека/Информация : UTF-8 Plain Text
Продолжительность : 2 ч. 7 м.
Битрейт : 76 бит/сек
Count of elements : 1206
Размер потока : 71,1 Кбайт (0%)
Язык : Thai
Default : Нет
Forced : Нет

Текст #24
Идентификатор : 27
Формат : UTF-8
Идентификатор кодека : S_TEXT/UTF8
Идентификатор кодека/Информация : UTF-8 Plain Text
Продолжительность : 2 ч. 6 м.
Битрейт : 32 бит/сек
Count of elements : 1211
Размер потока : 30,1 Кбайт (0%)
Язык : Turkish
Default : Нет
Forced : Нет

Текст #25
Идентификатор : 28
Формат : UTF-8
Идентификатор кодека : S_TEXT/UTF8
Идентификатор кодека/Информация : UTF-8 Plain Text
Продолжительность : 2 ч. 6 м.
Битрейт : 38 бит/сек
Count of elements : 1212
Размер потока : 36,1 Кбайт (0%)
Язык : Vietnamese
Default : Нет
Forced : Нет

Текст #26
Идентификатор : 29
Формат : UTF-8
Идентификатор кодека : S_TEXT/UTF8
Идентификатор кодека/Информация : UTF-8 Plain Text
Продолжительность : 2 ч. 7 м.
Битрейт : 26 бит/сек
Count of elements : 1216
Размер потока : 24,8 Кбайт (0%)
Заголовок : Simplified
Язык : Chinese
Default : Нет
Forced : Нет

Текст #27
Идентификатор : 30
Формат : UTF-8
Идентификатор кодека : S_TEXT/UTF8
Идентификатор кодека/Информация : UTF-8 Plain Text
Продолжительность : 2 ч. 6 м.
Битрейт : 32 бит/сек
Count of elements : 1215
Размер потока : 29,8 Кбайт (0%)
Заголовок : Traditional
Язык : Chinese
Default : Нет
Forced : Нет
info [Профиль]  [ЛС] 

yuJIN84

Пол: Пол:Муж

Стаж: 9 лет 1 месяц

Сообщений: 75

Россия
Рейтинг

post 26-Фев-2018 17:38 (спустя 2 часа 25 минут) [-]0[+]

[Цитировать] 

ничего себе! Даже не слышал, что япы киношку снимают про алхимика
info [Профиль]  [ЛС] 

Choppers

Пол: Пол:Муж

Стаж: 7 лет 2 месяца

Сообщений: 38

Россия
Рейтинг

post 26-Фев-2018 17:49 (спустя 11 минут) [-]0[+]

[Цитировать] 

фильм так се получился на 3-ку
info [Профиль]  [ЛС] 

pavel8289

Пол: Пол:Муж

Стаж: 7 лет 10 месяцев

Сообщений: 150

Украина
Рейтинг

post 26-Фев-2018 19:23 (спустя 1 час 34 минуты) [-]0[+]

[Цитировать] 

качаю не задумываясь !

_________________
info [Профиль]  [ЛС] 

Shinra

Пол: Пол:Муж

Стаж: 7 лет 2 месяца

Сообщений: 66

Россия
Рейтинг

post 26-Фев-2018 19:47 (спустя 23 минуты) [-]0[+]

[Цитировать] 

Дождался, ура!
info [Профиль]  [ЛС] 

kanmei

Пол: Пол:Муж

Стаж: 7 лет 11 месяцев

Сообщений: 41

Россия
Рейтинг

post 26-Фев-2018 21:14 (спустя 1 час 27 минут) [-]0[+]

[Цитировать] 

Choppers писал(а):

фильм так се получился на 3-ку
они там оч много выпускают лайвов в этом году по шедеврам аниме и манги Улыбаюсь поищи в трейлерах
info [Профиль]  [ЛС] 

AFILEXO

Пол: Пол:Муж

Стаж: 8 лет 11 месяцев

Сообщений: 788

Россия
Рейтинг

post 26-Фев-2018 23:31 (спустя 2 часа 17 минут) [-]0[+]

[Цитировать] 

человек отыгрывающий роль капитана отлично отыгрывает свою роль.приятно смотреть.
info [Профиль]  [ЛС] 

Shakaaho

Пол: Пол:Муж

Стаж: 4 года 3 месяца

Сообщений: 1555

Россия
Рейтинг

post 27-Фев-2018 02:01 (спустя 2 часа 30 минут) [-]0[+]

[Цитировать] 

Глупый бред. Сюжет в каку. Выражения лиц актеров после лимонок. Ага- смотрите.

_________________
Экономьте электричество, выключайте Caps Loock!
info [Профиль]  [ЛС] 

turgeneww

Пол: Пол:Муж

Стаж: 9 лет

Сообщений: 47

Россия
Рейтинг

post 27-Фев-2018 23:43 (спустя 21 час) [-]-8[+]

[Цитировать] 

само описание к фильму вызвало странное чуйство ...сказочный японский хогвардс kolob_187
info [Профиль]  [ЛС] 

Dinorock

Пол: Пол:Муж

Стаж: 8 лет 4 месяца

Сообщений: 204

Россия
Рейтинг

post 02-Мар-2018 00:42 (спустя 2 дня) [-]0[+]

[Цитировать] 

Я давно читал , что этот фильм снимается. Спасибо автор.

_________________
info [Профиль]  [ЛС] 

MuxauL87

Пол: Пол:Муж

Стаж: 5 лет 11 месяцев

Сообщений: 11

Россия
Рейтинг

post 07-Мар-2018 14:15 (спустя 5 дней) [-]0[+]

[Цитировать] 

За релиз спасибо.
Но по факту, фильм так себе. Тема с гомункулами вообще не раскрыта! Кто они, зачем они, от куда они? Подбор актеров не очень, особенно не очень главный герой. Почему он всё время орет??!!! Уже к середине фильма начинают бесить эти истерики Эда!

По мне, так лучше вообще не смотреть и остановиться на аниме.
info [Профиль]  [ЛС] 
Показать сообщения:    
Ответить на тему

Текущее время: 21-Сен 16:49

Часовой пояс: GMT + 4



Вы не можете начинать темы
Вы не можете отвечать на сообщения
Вы не можете редактировать свои сообщения
Вы не можете удалять свои сообщения
Вы не можете голосовать в опросах
Вы не можете прикреплять файлы к сообщениям
Вы не можете скачивать файлы