Ошибка

Непутёвый ученик в школе магии: Взывающая к звёздам / Mahouka Koukou no Rettousei: Hoshi wo Yobu Shoujo [Movie] [2017] [экшен, фантастика, романтика] [BDRip] [1080p] [Субтитры (JAP)]

Ответить на тему
 
Автор Сообщение

anoningen

Стаж: 4 года 9 месяцев

Сообщений: 614

Самоа
Рейтинг

post 06-Фев-2018 23:30 0[+]

[Цитировать] 

Непутёвый ученик в школе магии: Взывающая к звёздам
Mahouka Koukou no Rettousei: Hoshi wo Yobu Shoujo
劇場版 魔法科高校の劣等生 星を呼ぶ少女

Год выпуска:
2017 г.
Тип: Полнометражный фильм
Жанр: экшен, фантастика, романтика
Режиссер: Ёсида Рисако
Автор оригинала: Сато Цутому
Студия:
Продолжительность: 89 мин.
Русские субтитры: ASS, внешним файлом
Переводчик/Перевод песен/Оформление: Nika_Elrik [YakuSub Studio]
Редактор: Arashi-sama [YakuSub Studio]

Описание: На момент повествования истории время года уже сменилось, и вскоре настанет весна. Тацуя и его сестра Миюки окончили свой первый год в Первой Магической Школе, и теперь наконец-то могут отправиться на весенние каникулы. Парочка собралась расслабиться на своей вилле, расположенной на острове Огасавара. Но только брат с сестрой начинают наслаждаться долгожданным отдыхом и покоем, как оба встречают молодую девушку, представившуюся Кокоа. Из рассказанной ею истории Тацуя и Миюки узнают, что Кокоа сбежала с военно-морской базы. Однако и тут не все так просто: загадочная особа просит Тацую исполнить одно ее желание.
Автор рипа: Ohys-Raws
Качество: BDRip
Формат видео: MPEG-4
Видео: AVC, 8 бит, 1920x1080; 23.976 кадра/сек; 4648 Кбит/сек, (16:9)
Аудио: FLAC, 48,0 КГц, переменный ~931 Кбит/сек, 2 канала
Общее
Уникальный идентификатор : 245947854312914574229982108920988458180 (0xB907D56FD8E37CADB500D59D2F765CC4)
Полное имя : G:\Anime\Gekijouban Mahouka Koukou no Rettousei Hoshi o Yobu Shoujo\[Ohys-Raws] Gekijouban Mahouka Koukou no Rettousei Hoshi o Yobu Shoujo (BD 1920x1080 x264 FLAC).mkv
Формат : Matroska
Версия формата : Version 2
Размер файла : 3,50 Гбайт
Продолжительность : 1 ч. 29 м.
Режим общего битрейта : Переменный
Общий поток : 5581 Кбит/сек
Дата кодирования : UTC 2018-01-25 06:14:15
Программа кодирования : mkvmerge v8.3.0 ('Over the Horizon') 32bit
Библиотека кодирования : libebml v1.3.1 + libmatroska v1.4.2

Видео
Идентификатор : 1
Формат : AVC
Формат/Информация : Advanced Video Codec
Профиль формата : Main@L4.1
Настройки формата : CABAC / 4 Ref Frames
Параметр CABAC формата : Да
Параметр RefFrames формата : 4 кадра
Идентификатор кодека : V_MPEG4/ISO/AVC
Продолжительность : 1 ч. 29 м.
Битрейт : 4648 Кбит/сек
Ширина : 1920 пикселей
Высота : 1080 пикселей
Соотношение сторон : 16:9
Режим частоты кадров : Постоянный
Частота кадров : 23,976 (24000/1001) кадра/сек
Цветовое пространство : YUV
Субдискретизация насыщенности : 4:2:0
Битовая глубина : 8 бит
Тип развёртки : Прогрессивная
Бит/(Пиксели*Кадры) : 0.093
Размер потока : 2,92 Гбайт (83%)
Библиотека кодирования : x264 core 155 r2867+74 66b5600 t_mod_Custom_2 [8-bit@all X86_64]
Настройки программы : cabac=1 / ref=3 / deblock=1:0:0 / analyse=0x1:0x131 / me=umh / subme=9 / psy=1 / fade_compensate=0.00 / psy_rd=1.00:0.00 / mixed_ref=1 / me_range=32 / chroma_me=1 / trellis=1 / 8x8dct=0 / cqm=0 / deadzone=21,11 / fast_pskip=1 / chroma_qp_offset=-2 / threads=18 / lookahead_threads=1 / sliced_threads=0 / nr=0 / decimate=1 / interlaced=0 / bluray_compat=0 / constrained_intra=0 / fgo=0 / bframes=3 / b_pyramid=2 / b_adapt=1 / b_bias=0 / direct=1 / weightb=1 / open_gop=0 / weightp=2 / keyint=240 / keyint_min=1 / scenecut=40 / intra_refresh=0 / rc_lookahead=40 / rc=crf / mbtree=1 / crf=18.0000 / qcomp=0.60 / qpmin=0:0:0 / qpmax=69:69:69 / qpstep=4 / ip_ratio=1.40 / aq=1:1.00 / aq-sensitivity=10.00 / aq-factor=1.00:1.00:1.00 / aq2=0 / aq3=0
Default : Да
Forced : Нет

Аудио
Идентификатор : 2
Формат : FLAC
Формат/Информация : Free Lossless Audio Codec
Идентификатор кодека : A_FLAC
Продолжительность : 1 ч. 29 м.
Вид битрейта : Переменный
Битрейт : 931 Кбит/сек
Каналы : 2 канала
Расположение каналов : Front: L R
Частота : 48,0 КГц
Частота кадров : 11,719 кадров/сек (4096 SPF)
Битовая глубина : 24 бит
Размер потока : 599 Мбайт (17%)
Библиотека кодирования : libFLAC 1.3.2 (UTC 2017-01-01)
Язык : Japanese
Default : Да
Forced : Нет
info [Профиль]  [ЛС] 

anoningen

Стаж: 4 года 9 месяцев

Сообщений: 614

Самоа
Рейтинг

post 06-Фев-2018 23:33 (спустя 2 минуты) [-]0[+]

[Цитировать] 

На раздаче после 19:00 по будням и весь день в выходные.
Приятного просмотра!
info [Профиль]  [ЛС] 

MuPHoB

Пол: Пол:Муж

Стаж: 4 года 8 месяцев

Сообщений: 56

Россия
Рейтинг

post 07-Фев-2018 19:50 (спустя 20 часов) [-]0[+]

[Цитировать] 

Здоров всем,anoningen,спасибо за рип!ёмоё,что же это выходит,полнометражка,а 2-ой сезон будет!?
info [Профиль]  [ЛС] 
Показать сообщения:    
Ответить на тему

Текущее время: 24-Фев 13:57

Часовой пояс: GMT + 4



Вы не можете начинать темы
Вы не можете отвечать на сообщения
Вы не можете редактировать свои сообщения
Вы не можете удалять свои сообщения
Вы не можете голосовать в опросах
Вы не можете прикреплять файлы к сообщениям
Вы не можете скачивать файлы