Ошибка

Ра-Зефон (ТВ) / RahXephon [TV] [1-26 из 26] [2002] [фантастика, драма, романтика, меха] [BDRip, 720p] [Любительский, (JAP + SUB)]

Ответить на тему
 
Автор Сообщение

Nighteon

Пол: Пол:Муж

Стаж: 7 лет 8 месяцев

Сообщений: 90

Россия
Рейтинг

post 21-Янв-2018 15:40 1[+]

[Цитировать] 

Ра-Зефон ТВ / RahXephon TV

Страна: Япония
Год выпуска: 2002
Жанр: фантастика, драма, романтика, меха
Тип: TV+Special
Продолжительность: 26 эп. по ~23 мин
Режиссер: Идзубути Ютака
Студия: Bones

Перевод на русский: Angel & LEXX$Y$
Озвучка двухголосая от ShinkaDan: Азазель (муж.), Чигуса (жен.) (Sample)
Звукорежиссёр: Виктор Нуштаев
Монтаж звука: Ильдар Галеев

Описание: Страшная катастрофа уничтожила мир, и только город-крепость Токио, защищенный мощным силовым полем, остался последним осколком человечества. Так считает 17-летний Аято Камино, токийский школьник, ведущий, как он считает, нормальную жизнь. Жизнь эта кончается вместе с прорывом силового поля и налетом странных истребителей, которым противостоят еще более странные боевые машины. В наступившей суматохе Аято сталкивается с молодой женщиной Харукой Сито, к которой сразу чувствует странное притяжение…
Вот так судьба в образе Харуки приводит Аято к богоподобному существу по имени Ра-Зефон, таинственному гиганту, которого можно назвать роботом, а можно – инструментом настройки Вселенной. С его помощью Камино, как цыпленок, вылупляется из скорлупы незнания и начинает искать свое истинное место в мире. Главные темы этого великолепного аниме, густо замешанного на традициях жанра меха, древней истории, философии и мистике – Время, любовь и музыка!

Качество: BDRip
Тип релиза: Без хардсаба
Формат видео: MP4
Релиз/Автор рипа: E-HARO Raws
Видео: x264, 960x720, (4/3), ~2200кбит/с, 23.976fps, 10 bit
Аудио: ALAC, 2 ch, 672кбит/с, 48000Hz Язык Русский (в составе контейнера) ; Озвучка двухголосая: Azazel (муж.), Chigusa (жен.)
Аудио 2: ALAC, 2 ch, 665кбит/с, 48000Hz Язык Японский
Субтитры: SSA - внешние, полные Язык субтитров русский ; Перевод: Angel & LEXX$Y$
 
Общее
Полное имя : O:\Downloads\[ShinkaDan] RahXephon TV [BDRip 720p]\[ShinkaDan] RahXephon - 01 [BDrip H264 720p 10bit ALAC] [Azazel & Chigusa].mp4
Формат : MPEG-4
Профиль формата : Base Media
Идентификатор кодека : isom
Размер файла : 597 Мбайт
Продолжительность : 23 м.
Режим общего битрейта : Переменный
Общий поток : 3552 Кбит/сек
Дата кодирования : UTC 2016-12-31 11:33:40
Дата пометки : UTC 2016-12-31 11:33:40

Видео
Идентификатор : 1
Формат : AVC
Формат/Информация : Advanced Video Codec
Профиль формата : High 10@L5
Параметр CABAC формата : Да
Параметр ReFrames формата : 9 кадров
Идентификатор кодека : avc1
Идентификатор кодека/Информация : Advanced Video Coding
Продолжительность : 23 м.
Битрейт : 2212 Кбит/сек
Максимальный битрейт : 13,1 Мбит/сек
Ширина : 960 пикселей
Высота : 720 пикселей
Соотношение сторон : 4:3
Режим частоты кадров : Постоянный
Частота кадров : 23,976 кадра/сек
Цветовое пространство : YUV
Субдискретизация насыщенности : 4:2:0
Битовая глубина : 10 бит
Тип развёртки : Прогрессивная
Бит/(Пиксели*Кадры) : 0.133
Размер потока : 372 Мбайт (62%)
Заголовок : h264:fps=23.976@GPAC0.6.2-DEV-rev1265-g3a160d0-master
Библиотека кодирования : x264 core 133 r2334 a3ac64b
Настройки программы : cabac=1 / ref=9 / deblock=1:-1:-1 / analyse=0x3:0x113 / me=umh / subme=9 / psy=1 / psy_rd=1.00:0.00 / mixed_ref=1 / me_range=24 / chroma_me=1 / trellis=2 / 8x8dct=1 / cqm=0 / deadzone=21,11 / fast_pskip=0 / chroma_qp_offset=-2 / threads=9 / lookahead_threads=2 / sliced_threads=0 / nr=0 / decimate=0 / interlaced=0 / bluray_compat=0 / constrained_intra=0 / bframes=12 / b_pyramid=2 / b_adapt=2 / b_bias=0 / direct=1 / weightb=1 / open_gop=0 / weightp=2 / keyint=240 / keyint_min=24 / scenecut=40 / intra_refresh=0 / rc=crf / mbtree=0 / crf=16.0 / qcomp=0.72 / qpmin=0 / qpmax=81 / qpstep=4 / ip_ratio=1.40 / pb_ratio=1.30 / aq=1:0.95
Дата кодирования : UTC 2016-12-31 11:33:40
Дата пометки : UTC 2016-12-31 11:33:49
Цветовой диапазон : Limited
Основные цвета : BT.709
Характеристики трансфера : BT.709
Коэффициенты матрицы : BT.709

Аудио #1
Идентификатор : 2
Формат : ALAC
Идентификатор кодека : alac
Идентификатор кодека/Информация : Apple Lossless Audio Codec
Продолжительность : 23 м.
Вид битрейта : Переменный
Битрейт : 672 Кбит/сек
Номинальный битрейт : 1536 Кбит/сек
Максимальный битрейт : 1099 Кбит/сек
Каналы : 2 канала
Частота : 48,0 КГц
Битовая глубина : 16 бит
Размер потока : 113 Мбайт (19%)
Язык : Russian
Дата кодирования : UTC 1970-01-01 00:00:00
Дата пометки : UTC 2016-12-31 11:33:49

Аудио #2
Идентификатор : 3
Формат : ALAC
Идентификатор кодека : alac
Идентификатор кодека/Информация : Apple Lossless Audio Codec
Продолжительность : 23 м.
Вид битрейта : Переменный
Битрейт : 665 Кбит/сек
Номинальный битрейт : 1536 Кбит/сек
Максимальный битрейт : 1134 Кбит/сек
Каналы : 2 канала
Частота : 48,0 КГц
Битовая глубина : 16 бит
Размер потока : 112 Мбайт (19%)
Язык : Japanese
Дата кодирования : UTC 1970-01-01 00:00:00
Дата пометки : UTC 2016-12-31 11:33:49
bdif: 4.33 GB (4646522880) 100.00%
File: O:\Downloads\[ShinkaDan] RahXephon TV [BDRip 720p]\[ShinkaDan] RahXephon - 01 [BDrip H264 720p 10bit ALAC] [Azazel & Chigusa].mp4
Duration: 00:23:31 (1410.99)
Track #1: video (h264:fps=23.976@GPAC0.6.2-DEV-rev1265-g3a160d0-master)
lang: Unknown (1)
codc: avc1 -> H264/AVC (22)
reso: 960x720 -> Unknown (aka not common)
fram: 23.976 fps
rate: 2212 kbps (2212.35)
dura: 00:23:31 (1410.87)
size: 372.00 B (390166204)
Track #2: audio
lang: ru -> Russian (15)
codc: alac -> Codec not recognized. (255)
chan: 2 -> Stereo
samp: 48000 Hz
rate: 672 kbps (671.51)
dura: 00:23:31 (1410.99)
size: 113.00 MB (118569162)
Track #3: audio
lang: ja -> Japanese (2)
codc: alac -> Codec not recognized. (255)
chan: 2 -> Stereo
samp: 48000 Hz
rate: 665 kbps (665.46)
dura: 00:23:31 (1410.99)
size: 112.00 MB (117502615)
Sizes: (check sanity)
disk: 597.49 MB (626509090)
trac: 0.00 B (0) [based on track size]
bitr: 596.95 MB (625951734) [based on bitrate]
tdif: 597.49 MB (626509090) 100.00%
bdif: 544.29 KB (557355) 0.08%
01. Властитель
02. Освобождение
03. Добро пожаловать к нам
04. Настоящее время
05. Рай земной
06. Забытые песни, потерянные мелодии
07. Под покровом тайны
08. Сны и грёзы
09. Святая святых
10. Война. Какой мы её помним
11. Кошмар
12. Резонанс
13. Спящая красавица
14. День за днём
15. Когда закончилось детство
16. Лунная принцесса
17. Точка отсчёта
18. Память Затерянного Города
19. Билет в никуда
20. В кругу заинтересованных лиц
21. Прощай, друг
22. Низвержение
23. Где слышно пенье птиц
24. В четыре руки
25. Бог из машины
26. Не достоин вечности, но достоин любви.
info [Профиль]  [ЛС] 

post 21-Янв-2018 15:58 (спустя 17 минут) [-]0[+]

Топик был перенесен из форума Анонсы в форум HD Rips

Pharaon
 

Shaddy

Пол: Пол:Муж

Стаж: 4 года 11 месяцев

Сообщений: 1

Россия
Рейтинг

post 21-Янв-2018 17:27 (спустя 1 час 46 минут) [-]-1[+]

[Цитировать] 

РакСефон!

_________________
Если море было пивом, я дельфином стал красивым! (с)
info [Профиль]  [ЛС] 

Instylar

Пол: Пол:Муж

Стаж: 7 лет 11 месяцев

Сообщений: 51

Россия
Рейтинг

post 22-Янв-2018 00:00 (спустя 6 часов) [-]0[+]

[Цитировать] 

Оу, товарищ почти пять лет терпел чтобы высказать нечто столь умное... Респектос, копите энергию еще годика четыре, не меньше.
Хороший сериал, хотя после него смотрел ОВА, при своей краткости показалась мне потом лучше и чуть повзрослее. Хм, ну да один черт сёнен))).
info [Профиль]  [ЛС] 
Показать сообщения:    
Ответить на тему

Текущее время: 24-Фев 13:44

Часовой пояс: GMT + 4



Вы не можете начинать темы
Вы не можете отвечать на сообщения
Вы не можете редактировать свои сообщения
Вы не можете удалять свои сообщения
Вы не можете голосовать в опросах
Вы не можете прикреплять файлы к сообщениям
Вы не можете скачивать файлы