Ошибка

Зверополис / Zootopia (Байрон Ховард / Byron Howard, Рич Мур / Rich Moore, Джаред Буш / Jared Bush) [2016, мультфильм, боевик, комедия, BDRip-AVC] Dub + Sub (rus)

Ответить на тему
 
Автор Сообщение

sokol_ok

Стаж: 4 года 3 месяца

Сообщений: 64

Белоруссия
Рейтинг

post 13-Янв-2018 20:10 0[+]

[Цитировать] 

Зверополис
Zootopia

«Welcome to the urban jungle»



Страна: США
Жанр: мультфильм, боевик, комедия, криминал, приключения, семейный

Год выпуска: 2016
Продолжительность: 01:48:44

Перевод: Профессиональный (полное дублирование) [Blu-ray EUR]
Cубтитры: русские (форсированные, полные)
Оригинальная аудиодорожка: нет

Режиссер: Байрон Ховард / Byron Howard, Рич Мур / Rich Moore, Джаред Буш / Jared Bush

В ролях: Джиннифер Гудвин, Джейсон Бейтман, Идрис Эльба, Дженни Слейт, Нейт Торренс, Бонни Хант, Дон Лейк, Томми Чонг, Дж.К. Симмонс, Октавия Спенсер, Алан Тьюдик, Шакира

Описание:
Добро пожаловать в Зверополис - современный город, населенный самыми разными животными, от огромных слонов до крошечных мышек. Зверополис разделен на районы, полностью повторяющие естественную среду обитания разных жителей - здесь есть и элитный район Площадь Сахары и неприветливый Тундратаун. В этом городе появляется новый офицер полиции, жизнерадостная зайчиха Джуди Хоппс, которая с первых дней работы понимает, как сложно быть маленькой и пушистой среди больших и сильных полицейских. Джуди хватается за первую же возможность проявить себя, несмотря на то, что ее партнером будет болтливый хитрый лис Ник Уайлд. Вдвоем им предстоит раскрыть сложное дело, от которого будет зависеть судьба всех обитателей Зверополиса.



Автор рипа: stalkerok

Сэмпл

Качество видео: BDRip-AVC [Локализованный видеоряд] [Zootopia (2016) Blu-ray Disc [EUR] -BLUEBIRD]
Формат видео: MKV
Видео кодек: AVC
Аудио кодек: AAC
Видео: 838 Кбит/сек, 788*330 (2,40:1), в 23,976 (24000/1001) кадра/сек, AVC
Аудио: 112 Кбит/сек, 48,0 КГц, 2 канала, AAC (LC)
Навигация по главам: есть
---[Information] [13.01.2018 14:27:56] x264 [info]: frame I:1399 Avg QP:17.53 size: 35062
---[Information] [13.01.2018 14:27:56] x264 [info]: frame P:33722 Avg QP:19.92 size: 9672
---[Information] [13.01.2018 14:27:56] x264 [info]: frame B:121309 Avg QP:22.87 size: 2538

Общее
Уникальный идентификатор : 171735937778412757727648465762599360295 (0x813323755B941C97889F79CAFCD8D727)
Полное имя : M:\$oldrerips\Zootopia\Zootopia.2016.BDRip-AVC.RUS..stalkerok.new-team.mkv
Формат : Matroska
Версия формата : Version 4 / Version 2
Размер файла : 740 Мбайт
Продолжительность : 1 ч. 48 м.
Общий поток : 952 Кбит/сек
Название фильма : Zootopia (2016) (Rip by stalkerok)
Дата кодирования : UTC 2018-01-13 15:34:46
Программа кодирования : mkvmerge v8.6.1 ('Flying') 64bit
Библиотека кодирования : libebml v1.3.3 + libmatroska v1.4.4

Видео
Идентификатор : 3
Формат : AVC
Формат/Информация : Advanced Video Codec
Профиль формата : High@L4.1
Параметр CABAC формата : Да
Параметр ReFrames формата : 16 кадров
Идентификатор кодека : V_MPEG4/ISO/AVC
Продолжительность : 1 ч. 48 м.
Битрейт : 838 Кбит/сек
Ширина : 788 пикселей
Высота : 330 пикселей
Соотношение сторон : 2,40:1
Режим частоты кадров : Постоянный
Частота кадров : 23,976 (24000/1001) кадра/сек
Цветовое пространство : YUV
Субдискретизация насыщенности : 4:2:0
Битовая глубина : 8 бит
Тип развёртки : Прогрессивная
Бит/(Пиксели*Кадры) : 0.134
Размер потока : 651 Мбайт (88%)
Заголовок : Zootopia (2016) (Rip by stalkerok)
Библиотека кодирования : x264 core 152 r2851kMod ba24899
Настройки программы : cabac=1 / ref=16 / deblock=1:-3:-2 / analyse=0x3:0x133 / me=umh / subme=11 / psy=1 / fade_compensate=0.00 / psy_rd=1.00:0.00 / mixed_ref=1 / me_range=32 / chroma_me=1 / trellis=2 / 8x8dct=1 / cqm=0 / deadzone=21,11 / fast_pskip=0 / chroma_qp_offset=-2 / threads=10 / lookahead_threads=2 / sliced_threads=0 / nr=0 / decimate=1 / interlaced=0 / bluray_compat=0 / constrained_intra=0 / bframes=16 / b_pyramid=2 / b_adapt=2 / b_bias=0 / direct=3 / weightb=1 / open_gop=0 / weightp=2 / keyint=240 / keyint_min=23 / scenecut=40 / intra_refresh=0 / rc_lookahead=60 / rc=crf / mbtree=0 / crf=19.0000 / qcomp=0.65 / qpmin=0 / qpmax=69 / qpstep=4 / vbv_maxrate=50000 / vbv_bufsize=62500 / crf_max=0.0 / nal_hrd=none / filler=0 / ip_ratio=1.40 / pb_ratio=1.30 / aq=3:0.94 / zones=143936,156429,q=35
Default : Да
Forced : Нет

Аудио
Идентификатор : 4
Формат : AAC
Формат/Информация : Advanced Audio Codec
Профиль формата : LC
Идентификатор кодека : A_AAC
Продолжительность : 1 ч. 48 м.
Битрейт : 112 Кбит/сек
Каналы : 2 канала
Расположение каналов : Front: L R
Частота : 48,0 КГц
Частота кадров : 46,875 кадров/сек (1024 spf)
Метод сжатия : С потерями
Задержка видео : 9 мс.
Размер потока : 87,1 Мбайт (12%)
Язык : Russian
Default : Да
Forced : Нет

Текст #1
Идентификатор : 1
Формат : UTF-8
Идентификатор кодека : S_TEXT/UTF8
Идентификатор кодека/Информация : UTF-8 Plain Text
Продолжительность : 1 ч. 30 м.
Битрейт : 5 бит/сек
Count of elements : 73
Размер потока : 3,59 Кбайт (0%)
Заголовок : Forced
Язык : Russian
Default : Да
Forced : Нет

Текст #2
Идентификатор : 2
Формат : UTF-8
Идентификатор кодека : S_TEXT/UTF8
Идентификатор кодека/Информация : UTF-8 Plain Text
Продолжительность : 1 ч. 38 м.
Битрейт : 122 бит/сек
Count of elements : 1734
Размер потока : 88,6 Кбайт (0%)
Язык : Russian
Default : Нет
Forced : Нет

Меню
00:00:00.000 : : 1. Пролог
00:00:59.558 : : 2. Гидеон Грей
00:05:50.098 : : 3. Полицейская академия
00:10:05.562 : : 4. Добро пожаловать в Зверополис
00:14:31.537 : : 5. Инспекция парковок
00:18:24.019 : : 6. Лапочки на палочке
00:26:03.353 : : 7. Погоня за Хорьковицем
00:30:57.438 : : 8. Это жульничество
00:37:07.099 : : 9. Клуб натуралистов
00:40:43.440 : : 10. Управление Дорожно-Хвостовой Службы
00:44:31.751 : : 11. Мистер Биг
00:51:40.429 : : 12. Одичавший Манчас
00:55:40.378 : : 13. Гондола
01:00:48.268 : : 14. Помощь Барашкис
01:03:37.855 : : 15. Клиника на Утёсе
01:09:19.822 : : 16. Мы раскрыли дело
01:13:39.163 : : 17. Хопс сдаётся
01:17:07.372 : : 18. Извинения Хопс
01:21:52.364 : : 19. Лаборатория Дугласа
01:28:19.167 : : 20. Музей естественной истории
01:32:43.431 : : 21. Эпилог
01:36:12.140 : : 22. Финальные титры
info [Профиль]  [ЛС] 
Показать сообщения:    
Ответить на тему

Текущее время: 16-Янв 15:25

Часовой пояс: GMT + 4



Вы не можете начинать темы
Вы не можете отвечать на сообщения
Вы не можете редактировать свои сообщения
Вы не можете удалять свои сообщения
Вы не можете голосовать в опросах
Вы не можете прикреплять файлы к сообщениям
Вы не можете скачивать файлы