Ошибка

Зверополис / Zootopia (Байрон Ховард / Byron Howard, Рич Мур / Rich Moore, Джаред Буш / Jared Bush) [2016, мультфильм, боевик, комедия, BDRip-AVC] Dub + Sub (rus)

Ответить на тему
 
Автор Сообщение

sokol_ok

Стаж: 4 года 3 месяца

Сообщений: 65

Белоруссия
Рейтинг

post 13-Янв-2018 19:03 0[+]

[Цитировать] 

Зверополис
Zootopia

«Welcome to the urban jungle»



Страна: США
Жанр: мультфильм, боевик, комедия, криминал, приключения, семейный

Год выпуска: 2016
Продолжительность: 01:48:44

Перевод: Профессиональный (полное дублирование) [Blu-ray EUR]
Cубтитры: русские (форсированные, полные)
Оригинальная аудиодорожка: нет

Режиссер: Байрон Ховард / Byron Howard, Рич Мур / Rich Moore, Джаред Буш / Jared Bush

В ролях: Джиннифер Гудвин, Джейсон Бейтман, Идрис Эльба, Дженни Слейт, Нейт Торренс, Бонни Хант, Дон Лейк, Томми Чонг, Дж.К. Симмонс, Октавия Спенсер, Алан Тьюдик, Шакира

Описание:
Добро пожаловать в Зверополис - современный город, населенный самыми разными животными, от огромных слонов до крошечных мышек. Зверополис разделен на районы, полностью повторяющие естественную среду обитания разных жителей - здесь есть и элитный район Площадь Сахары и неприветливый Тундратаун. В этом городе появляется новый офицер полиции, жизнерадостная зайчиха Джуди Хоппс, которая с первых дней работы понимает, как сложно быть маленькой и пушистой среди больших и сильных полицейских. Джуди хватается за первую же возможность проявить себя, несмотря на то, что ее партнером будет болтливый хитрый лис Ник Уайлд. Вдвоем им предстоит раскрыть сложное дело, от которого будет зависеть судьба всех обитателей Зверополиса.



Автор рипа: stalkerok

Сэмпл

Качество видео: BDRip-AVC [Видеоряд локализован] [Zootopia (2016) Blu-ray Disc [EUR] -BLUEBIRD]
Формат видео: MKV
Видео кодек: AVC
Аудио кодек: AC3
Видео: 1470 Кбит/сек, 960*402 (2,40:1), в 23,976 (24000/1001) кадра/сек, AVC
Аудио: 448 Кбит/сек, 48,0 КГц, 6 каналов, AC-3
Навигация по главам: есть
---[Information] [12.01.2018 14:20:09] x264 [info]: frame I:1397 Avg QP:15.15 size: 62871
---[Information] [12.01.2018 14:20:09] x264 [info]: frame P:34706 Avg QP:19.75 size: 16548
---[Information] [12.01.2018 14:20:09] x264 [info]: frame B:120327 Avg QP:21.08 size: 4457

Общее
Уникальный идентификатор : 234945242371849430966260857832152648998 (0xB0C0CEC9327DF7098DBAE168336E4D26)
Полное имя : M:\$oldrerips\Zootopia\Zootopia.2016.BDRip-AVC.RUS.stalkerok.new-team.mkv
Формат : Matroska
Версия формата : Version 4 / Version 2
Размер файла : 1,46 Гбайт
Продолжительность : 1 ч. 48 м.
Общий поток : 1919 Кбит/сек
Название фильма : Zootopia (2016) (Rip by stalkerok)
Дата кодирования : UTC 2018-01-13 11:33:35
Программа кодирования : mkvmerge v8.6.1 ('Flying') 64bit
Библиотека кодирования : libebml v1.3.3 + libmatroska v1.4.4

Видео
Идентификатор : 1
Формат : AVC
Формат/Информация : Advanced Video Codec
Профиль формата : High@L4.1
Параметр CABAC формата : Да
Параметр ReFrames формата : 15 кадров
Идентификатор кодека : V_MPEG4/ISO/AVC
Продолжительность : 1 ч. 48 м.
Битрейт : 1470 Кбит/сек
Ширина : 960 пикселей
Высота : 402 пикселя
Соотношение сторон : 2,40:1
Режим частоты кадров : Постоянный
Частота кадров : 23,976 (24000/1001) кадра/сек
Цветовое пространство : YUV
Субдискретизация насыщенности : 4:2:0
Битовая глубина : 8 бит
Тип развёртки : Прогрессивная
Бит/(Пиксели*Кадры) : 0.159
Размер потока : 1,12 Гбайт (77%)
Заголовок : Zootopia (2016) (Rip by stalkerok)
Библиотека кодирования : x264 core 152 r2851kMod ba24899
Настройки программы : cabac=1 / ref=15 / deblock=1:-3:-2 / analyse=0x3:0x133 / me=umh / subme=11 / psy=1 / fade_compensate=0.00 / psy_rd=1.00:0.00 / mixed_ref=1 / me_range=32 / chroma_me=1 / trellis=2 / 8x8dct=1 / cqm=0 / deadzone=21,11 / fast_pskip=0 / chroma_qp_offset=-2 / threads=12 / lookahead_threads=3 / sliced_threads=0 / nr=0 / decimate=0 / interlaced=0 / bluray_compat=0 / constrained_intra=0 / bframes=15 / b_pyramid=2 / b_adapt=2 / b_bias=0 / direct=3 / weightb=1 / open_gop=0 / weightp=2 / keyint=240 / keyint_min=23 / scenecut=40 / intra_refresh=0 / rc_lookahead=60 / rc=2pass / mbtree=0 / bitrate=1470 / ratetol=1.0 / qcomp=0.65 / qpmin=0 / qpmax=69 / qpstep=4 / cplxblur=20.0 / qblur=0.5 / vbv_maxrate=50000 / vbv_bufsize=62500 / nal_hrd=none / filler=0 / ip_ratio=1.40 / pb_ratio=1.30 / aq=3:0.80 / zones=143936,156429,q=34
Default : Да
Forced : Нет

Аудио
Идентификатор : 2
Формат : AC-3
Формат/Информация : Audio Coding 3
Расширение режима : CM (complete main)
Параметр Endianness формата : Big
Идентификатор кодека : A_AC3
Продолжительность : 1 ч. 48 м.
Вид битрейта : Постоянный
Битрейт : 448 Кбит/сек
Каналы : 6 каналов
Расположение каналов : Front: L C R, Side: L R, LFE
Частота : 48,0 КГц
Частота кадров : 31,250 кадров/сек (1536 spf)
Метод сжатия : С потерями
Размер потока : 348 Мбайт (23%)
Default : Да
Forced : Нет

Текст #1
Идентификатор : 3
Формат : UTF-8
Идентификатор кодека : S_TEXT/UTF8
Идентификатор кодека/Информация : UTF-8 Plain Text
Продолжительность : 1 ч. 30 м.
Битрейт : 5 бит/сек
Count of elements : 73
Размер потока : 3,59 Кбайт (0%)
Заголовок : Forced
Язык : Russian
Default : Да
Forced : Нет

Текст #2
Идентификатор : 4
Формат : UTF-8
Идентификатор кодека : S_TEXT/UTF8
Идентификатор кодека/Информация : UTF-8 Plain Text
Продолжительность : 1 ч. 38 м.
Битрейт : 122 бит/сек
Count of elements : 1734
Размер потока : 88,6 Кбайт (0%)
Язык : Russian
Default : Нет
Forced : Нет

Меню
00:00:00.000 : en:Chapter 1
00:00:59.559 : en:Chapter 2
00:05:50.099 : en:Chapter 3
00:10:05.563 : en:Chapter 4
00:14:31.537 : en:Chapter 5
00:18:24.019 : en:Chapter 6
00:26:03.353 : en:Chapter 7
00:30:57.438 : en:Chapter 8
00:37:07.099 : en:Chapter 9
00:40:43.440 : en:Chapter 10
00:44:31.752 : en:Chapter 11
00:51:40.430 : en:Chapter 12
00:55:40.378 : en:Chapter 13
01:00:48.269 : en:Chapter 14
01:03:37.855 : en:Chapter 15
01:09:19.822 : en:Chapter 16
01:13:39.164 : en:Chapter 17
01:17:07.372 : en:Chapter 18
01:21:52.365 : en:Chapter 19
01:28:19.168 : en:Chapter 20
01:32:43.432 : en:Chapter 21
01:36:12.141 : en:Chapter 22
info [Профиль]  [ЛС] 
Показать сообщения:    
Ответить на тему

Текущее время: 17-Янв 17:15

Часовой пояс: GMT + 4



Вы не можете начинать темы
Вы не можете отвечать на сообщения
Вы не можете редактировать свои сообщения
Вы не можете удалять свои сообщения
Вы не можете голосовать в опросах
Вы не можете прикреплять файлы к сообщениям
Вы не можете скачивать файлы