Ошибка

Макросс ФБ7: Слушай мою песню! / Macross FB7: Ore no Uta o Kike! [Movie] [2012] [фантастика, комедия, меха] [BDRip, 720p] [Любительский, (JAP + SUB)]

Ответить на тему
 
Автор Сообщение

Nighteon

Пол: Пол:Муж

Стаж: 7 лет 7 месяцев

Сообщений: 85

Россия
Рейтинг

post 01-Янв-2018 09:30 0[+]

[Цитировать] 

Макросс ФБ7: Слушай мою песню! / Macross FB7: Ore no Uta o Kike!

Страна: Япония
Год выпуска: 2012
Жанр: фантастика, комедия, меха, романтика, приключения
Тип: Movie
Продолжительность: 1 ч 30 мин
Режиссер: Амино Тэцуро
Автор оригинала: Кавамори Сёдзи
Студия: Satelight
Перевод на русский: ФБ7 - SpiritiaMaster, а вставки из Макросса 7 NoiR, raven.mech
Озвучка многоголосая: ShinkaDan (Sempl): Виктор Нуштаев (муж.), Стефан Барковский (муж.), Azazel (муж.) и Kesu (жен.) (многоголосая)
Работа со звуком: Виктор Нуштаев

Описание: Как то вечером по освещаемой закатным солнцем дороге, в едущем автомобиле разгорелась не шуточная дискуссия на тему творчества ВИА "Фаер-Бомбер". Озма Ли с пеной у рта доказывал о том что гениальней этой группы нет и не было и вообще они всех порвут, на что Бобби Марго тактично намекнул, что мол у них альбомов уже несколько десятков лет как нет, да и не слышал о них за это время ни кто. Пока наши герои выясняли кто прав, а кто виноват, на встречу автомобилю выскочило неизвестное существо, тут же Озмой прозванное "Птичкой", так вот данная "птичка" оставила задумчивому бугаю видео кассету формата ВХС - вот тут то и начал герой чесать репу, он даже про КД диски не слыхал, какие уж там VHS. Но не унывающий Бобби сказал что знает человека способного помочь и помог. Далее на квартире Озмы собравшись не заметно для главного героя толпой, народ приступил к просмотру загадочной кассеты, а дабы народ не заскучал после 4-х часов Макросса 7, Птичка-сан в процессе подкидывал всё новые и новые кассеты до тех пор пока герои не раскроют две тайны: что случилось с ВИА "Фаер-Бомбер" и кто такой "Птичка-сан". Так кто же такой Птичка, чего он хотел добиться и что произошло с коллективом вокально инструментального ансамбля "Фаер-Бомбер"?! Всё это и многое другое вы узнаете из этого замечательного фильма!
Macross FB7 является символом 30-летия Вселенной Macross.

Качество: BDRip
Тип релиза: Без хардсаба
Формат видео: MP4
Релиз/Автор рипа: QTS
Совместимость с бытовыми плеерами: Нет
Видео: x264, 1280x720, (16/9), ~4600кбит/с, 23.976fps, 10 bit
Аудио: AAC, 6 ch, ~512кбит/с, 48000Hz Язык Русский (в составе контейнера) ; Озвучка многоголосая: Виктор Нуштаев (муж.), Стефан Барковский (муж.), Azazel (муж.) и Kesu (жен.)
Аудио 2: AAC, 6 ch, ~570кбит/с, 48000Hz Язык Японский
Субтитры: ASS - полные (внешние) Язык субтитров русский ; Перевод ФБ7: SpiritiaMaster, вставки из Макросса 7: NoiR, raven.mech
 
Общее
Полное имя : O:\Downloads\[ShinkaDan] Macross FB7 - Ginga Rukon Ore no Uta o Kike! [Stefan_Nighteon_Azazel & Kesui]\[ShinkaDan] Macross FB7 - Ginga Rukon Ore no Uta o Kike! [BDrip 960x720p x264 AAC] [Stefan_Nighteon_Azazel & Kesui].mp4
Формат : MPEG-4
Профиль формата : Base Media
Идентификатор кодека : isom
Размер файла : 2,70 Гбайт
Продолжительность : 1 ч. 30 м.
Режим общего битрейта : Переменный
Общий поток : 4283 Кбит/сек
Дата кодирования : UTC 2017-12-31 16:27:36
Дата пометки : UTC 2017-12-31 16:27:36

Видео
Идентификатор : 1
Формат : AVC
Формат/Информация : Advanced Video Codec
Профиль формата : High 10@L5
Параметр CABAC формата : Да
Параметр ReFrames формата : 10 кадров
Идентификатор кодека : avc1
Идентификатор кодека/Информация : Advanced Video Coding
Продолжительность : 1 ч. 30 м.
Битрейт : 4535 Кбит/сек
Максимальный битрейт : 75,2 Мбит/сек
Ширина : 1280 пикселей
Высота : 720 пикселей
Соотношение сторон : 16:9
Режим частоты кадров : Постоянный
Частота кадров : 23,976 кадра/сек
Цветовое пространство : YUV
Субдискретизация насыщенности : 4:2:0
Битовая глубина : 10 бит
Тип развёртки : Прогрессивная
Бит/(Пиксели*Кадры) : 0.205
Размер потока : 2,86 Гбайт
Заголовок : ShinkaDan
Библиотека кодирования : x264 core 132 r2323+704+51 d571b1c tMod [10-bit@all X86_64]
Настройки программы : cabac=1 / ref=10 / deblock=1:0:0 / analyse=0x3:0x133 / me=umh / subme=11 / psy=1 / fade_compensate=0.00 / psy_rd=1.00:0.00 / mixed_ref=1 / me_range=28 / chroma_me=1 / trellis=2 / 8x8dct=1 / cqm=0 / deadzone=21,11 / fast_pskip=0 / chroma_qp_offset=-2 / threads=9 / lookahead_threads=1 / sliced_threads=0 / nr=0 / decimate=0 / interlaced=0 / bluray_compat=0 / constrained_intra=0 / fgo=0 / bframes=5 / b_pyramid=2 / b_adapt=2 / b_bias=0 / direct=3 / weightb=1 / open_gop=0 / weightp=2 / keyint=240 / keyint_min=24 / scenecut=40 / intra_refresh=0 / rc_lookahead=40 / rc=crf / mbtree=1 / crf=16.0000 / qcomp=0.60 / qpmin=0 / qpmax=51 / qpstep=4 / ip_ratio=1.40 / aq=4:1.00 / aq-sensitivity=10.00 / aq-factor=1.00:1.00:1.00 / aq2=0 / aq3=0
Язык : Japanese
Дата кодирования : UTC 2017-12-31 16:27:36
Дата пометки : UTC 2017-12-31 16:29:45
Цветовой диапазон : Limited
Основные цвета : BT.709
Характеристики трансфера : BT.709
Коэффициенты матрицы : BT.709

Аудио #1
Идентификатор : 2
Формат : AAC
Формат/Информация : Advanced Audio Codec
Профиль формата : LC
Идентификатор кодека : 40
Продолжительность : 1 ч. 30 м.
Вид битрейта : Переменный
Битрейт : 512 Кбит/сек
Максимальный битрейт : 527 Кбит/сек
Каналы : 6 каналов
Расположение каналов : Front: L C R, Side: L R, LFE
Частота : 48,0 КГц
Метод сжатия : С потерями
Размер потока : 330 Мбайт (12%)
Заголовок : Nighteon, Stefan, Azazel & Kesu from ShinkaDan
Язык : Russian
Дата кодирования : UTC 2017-12-31 16:04:53
Дата пометки : UTC 2017-12-31 16:29:45

Аудио #2
Идентификатор : 3
Формат : AAC
Формат/Информация : Advanced Audio Codec
Профиль формата : LC
Идентификатор кодека : 40
Продолжительность : 1 ч. 30 м.
Вид битрейта : Переменный
Битрейт : 576 Кбит/сек
Максимальный битрейт : 960 Кбит/сек
Каналы : 2 канала
Channel(s)_Original : 6 каналов
Расположение каналов : Front: L C R, Side: L R, LFE
Частота : 48,0 КГц
Метод сжатия : С потерями
Размер потока : 370 Мбайт (13%)
Заголовок : Original
Дата кодирования : UTC 2017-12-31 16:29:21
Дата пометки : UTC 2017-12-31 16:29:45

info [Профиль]  [ЛС] 

kanmei

Пол: Пол:Муж

Стаж: 7 лет 3 месяца

Сообщений: 19

Россия
Рейтинг

post 02-Янв-2018 21:11 (спустя 1 день 11 часов) [-]0[+]

[Цитировать] 

Огромное спасибище! Нереально доставило. Даже хз как этот мувик мимо прошел, с учетом его выхода аж в 12 году.
1.5 часа чистого кайфа Улыбаюсь
info [Профиль]  [ЛС] 
Показать сообщения:    
Ответить на тему

Текущее время: 16-Янв 15:25

Часовой пояс: GMT + 4



Вы не можете начинать темы
Вы не можете отвечать на сообщения
Вы не можете редактировать свои сообщения
Вы не можете удалять свои сообщения
Вы не можете голосовать в опросах
Вы не можете прикреплять файлы к сообщениям
Вы не можете скачивать файлы