Ошибка

Владелец Вечности - Учитель-чародей Нэгима 2 / UQ Holder - Mahou Sensei Negima 2 [TV] [1-12 из 12] [2017] [приключения, сёнен] [WEBRip] [720p] [Профессиональный] MVO Kansai

Ответить на тему
 
Автор Сообщение

NovA_JKE

Пол: Пол:Жен

Стаж: 7 лет 10 месяцев

Сообщений: 681

Антарктида
Рейтинг

post 30-Дек-2017 22:36 0[+]

[Цитировать] 

pic="https://image.ibb.co/dAtGnG/UQ_260.png"


Владелец Вечности - Учитель-чародей Нэгима 2 | UQ Holder - Mahou Sensei Negima 2

Год выпуска: 2017
Страна: Япония
Жанр: приключения, сёнен
Тип: TV
Продолжительность: 12 эп. x 25 мин.
Студия:
Режиссер: Судзуки Ёхэй
Автор оригинала: Акамацу Кэн
Релиз: студия Kansai
Перевод: студия Kansai
Озвучивание: многоголосое закадровое


Описание: 10 лет прошло со дня, когда мир узнал о существовании магии. С тех пор многое изменилось. Но не для мальчика по имени Тота, живущего в небольшом и скучном городке. Единственная связь с миром магии - это его учительница-волшебница. Но в однажды его спокойная жизнь заканчивается, и Тота отправляется в необычное приключение.
Дополнительная информация:


Качество: WEBRip
Формат: mkv
Видео: h.264; 8 bit; 1280x720; 23,976 fps; ~1568 kbps
Аудио:
  1. RU: AAC-LC 2.0, 48 kHz, ~256 kbps
Субтитры: нет
  1. Beauty and the Boy.
  2. You Can`t Hate Someone You Meet Naked.
  3. Palace of the Immortals.
  4. Invasion of the Assassins.
  5. Magia Erebea.
  6. Kuromaru`s Dark Days.
  7. Reset and Restart.
  8. Operation: Capture Fate.
  9. Love, Baths, and Vigorous Exercise.
  10. Welcome to Mahora Academy.
  11. Her Love Story.
  12. Adeat! Everlasting Love.

Код:

Общее
Уникальный идентификатор                 : 204150352154986816459230214347953510604 (0x9995ED79A27E4EEA98370823384398CC)
Полное имя                               : P:\NovA_JKE\Аниме\UQ Holder - Mahou Sensei Negima 2 (Владелец Вечности - Учитель-чародей Нэгима 2) [WEBRip 720p, Студия KANSAI]\[KANSAI] UQ Holder! - Mahou Sensei Negima! 2 - 01 [720p].mkv
Формат                                   : Matroska
Версия формата                           : Version 4 / Version 2
Размер файла                             : 312 Мбайт
Продолжительность                        : 24 м. 0 с.
Режим общего битрейта                    : Переменный
Общий поток                              : 1815 Кбит/сек
Дата кодирования                         : UTC 2017-10-08 17:34:30
Программа кодирования                    : mkvmerge v12.0.0 ('Trust / Lust') 64bit
Библиотека кодирования                   : libebml v1.3.4 + libmatroska v1.4.5

Видео
Идентификатор                            : 1
Формат                                   : AVC
Формат/Информация                        : Advanced Video Codec
Профиль формата                          : High@L3.1
Настройки формата                        : CABAC / 5 Ref Frames
Параметр CABAC формата                   : Да
Параметр RefFrames формата               : 5 кадров
Идентификатор кодека                     : V_MPEG4/ISO/AVC
Продолжительность                        : 24 м. 0 с.
Вид битрейта                             : Переменный
Битрейт                                  : 1568 Кбит/сек
Максимальный битрейт                     : 4500 Кбит/сек
Ширина                                   : 1280 пикселей
Высота                                   : 720 пикселей
Соотношение сторон                       : 16:9
Режим частоты кадров                     : Постоянный
Частота кадров                           : 23,976 (24000/1001) кадра/сек
Цветовое пространство                    : YUV
Субдискретизация насыщенности            : 4:2:0
Битовая глубина                          : 8 бит
Тип развёртки                            : Прогрессивная
Бит/(Пиксели*Кадры)                      : 0.071
Размер потока                            : 269 Мбайт (86%)
Заголовок                                : https://kansai.studio
Язык                                     : Japanese
Default                                  : Да
Forced                                   : Нет
Цветовой диапазон                        : Limited
Основные цвета                           : BT.709
Характеристики трансфера                 : BT.709
Коэффициенты матрицы                     : BT.709

Аудио
Идентификатор                            : 2
Формат                                   : AAC
Формат/Информация                        : Advanced Audio Codec
Профиль формата                          : LC
Идентификатор кодека                     : A_AAC-2
Продолжительность                        : 24 м. 0 с.
Битрейт                                  : 244 Кбит/сек
Каналы                                   : 2 канала
Расположение каналов                     : Front: L R
Частота                                  : 48,0 КГц
Частота кадров                           : 46,875 кадров/сек (1024 SPF)
Метод сжатия                             : С потерями
Размер потока                            : 41,9 Мбайт (13%)
Заголовок                                : KANSAI Studio
Язык                                     : Russian
Default                                  : Да
Forced                                   : Нет
info [Профиль]  [ЛС] 
Показать сообщения:    
Ответить на тему

Текущее время: 17-Янв 17:16

Часовой пояс: GMT + 4



Вы не можете начинать темы
Вы не можете отвечать на сообщения
Вы не можете редактировать свои сообщения
Вы не можете удалять свои сообщения
Вы не можете голосовать в опросах
Вы не можете прикреплять файлы к сообщениям
Вы не можете скачивать файлы