Ошибка

ЛЕГО Ниндзяго Фильм / The LEGO Ninjago Movie (Чарли Бин, Пол Фишер, Боб Логан) [2017 г., мультфильм, боевик, комедия, приключения, семейный, BDRip] DUB | iTunes

Ответить на тему
 
Автор Сообщение

xohllenok

Пол: Пол:Муж

Стаж: 2 года 10 месяцев

Сообщений: 1228

Россия
Рейтинг

post 27-Дек-2017 15:38 0[+]

[Цитировать] 

ЛЕГО Ниндзяго Фильм / The LEGO Ninjago Movie
«Открой в себе ниндзя»

Год выпуска: 2017
Страна: США , Дания
Жанр: мультфильм, боевик, комедия, приключения, семейный
Продолжительность: 01:41:26
Перевод: Дублированный [iTunes]
Субтитры: Отсутствуют
Режиссер: Чарли Бин, Пол Фишер, Боб Логан
Сценарий: Боб Логан, Пол Фишер, Уильям Уилер
Продюсер: Уилл Аллегра, Фиона Чилтон, Марианн Гарджер
Оператор: Дэвид Скотт
Композитор: Марк Мазерсбо
Художник: Энни Бошан, Ким Тейлор, Саймон Уайтели
Монтаж: Дэвид Берроуз, Гаррет Элкинс, Райан Фолси
В ролях: Джеки Чан (Master Wu / Mr. Liu, озвучка), Дэйв Франко (Lloyd, озвучка), Фред Армисен (Cole, озвучка), Кумэйл Нанджиани (Jay, озвучка), Майкл Пенья (Kai, озвучка), Эбби Джейкобсон (Nya, озвучка), Зак Вудс (Zane, озвучка), Дэвид Берроуз (Fuchsia Ninja, озвучка), Алекс Кауффман (Ninja Computer, озвучка), Джастин Теру (Garmadon, озвучка), Али Вонг (General Olivia, озвучка), Гаррет Элкинс (Retirement General, озвучка)



Описание: Ниндзяго-сити призывает на свою защиту юного Ллойда, он же Зеленый ниндзя, и его друзей, тайных воинов и Великих мастеров ЛЕГО. Под предводительством кунг-фу мастера Ву, столь же умного, сколь и остроумного, они должны одолеть злобного диктатора Гармадона, Самого Злодейского Злодея, который оказывается отцом Ллойда. Роботы против роботов, сын против отца; эпическое столкновение проверит на прочность эту неистовую, но не самую дисциплинированную команду современных ниндзя, которые должны научиться усмирять свое самомнение, чтобы по полной проявить свои способности.


Качество: BDRip
Формат: AVI
Видео кодек: XviD
Аудио кодек: AC3
Видео: 720x304 (2.35:1), 23.976 fps, XviD, 1 604 Kbps
Аудио: Аудио #1: AC3, 384 Kbps, 48.0 KHz, 6 ch [Rus]

| |

Код:

General
Complete name                            : The.Lego.Ninjago.Movie.2017.BDRip.1.42Gb.MegaPeer.avi
Format                                   : AVI
Format/Info                              : Audio Video Interleave
File size                                : 1.42 GiB
Duration                                 : 1h 41mn
Overall bit rate                         : 1 997 Kbps
Writing application                      : VirtualDubMod 1.5.10.2 (build 2540/release)
Writing library                          : VirtualDubMod build 2540/release

Video
ID                                       : 0
Format                                   : MPEG-4 Visual
Format profile                           : Advanced Simple@L5
Format settings, BVOP                    : 1
Format settings, QPel                    : No
Format settings, GMC                     : No warppoints
Format settings, Matrix                  : Custom
Codec ID                                 : XVID
Codec ID/Hint                            : XviD
Duration                                 : 1h 41mn
Bit rate                                 : 1 604 Kbps
Width                                    : 720 pixels
Height                                   : 304 pixels
Display aspect ratio                     : 2.35:1
Frame rate                               : 23.976 fps
Color space                              : YUV
Chroma subsampling                       : 4:2:0
Bit depth                                : 8 bits
Scan type                                : Progressive
Compression mode                         : Lossy
Bits/(Pixel*Frame)                       : 0.306
Stream size                              : 1.14 GiB (80%)
Writing library                          : XviD 73

Audio
ID                                       : 1
Format                                   : AC-3
Format/Info                              : Audio Coding 3
Mode extension                           : CM (complete main)
Format settings, Endianness              : Big
Codec ID                                 : 2000
Duration                                 : 1h 41mn
Bit rate mode                            : Constant
Bit rate                                 : 384 Kbps
Channel(s)                               : 6 channels
Channel positions                        : Front: L C R, Side: L R, LFE
Sampling rate                            : 48.0 KHz
Bit depth                                : 16 bits
Compression mode                         : Lossy
Stream size                              : 279 MiB (19%)
Alignment                                : Split accross interleaves
Interleave, duration                     : 42 ms (1.00 video frame)
Interleave, preload duration             : 500 ms

Бюджет: $70 000 000
Сборы в США: $59 281 555
Сборы в мире: + $63 800 000 = $123 081 555
Сборы в России: $3 507 031
Зрители: Россия 945.9 тыс.
Премьера (мир): 20 сентября 2017
Премьера (РФ): 21 сентября 2017
Рейтинг MPAA: Рекомендуется присутствие родителей


          


© Оформление by Xohllenok for http://tapochek.net


info [Профиль]  [ЛС] 
Показать сообщения:    
Ответить на тему

Текущее время: 16-Янв 21:35

Часовой пояс: GMT + 4



Вы не можете начинать темы
Вы не можете отвечать на сообщения
Вы не можете редактировать свои сообщения
Вы не можете удалять свои сообщения
Вы не можете голосовать в опросах
Вы не можете прикреплять файлы к сообщениям
Вы не можете скачивать файлы