Ошибка

ЛЕГО Ниндзяго Фильм / The LEGO Ninjago Movie (Чарли Бин, Пол Фишер, Боб Логан) [2017, мультфильм, боевик, комедия, приключения, семейный, BDRip 1080p] [iTunes]

Ответить на тему
 
Автор Сообщение

DENZEL519

Пол: Пол:Муж

Стаж: 6 лет 6 месяцев

Сообщений: 1398

СССР
Рейтинг

post 27-Дек-2017 01:13 0[+]

[Цитировать] 

ЛЕГО Ниндзяго Фильм / The LEGO Ninjago Movie
«Открой в себе ниндзя»

Год выпуска: 2017
Страна: США , Дания
Жанр: мультфильм, боевик, комедия, приключения, семейный
Продолжительность: 01:41:26
Перевод: Дублированный [iTunes]
Субтитры: Русские, английские
Режиссер: Чарли Бин, Пол Фишер, Боб Логан
Сценарий: Боб Логан, Пол Фишер, Уильям Уилер
Продюсер: Уилл Аллегра, Фиона Чилтон, Марианн Гарджер
Оператор: Дэвид Скотт
Композитор: Марк Мазерсбо
Художник: Энни Бошан, Ким Тейлор, Саймон Уайтели
Монтаж: Дэвид Берроуз, Гаррет Элкинс, Райан Фолси
В ролях: Джеки Чан (Master Wu / Mr. Liu, озвучка), Дэйв Франко (Lloyd, озвучка), Фред Армисен (Cole, озвучка), Кумэйл Нанджиани (Jay, озвучка), Майкл Пенья (Kai, озвучка), Эбби Джейкобсон (Nya, озвучка), Зак Вудс (Zane, озвучка), Дэвид Берроуз (Fuchsia Ninja, озвучка), Алекс Кауффман (Ninja Computer, озвучка), Джастин Теру (Garmadon, озвучка), Али Вонг (General Olivia, озвучка), Гаррет Элкинс (Retirement General, озвучка)



Описание: Ниндзяго-сити призывает на свою защиту юного Ллойда, он же Зеленый ниндзя, и его друзей, тайных воинов и Великих мастеров ЛЕГО. Под предводительством кунг-фу мастера Ву, столь же умного, сколь и остроумного, они должны одолеть злобного диктатора Гармадона, Самого Злодейского Злодея, который оказывается отцом Ллойда. Роботы против роботов, сын против отца; эпическое столкновение проверит на прочность эту неистовую, но не самую дисциплинированную команду современных ниндзя, которые должны научиться усмирять свое самомнение, чтобы по полной проявить свои способности.


Качество: BDRip 1080p
Формат: MKV
Видео кодек: AVC
Аудио кодек: AC3
Видео: 1920x804 (2.40:1), 23.976 fps, AVC, 10.0 Mbps
Аудио: Аудио #1: AC3, 384 Kbps, 48.0 KHz, 6 ch [Rus]
Аудио #2: AC3, 448 Kbps, 48.0 KHz, 6 ch [Eng]


Код:

General
Unique ID                                : 257759119674509209511463973586175869417 (0xC1EA99C79B41B202B54D3318436941E9)
Complete name                            : The.LEGO.Ninjago.Movie.2017.BDRip.1080p.ExKinoRay.mkv
Format                                   : Matroska
Format version                           : Version 4 / Version 2
File size                                : 7.69 GiB
Duration                                 : 1h 41mn
Overall bit rate                         : 10.9 Mbps
Movie name                               : The LEGO Ninjago Movie 2017 from ExKinoRay
Encoded date                             : UTC 2017-12-26 19:26:04
Writing application                      : mkvmerge v19.0.0 ('Brave Captain') 64-bit
Writing library                          : libebml v1.3.5 + libmatroska v1.4.8
DURATION                                 : 01:40:55.055000000
NUMBER_OF_FRAMES                         : 1784
NUMBER_OF_BYTES                          : 93663
_STATISTICS_WRITING_APP                  : mkvmerge v19.0.0 ('Brave Captain') 64-bit
_STATISTICS_WRITING_DATE_UTC             : 2017-12-26 19:26:04
_STATISTICS_TAGS                         : BPS DURATION NUMBER_OF_FRAMES NUMBER_OF_BYTES

Video
ID                                       : 1
Format                                   : AVC
Format/Info                              : Advanced Video Codec
Format profile                           : High@L4.1
Format settings, CABAC                   : Yes
Format settings, ReFrames                : 5 frames
Codec ID                                 : V_MPEG4/ISO/AVC
Duration                                 : 1h 41mn
Bit rate                                 : 10.0 Mbps
Width                                    : 1 920 pixels
Height                                   : 804 pixels
Display aspect ratio                     : 2.40:1
Frame rate mode                          : Constant
Frame rate                               : 23.976 fps
Color space                              : YUV
Chroma subsampling                       : 4:2:0
Bit depth                                : 8 bits
Scan type                                : Progressive
Bits/(Pixel*Frame)                       : 0.271
Stream size                              : 6.95 GiB (90%)
Writing library                          : x264 core 148 r2705 3f5ed56
Encoding settings                        : cabac=1 / ref=5 / deblock=1:-2:-2 / analyse=0x3:0x133 / me=umh / subme=11 / psy=1 / psy_rd=1.05:0.05 / mixed_ref=1 / me_range=32 / chroma_me=1 / trellis=2 / 8x8dct=1 / cqm=0 / deadzone=21,11 / fast_pskip=0 / chroma_qp_offset=-3 / threads=24 / lookahead_threads=4 / sliced_threads=0 / nr=0 / decimate=0 / interlaced=0 / bluray_compat=0 / constrained_intra=0 / bframes=8 / b_pyramid=2 / b_adapt=2 / b_bias=0 / direct=3 / weightb=1 / open_gop=0 / weightp=2 / keyint=240 / keyint_min=23 / scenecut=40 / intra_refresh=0 / rc_lookahead=50 / rc=2pass / mbtree=0 / bitrate=10020 / ratetol=1.0 / qcomp=0.60 / qpmin=0 / qpmax=69 / qpstep=4 / cplxblur=20.0 / qblur=0.5 / vbv_maxrate=50000 / vbv_bufsize=62500 / nal_hrd=none / filler=0 / ip_ratio=1.40 / pb_ratio=1.30 / aq=3:0.80
Language                                 : English
Default                                  : Yes
Forced                                   : No
DURATION                                 : 01:41:26.623000000
NUMBER_OF_FRAMES                         : 145933
NUMBER_OF_BYTES                          : 7622877459
_STATISTICS_WRITING_APP                  : mkvmerge v19.0.0 ('Brave Captain') 64-bit
_STATISTICS_WRITING_DATE_UTC             : 2017-12-26 19:26:04
_STATISTICS_TAGS                         : BPS DURATION NUMBER_OF_FRAMES NUMBER_OF_BYTES

Audio #1
ID                                       : 2
Format                                   : AC-3
Format/Info                              : Audio Coding 3
Mode extension                           : CM (complete main)
Format settings, Endianness              : Big
Codec ID                                 : A_AC3
Duration                                 : 1h 41mn
Bit rate mode                            : Constant
Bit rate                                 : 384 Kbps
Channel(s)                               : 6 channels
Channel positions                        : Front: L C R, Side: L R, LFE
Sampling rate                            : 48.0 KHz
Bit depth                                : 16 bits
Compression mode                         : Lossy
Stream size                              : 279 MiB (4%)
Title                                    : iTunes
Language                                 : Russian
Default                                  : Yes
Forced                                   : No

Audio #2
ID                                       : 3
Format                                   : AC-3
Format/Info                              : Audio Coding 3
Mode extension                           : CM (complete main)
Format settings, Endianness              : Big
Codec ID                                 : A_AC3
Duration                                 : 1h 41mn
Bit rate mode                            : Constant
Bit rate                                 : 448 Kbps
Channel(s)                               : 6 channels
Channel positions                        : Front: L C R, Side: L R, LFE
Sampling rate                            : 48.0 KHz
Bit depth                                : 16 bits
Compression mode                         : Lossy
Stream size                              : 325 MiB (4%)
Title                                    : Original
Language                                 : English
Default                                  : No
Forced                                   : No

Text #1
ID                                       : 4
Format                                   : UTF-8
Codec ID                                 : S_TEXT/UTF8
Codec ID/Info                            : UTF-8 Plain Text
Title                                    : Full
Language                                 : Russian
Default                                  : No
Forced                                   : No

Text #2
ID                                       : 5
Format                                   : UTF-8
Codec ID                                 : S_TEXT/UTF8
Codec ID/Info                            : UTF-8 Plain Text
Title                                    : Full
Language                                 : English
Default                                  : No
Forced                                   : No

Menu
00:00:00.000                             : en:Chapter 01
00:11:44.746                             : en:Chapter 02
00:23:32.453                             : en:Chapter 03
00:31:09.785                             : en:Chapter 04
00:40:53.368                             : en:Chapter 05
00:53:48.392                             : en:Chapter 06
01:03:05.532                             : en:Chapter 07
01:16:07.688                             : en:Chapter 08
01:25:13.608                             : en:Chapter 09
01:32:10.900                             : en:Chapter 10

Бюджет: $70 000 000
Сборы в США: $59 281 555
Сборы в мире: + $63 800 000 = $123 081 555
Сборы в России: $3 507 031
Зрители: Россия 945.9 тыс.
Премьера (мир): 20 сентября 2017
Премьера (РФ): 21 сентября 2017
Рейтинг MPAA: Рекомендуется присутствие родителей



© Оформление by DENZEL519 for http://tapochek.net


info [Профиль]  [ЛС] 
Показать сообщения:    
Ответить на тему

Текущее время: 17-Янв 17:16

Часовой пояс: GMT + 4



Вы не можете начинать темы
Вы не можете отвечать на сообщения
Вы не можете редактировать свои сообщения
Вы не можете удалять свои сообщения
Вы не можете голосовать в опросах
Вы не можете прикреплять файлы к сообщениям
Вы не можете скачивать файлы